  0
SECTION
  2
HEADER
  9
$ACADVER
  1
AC1015
  9
$ACADMAINTVER
 70
    20
  9
$DWGCODEPAGE
  3
ANSI_932
  9
$INSBASE
 10
0.0
 20
0.0
 30
0.0
  9
$EXTMIN
 10
-519.9096194174963
 20
1401.980605902073
 30
0.0
  9
$EXTMAX
 10
279.3742249691996
 20
1861.980605902073
 30
8.199999999999999
  9
$LIMMIN
 10
0.0
 20
0.0
  9
$LIMMAX
 10
420.0
 20
297.0
  9
$ORTHOMODE
 70
     0
  9
$REGENMODE
 70
     1
  9
$FILLMODE
 70
     1
  9
$QTEXTMODE
 70
     0
  9
$MIRRTEXT
 70
     0
  9
$LTSCALE
 40
1.0
  9
$ATTMODE
 70
     1
  9
$TEXTSIZE
 40
2.5
  9
$TRACEWID
 40
1.0
  9
$TEXTSTYLE
  7
Standard
  9
$CLAYER
  8
塗潰し
  9
$CELTYPE
  6
ByLayer
  9
$CECOLOR
 62
   256
  9
$CELTSCALE
 40
1.0
  9
$DISPSILH
 70
     0
  9
$DIMSCALE
 40
1.0
  9
$DIMASZ
 40
4.0
  9
$DIMEXO
 40
1.0
  9
$DIMDLI
 40
7.0
  9
$DIMRND
 40
0.0
  9
$DIMDLE
 40
0.0
  9
$DIMEXE
 40
1.0
  9
$DIMTP
 40
0.0
  9
$DIMTM
 40
0.0
  9
$DIMTXT
 40
5.0
  9
$DIMCEN
 40
0.0
  9
$DIMTSZ
 40
0.0
  9
$DIMTOL
 70
     0
  9
$DIMLIM
 70
     0
  9
$DIMTIH
 70
     0
  9
$DIMTOH
 70
     0
  9
$DIMSE1
 70
     0
  9
$DIMSE2
 70
     0
  9
$DIMTAD
 70
     1
  9
$DIMZIN
 70
     8
  9
$DIMBLK
  1
Open30
  9
$DIMASO
 70
     1
  9
$DIMSHO
 70
     1
  9
$DIMPOST
  1

  9
$DIMAPOST
  1

  9
$DIMALT
 70
     0
  9
$DIMALTD
 70
     2
  9
$DIMALTF
 40
0.0394
  9
$DIMLFAC
 40
1.0
  9
$DIMTOFL
 70
     1
  9
$DIMTVP
 40
0.0
  9
$DIMTIX
 70
     0
  9
$DIMSOXD
 70
     0
  9
$DIMSAH
 70
     0
  9
$DIMBLK1
  1

  9
$DIMBLK2
  1

  9
$DIMSTYLE
  2
JIS
  9
$DIMCLRD
 70
     0
  9
$DIMCLRE
 70
     0
  9
$DIMCLRT
 70
     0
  9
$DIMTFAC
 40
1.0
  9
$DIMGAP
 40
1.0
  9
$DIMJUST
 70
     0
  9
$DIMSD1
 70
     0
  9
$DIMSD2
 70
     0
  9
$DIMTOLJ
 70
     1
  9
$DIMTZIN
 70
     0
  9
$DIMALTZ
 70
     0
  9
$DIMALTTZ
 70
     0
  9
$DIMUPT
 70
     0
  9
$DIMDEC
 70
     4
  9
$DIMTDEC
 70
     4
  9
$DIMALTU
 70
     2
  9
$DIMALTTD
 70
     2
  9
$DIMTXSTY
  7
Standard
  9
$DIMAUNIT
 70
     0
  9
$DIMADEC
 70
     0
  9
$DIMALTRND
 40
0.0
  9
$DIMAZIN
 70
     0
  9
$DIMDSEP
 70
    46
  9
$DIMATFIT
 70
     3
  9
$DIMFRAC
 70
     0
  9
$DIMLDRBLK
  1
Open30
  9
$DIMLUNIT
 70
     2
  9
$DIMLWD
 70
    -2
  9
$DIMLWE
 70
    -2
  9
$DIMTMOVE
 70
     0
  9
$LUNITS
 70
     2
  9
$LUPREC
 70
     4
  9
$SKETCHINC
 40
1.0
  9
$FILLETRAD
 40
0.0
  9
$AUNITS
 70
     0
  9
$AUPREC
 70
     0
  9
$MENU
  1
.
  9
$ELEVATION
 40
0.0
  9
$PELEVATION
 40
0.0
  9
$THICKNESS
 40
0.0
  9
$LIMCHECK
 70
     0
  9
$CHAMFERA
 40
0.0
  9
$CHAMFERB
 40
0.0
  9
$CHAMFERC
 40
0.0
  9
$CHAMFERD
 40
0.0
  9
$SKPOLY
 70
     0
  9
$TDCREATE
 40
2454379.577641921
  9
$TDUCREATE
 40
2454379.202641921
  9
$TDUPDATE
 40
2454937.414554271
  9
$TDUUPDATE
 40
2454937.039554271
  9
$TDINDWG
 40
0.1906922917
  9
$TDUSRTIMER
 40
0.1906901157
  9
$USRTIMER
 70
     1
  9
$ANGBASE
 50
0.0
  9
$ANGDIR
 70
     0
  9
$PDMODE
 70
     0
  9
$PDSIZE
 40
0.0
  9
$PLINEWID
 40
0.0
  9
$SPLFRAME
 70
     0
  9
$SPLINETYPE
 70
     6
  9
$SPLINESEGS
 70
     8
  9
$HANDSEED
  5
2D18
  9
$SURFTAB1
 70
     6
  9
$SURFTAB2
 70
     6
  9
$SURFTYPE
 70
     6
  9
$SURFU
 70
     6
  9
$SURFV
 70
     6
  9
$UCSBASE
  2

  9
$UCSNAME
  2

  9
$UCSORG
 10
0.0
 20
0.0
 30
0.0
  9
$UCSXDIR
 10
1.0
 20
0.0
 30
0.0
  9
$UCSYDIR
 10
0.0
 20
1.0
 30
0.0
  9
$UCSORTHOREF
  2

  9
$UCSORTHOVIEW
 70
     0
  9
$UCSORGTOP
 10
0.0
 20
0.0
 30
0.0
  9
$UCSORGBOTTOM
 10
0.0
 20
0.0
 30
0.0
  9
$UCSORGLEFT
 10
0.0
 20
0.0
 30
0.0
  9
$UCSORGRIGHT
 10
0.0
 20
0.0
 30
0.0
  9
$UCSORGFRONT
 10
0.0
 20
0.0
 30
0.0
  9
$UCSORGBACK
 10
0.0
 20
0.0
 30
0.0
  9
$PUCSBASE
  2

  9
$PUCSNAME
  2

  9
$PUCSORG
 10
0.0
 20
0.0
 30
0.0
  9
$PUCSXDIR
 10
1.0
 20
0.0
 30
0.0
  9
$PUCSYDIR
 10
0.0
 20
1.0
 30
0.0
  9
$PUCSORTHOREF
  2

  9
$PUCSORTHOVIEW
 70
     0
  9
$PUCSORGTOP
 10
0.0
 20
0.0
 30
0.0
  9
$PUCSORGBOTTOM
 10
0.0
 20
0.0
 30
0.0
  9
$PUCSORGLEFT
 10
0.0
 20
0.0
 30
0.0
  9
$PUCSORGRIGHT
 10
0.0
 20
0.0
 30
0.0
  9
$PUCSORGFRONT
 10
0.0
 20
0.0
 30
0.0
  9
$PUCSORGBACK
 10
0.0
 20
0.0
 30
0.0
  9
$USERI1
 70
     0
  9
$USERI2
 70
     0
  9
$USERI3
 70
     0
  9
$USERI4
 70
     0
  9
$USERI5
 70
     0
  9
$USERR1
 40
0.0
  9
$USERR2
 40
0.0
  9
$USERR3
 40
0.0
  9
$USERR4
 40
0.0
  9
$USERR5
 40
0.0
  9
$WORLDVIEW
 70
     1
  9
$SHADEDGE
 70
     3
  9
$SHADEDIF
 70
    70
  9
$TILEMODE
 70
     0
  9
$MAXACTVP
 70
    64
  9
$PINSBASE
 10
0.0
 20
0.0
 30
0.0
  9
$PLIMCHECK
 70
     0
  9
$PEXTMIN
 10
0.0
 20
0.0
 30
0.0
  9
$PEXTMAX
 10
297.0
 20
210.0
 30
0.0
  9
$PLIMMIN
 10
0.037002778146416
 20
0.0133361937478469
  9
$PLIMMAX
 10
296.9629976511933
 20
209.9866638304666
  9
$UNITMODE
 70
     0
  9
$VISRETAIN
 70
     1
  9
$PLINEGEN
 70
     0
  9
$PSLTSCALE
 70
     1
  9
$TREEDEPTH
 70
  3020
  9
$CMLSTYLE
  2
Standard
  9
$CMLJUST
 70
     0
  9
$CMLSCALE
 40
20.0
  9
$PROXYGRAPHICS
 70
     1
  9
$MEASUREMENT
 70
     1
  9
$CELWEIGHT
370
    -1
  9
$ENDCAPS
280
     0
  9
$JOINSTYLE
280
     0
  9
$LWDISPLAY
290
     0
  9
$INSUNITS
 70
     4
  9
$HYPERLINKBASE
  1

  9
$STYLESHEET
  1

  9
$XEDIT
290
     1
  9
$CEPSNTYPE
380
     0
  9
$PSTYLEMODE
290
     1
  9
$FINGERPRINTGUID
  2
{733C549A-BCB8-4AFB-9693-44D802A4876F}
  9
$VERSIONGUID
  2
{88FC4261-AB68-4683-9D4F-B6C79727070D}
  9
$EXTNAMES
290
     1
  9
$PSVPSCALE
 40
0.0
  9
$OLESTARTUP
290
     0
  0
ENDSEC
  0
SECTION
  2
CLASSES
  0
CLASS
  1
ACDBDICTIONARYWDFLT
  2
AcDbDictionaryWithDefault
  3
ObjectDBX Classes
 90
        0
280
     0
281
     0
  0
CLASS
  1
PLOTSETTINGS
  2
AcDbPlotSettings
  3
ObjectDBX Classes
 90
        0
280
     0
281
     0
  0
CLASS
  1
DICTIONARYVAR
  2
AcDbDictionaryVar
  3
ObjectDBX Classes
 90
        0
280
     0
281
     0
  0
CLASS
  1
TABLESTYLE
  2
AcDbTableStyle
  3
ObjectDBX Classes
 90
     4095
280
     0
281
     0
  0
CLASS
  1
MATERIAL
  2
AcDbMaterial
  3
ObjectDBX Classes
 90
     1024
280
     0
281
     0
  0
CLASS
  1
VISUALSTYLE
  2
AcDbVisualStyle
  3
ObjectDBX Classes
 90
     4095
280
     0
281
     0
  0
CLASS
  1
ACAD_EVALUATION_GRAPH
  2
AcDbEvalGraph
  3
ObjectDBX Classes
 90
    33921
280
     0
281
     0
  0
CLASS
  1
ACAECUSTOBJ
  2
AcAeEditorObj
  3
AcAeEditorObj
 90
    33792
280
     0
281
     0
  0
CLASS
  1
ACDB_DYNAMICBLOCKPURGEPREVENTER_VERSION
  2
AcDbDynamicBlockPurgePreventer
  3
ObjectDBX Classes
 90
    33921
280
     0
281
     0
  0
CLASS
  1
SORTENTSTABLE
  2
AcDbSortentsTable
  3
ObjectDBX Classes
 90
        0
280
     0
281
     0
  0
CLASS
  1
DIMASSOC
  2
AcDbDimAssoc
  3
"AcDbDimAssoc|Product Desc:     AcDim ARX App For Dimension|Company:          Autodesk, Inc.|WEB Address:      www.autodesk.com"
 90
        0
280
     0
281
     0
  0
CLASS
  1
ACDBPLACEHOLDER
  2
AcDbPlaceHolder
  3
ObjectDBX Classes
 90
        0
280
     0
281
     0
  0
CLASS
  1
LAYOUT
  2
AcDbLayout
  3
ObjectDBX Classes
 90
        0
280
     0
281
     0
  0
ENDSEC
  0
SECTION
  2
TABLES
  0
TABLE
  2
VPORT
  5
8
330
0
100
AcDbSymbolTable
 70
     2
  0
VPORT
  5
1B5
330
8
100
AcDbSymbolTableRecord
100
AcDbViewportTableRecord
  2
*Active
 70
     0
 10
0.0
 20
0.0
 11
1.0
 21
1.0
 12
-331.0881177480392
 22
1734.171806440523
 13
0.0
 23
0.0
 14
10.0
 24
10.0
 15
10.0
 25
10.0
 16
0.0
 26
0.0
 36
1.0
 17
0.0
 27
0.0
 37
0.0
 40
428.2817330494173
 41
1.815789473684209
 42
50.0
 43
0.0
 44
0.0
 50
0.0
 51
0.0
 71
     0
 72
  1000
 73
     1
 74
     3
 75
     0
 76
     0
 77
     0
 78
     0
281
     0
 65
     1
110
0.0
120
0.0
130
0.0
111
1.0
121
0.0
131
0.0
112
0.0
122
1.0
132
0.0
 79
     0
146
0.0
  0
VPORT
  5
45A
330
8
100
AcDbSymbolTableRecord
100
AcDbViewportTableRecord
  2
本図
 70
     0
 10
0.0
 20
0.0
 11
1.0
 21
1.0
 12
322.2643325138894
 22
893.4870383816823
 13
0.0
 23
0.0
 14
10.0
 24
10.0
 15
10.0
 25
10.0
 16
0.0
 26
0.0
 36
1.0
 17
0.0
 27
0.0
 37
0.0
 40
349.6006736910367
 41
1.105194805194805
 42
50.0
 43
0.0
 44
0.0
 50
0.0
 51
0.0
 71
     0
 72
  1000
 73
     1
 74
     3
 75
     0
 76
     1
 77
     0
 78
     0
281
     0
 65
     1
110
0.0
120
0.0
130
0.0
111
1.0
121
0.0
131
0.0
112
0.0
122
1.0
132
0.0
 79
     0
146
0.0
  0
ENDTAB
  0
TABLE
  2
LTYPE
  5
5
330
0
100
AcDbSymbolTable
 70
     6
  0
LTYPE
  5
14
330
5
100
AcDbSymbolTableRecord
100
AcDbLinetypeTableRecord
  2
ByBlock
 70
     0
  3

 72
    65
 73
     0
 40
0.0
  0
LTYPE
  5
15
330
5
100
AcDbSymbolTableRecord
100
AcDbLinetypeTableRecord
  2
ByLayer
 70
     0
  3

 72
    65
 73
     0
 40
0.0
  0
LTYPE
  5
16
330
5
100
AcDbSymbolTableRecord
100
AcDbLinetypeTableRecord
  2
Continuous
 70
     0
  3
Solid line
 72
    65
 73
     0
 40
0.0
  0
LTYPE
  5
291
330
5
100
AcDbSymbolTableRecord
100
AcDbLinetypeTableRecord
  2
HIDDEN2
 70
     0
  3
Hidden (.5x) _ _ _ _ _ _ _ _ _ _ _ _ _ _ _ _ _
 72
    65
 73
     2
 40
4.762499999999998
 49
3.174999999999998
 74
     0
 49
-1.587499999999999
 74
     0
  0
LTYPE
  5
4C3
330
5
100
AcDbSymbolTableRecord
100
AcDbLinetypeTableRecord
  2
CENTER2
 70
     0
  3
Center (.5x) ___ _ ___ _ ___ _ ___ _ ___ _ ___
 72
    65
 73
     4
 40
28.575
 49
19.05
 74
     0
 49
-3.174999999999998
 74
     0
 49
3.174999999999998
 74
     0
 49
-3.174999999999998
 74
     0
  0
LTYPE
  5
4C4
330
5
100
AcDbSymbolTableRecord
100
AcDbLinetypeTableRecord
  2
PHANTOM2
 70
     0
  3
Phantom (.5x) ___ _ _ ___ _ _ ___ _ _ ___ _ _
 72
    65
 73
     6
 40
31.75
 49
15.875
 74
     0
 49
-3.174999999999998
 74
     0
 49
3.174999999999998
 74
     0
 49
-3.174999999999998
 74
     0
 49
3.174999999999998
 74
     0
 49
-3.174999999999998
 74
     0
  0
LTYPE
  5
C92
330
5
100
AcDbSymbolTableRecord
100
AcDbLinetypeTableRecord
  2
CENTER
 70
     0
  3
Center ____ _ ____ _ ____ _ ____ _ ____ _ ____
 72
    65
 73
     4
 40
50.8
 49
31.75
 74
     0
 49
-6.349999999999997
 74
     0
 49
6.349999999999997
 74
     0
 49
-6.349999999999997
 74
     0
  0
LTYPE
  5
2283
330
5
100
AcDbSymbolTableRecord
100
AcDbLinetypeTableRecord
  2
HIDDEN
 70
     0
  3
Hidden __ __ __ __ __ __ __ __ __ __ __ __ __ _
 72
    65
 73
     2
 40
9.524999999999996
 49
6.349999999999997
 74
     0
 49
-3.174999999999998
 74
     0
  0
ENDTAB
  0
TABLE
  2
LAYER
  5
2
102
{ACAD_XDICTIONARY
360
18A
102
}
330
0
100
AcDbSymbolTable
 70
    20
  0
LAYER
  5
10
330
2
100
AcDbSymbolTableRecord
100
AcDbLayerTableRecord
  2
0
 70
     0
 62
     7
  6
Continuous
370
    -3
390
F
  0
LAYER
  5
E4
330
2
100
AcDbSymbolTableRecord
100
AcDbLayerTableRecord
  2
Object
 70
     0
 62
     7
  6
Continuous
370
    -3
390
F
  0
LAYER
  5
12C
330
2
100
AcDbSymbolTableRecord
100
AcDbLayerTableRecord
  2
Title Block
 70
     0
 62
     7
  6
Continuous
370
    -3
390
F
  0
LAYER
  5
12D
330
2
100
AcDbSymbolTableRecord
100
AcDbLayerTableRecord
  2
Viewport
 70
     0
 62
     7
  6
Continuous
370
    -3
390
F
  0
LAYER
  5
345
330
2
100
AcDbSymbolTableRecord
100
AcDbLayerTableRecord
  2
作図線
 70
     0
 62
    -6
  6
Continuous
290
     0
370
    18
390
F
  0
LAYER
  5
3DA
330
2
100
AcDbSymbolTableRecord
100
AcDbLayerTableRecord
  2
Dims
 70
     0
 62
     6
  6
Continuous
370
    -3
390
F
  0
LAYER
  5
3DB
330
2
100
AcDbSymbolTableRecord
100
AcDbLayerTableRecord
  2
Defpoints
 70
     0
 62
     7
  6
Continuous
290
     0
370
    -3
390
F
  0
LAYER
  5
3DC
330
2
100
AcDbSymbolTableRecord
100
AcDbLayerTableRecord
  2
テキスト
 70
     0
 62
     4
  6
Continuous
370
    -3
390
F
1001
AcAecLayerStandard
1000

1000

  0
LAYER
  5
4C5
330
2
100
AcDbSymbolTableRecord
100
AcDbLayerTableRecord
  2
寸法線
 70
     0
 62
     3
  6
Continuous
370
    18
390
F
  0
LAYER
  5
4C6
330
2
100
AcDbSymbolTableRecord
100
AcDbLayerTableRecord
  2
隠れ線
 70
     0
 62
     5
  6
HIDDEN2
370
    18
390
F
  0
LAYER
  5
4C7
330
2
100
AcDbSymbolTableRecord
100
AcDbLayerTableRecord
  2
中心線
 70
     0
 62
    -1
  6
CENTER2
370
    18
390
F
  0
LAYER
  5
4C8
330
2
100
AcDbSymbolTableRecord
100
AcDbLayerTableRecord
  2
太線0.5
 70
     0
 62
     8
  6
Continuous
370
    50
390
F
  0
LAYER
  5
4C9
330
2
100
AcDbSymbolTableRecord
100
AcDbLayerTableRecord
  2
想像線
 70
     0
 62
     5
  6
PHANTOM2
370
    18
390
F
  0
LAYER
  5
4CA
330
2
100
AcDbSymbolTableRecord
100
AcDbLayerTableRecord
  2
一時線
 70
     0
 62
    -2
  6
Continuous
290
     0
370
    18
390
F
1001
AcAecLayerStandard
1000

1000

  0
LAYER
  5
4CB
330
2
100
AcDbSymbolTableRecord
100
AcDbLayerTableRecord
  2
切断線
 70
     0
 62
     8
  6
Continuous
370
    25
390
F
1001
AcAecLayerStandard
1000

1000

  0
LAYER
  5
4CC
330
2
100
AcDbSymbolTableRecord
100
AcDbLayerTableRecord
  2
塗潰し
 70
     0
 62
     8
  6
Continuous
370
    18
390
F
1001
AcAecLayerStandard
1000

1000

  0
LAYER
  5
A4A
330
2
100
AcDbSymbolTableRecord
100
AcDbLayerTableRecord
  2
寸法
 70
     0
 62
     3
  6
Continuous
370
    18
390
F
  0
LAYER
  5
C93
330
2
100
AcDbSymbolTableRecord
100
AcDbLayerTableRecord
  2
Bracket
 70
     0
 62
     5
  6
Continuous
370
    40
390
F
  0
LAYER
  5
C94
330
2
100
AcDbSymbolTableRecord
100
AcDbLayerTableRecord
  2
Center
 70
     0
 62
     1
  6
CENTER
370
    -3
390
F
  0
LAYER
  5
2284
330
2
100
AcDbSymbolTableRecord
100
AcDbLayerTableRecord
  2
Hidden
 70
     0
 62
     3
  6
Continuous
370
    -3
390
F
  0
ENDTAB
  0
TABLE
  2
STYLE
  5
3
330
0
100
AcDbSymbolTable
 70
     4
  0
STYLE
  5
11
330
3
100
AcDbSymbolTableRecord
100
AcDbTextStyleTableRecord
  2
Standard
 70
     0
 40
0.0
 41
1.0
 50
0.0
 71
     0
 42
2.5
  3
MS Gothic.ttf
  4

1001
ACAD
1000
MS Gothic
1071
    32817
  0
STYLE
  5
B0
330
3
100
AcDbSymbolTableRecord
100
AcDbTextStyleTableRecord
  2
Roman
 70
     0
 40
0.0
 41
1.0
 50
0.0
 71
     0
 42
5.0
  3
romans.shx
  4
extfont2.shx
  0
STYLE
  5
346
330
3
100
AcDbSymbolTableRecord
100
AcDbTextStyleTableRecord
  2
尺度１／２
 70
     0
 40
0.0
 41
1.0
 50
0.0
 71
     0
 42
8.0
  3
MS Gothic.ttf
  4

1001
ACAD
1000
MS Gothic
1071
    32817
  0
STYLE
  5
68E
330
3
100
AcDbSymbolTableRecord
100
AcDbTextStyleTableRecord
  2
BWH-jdt02
 70
     0
 40
0.0
 41
0.7
 50
0.0
 71
     0
 42
4.752464886293636
  3
SIMSUN.TTF
  4

1001
ACAD
1000
SimSun
1071
    34306
  0
ENDTAB
  0
TABLE
  2
VIEW
  5
6
330
0
100
AcDbSymbolTable
 70
     0
  0
ENDTAB
  0
TABLE
  2
UCS
  5
7
330
0
100
AcDbSymbolTable
 70
     0
  0
ENDTAB
  0
TABLE
  2
APPID
  5
9
330
0
100
AcDbSymbolTable
 70
     9
  0
APPID
  5
12
330
9
100
AcDbSymbolTableRecord
100
AcDbRegAppTableRecord
  2
ACAD
 70
     0
  0
APPID
  5
1B4
330
9
100
AcDbSymbolTableRecord
100
AcDbRegAppTableRecord
  2
ACAD_PSEXT
 70
     0
  0
APPID
  5
27C
330
9
100
AcDbSymbolTableRecord
100
AcDbRegAppTableRecord
  2
ACAUTHENVIRON
 70
     0
  0
APPID
  5
280
330
9
100
AcDbSymbolTableRecord
100
AcDbRegAppTableRecord
  2
AcDbDynamicBlockTrueName
 70
     0
  0
APPID
  5
281
330
9
100
AcDbSymbolTableRecord
100
AcDbRegAppTableRecord
  2
AcDbDynamicBlockGUID
 70
     0
  0
APPID
  5
283
330
9
100
AcDbSymbolTableRecord
100
AcDbRegAppTableRecord
  2
AcDbBlockRepETag
 70
     0
  0
APPID
  5
331
330
9
100
AcDbSymbolTableRecord
100
AcDbRegAppTableRecord
  2
ACAD_EXEMPT_FROM_CAD_STANDARDS
 70
     0
  0
APPID
  5
3DD
330
9
100
AcDbSymbolTableRecord
100
AcDbRegAppTableRecord
  2
AcAecLayerStandard
 70
     0
  0
APPID
  5
692
330
9
100
AcDbSymbolTableRecord
100
AcDbRegAppTableRecord
  2
RAK
 70
     0
  0
ENDTAB
  0
TABLE
  2
DIMSTYLE
  5
A
330
0
100
AcDbSymbolTable
 70
     4
100
AcDbDimStyleTable
 71
     3
340
121
340
348
340
347
  0
DIMSTYLE
105
121
102
{ACAD_REACTORS
330
2352
330
2353
330
2354
330
2355
330
2356
330
2357
330
2358
330
2360
330
2363
330
2366
330
10B4
330
10B5
330
10B6
330
10B7
330
1125
330
1126
330
1127
102
}
330
A
100
AcDbSymbolTableRecord
100
AcDbDimStyleTableRecord
  2
JIS
 70
     0
 41
4.0
 42
1.0
 43
7.0
 44
1.0
 73
     0
 74
     0
 77
     1
 78
     8
140
5.0
141
0.0
143
0.0394
147
1.0
172
     1
340
11
341
33F
342
33F
  0
DIMSTYLE
105
292
330
A
100
AcDbSymbolTableRecord
100
AcDbDimStyleTableRecord
  2
ISO-25
 70
     0
 41
2.5
 42
0.625
 43
3.75
 44
1.25
 73
     0
 74
     0
 77
     1
 78
     8
140
2.5
141
2.5
143
0.03937007874016
147
0.625
171
     3
172
     1
271
     2
272
     2
274
     3
278
    44
283
     0
284
     8
340
11
  0
DIMSTYLE
105
347
330
A
100
AcDbSymbolTableRecord
100
AcDbDimStyleTableRecord
  2
JIS１／２
 70
     0
 41
6.0
 42
1.0
 43
7.0
 44
1.0
 73
     0
 74
     0
 77
     1
 78
     8
140
7.0
141
0.0
143
0.0394
147
2.0
172
     1
271
     2
272
     2
340
346
341
33F
342
33F
  0
DIMSTYLE
105
348
330
A
100
AcDbSymbolTableRecord
100
AcDbDimStyleTableRecord
  2
JIS２／１
 70
     0
 41
2.5
 42
1.0
 43
7.0
 44
1.0
 73
     0
 74
     0
 77
     1
 78
     8
140
3.0
141
0.0
143
0.0394
147
0.5
172
     1
271
     2
272
     2
340
11
341
33F
342
33F
  0
ENDTAB
  0
TABLE
  2
BLOCK_RECORD
  5
1
330
0
100
AcDbSymbolTable
 70
    32
  0
BLOCK_RECORD
  5
1F
102
{ACAD_XDICTIONARY
360
B52
102
}
330
1
100
AcDbSymbolTableRecord
100
AcDbBlockTableRecord
  2
*Model_Space
340
22
  0
BLOCK_RECORD
  5
2CA9
330
1
100
AcDbSymbolTableRecord
100
AcDbBlockTableRecord
  2
*Paper_Space
340
2CA6
  0
BLOCK_RECORD
  5
AB
102
{ACAD_XDICTIONARY
360
28E
102
}
330
1
100
AcDbSymbolTableRecord
100
AcDbBlockTableRecord
  2
JIS A4 title block (portrait)
340
0
310
2800000020000000200000000100080000000000000400000000000000000000000000000000000000000000000080000080000000808000800000008000800080800000C0C0C000C0DCC000F0CAA6000020400000206000002080000020A0000020C0000020E00000400000004020000040400000406000004080000040A0
310
000040C0000040E00000600000006020000060400000606000006080000060A0000060C0000060E00000800000008020000080400000806000008080000080A0000080C0000080E00000A0000000A0200000A0400000A0600000A0800000A0A00000A0C00000A0E00000C0000000C0200000C0400000C0600000C0800000C0
310
A00000C0C00000C0E00000E0000000E0200000E0400000E0600000E0800000E0A00000E0C00000E0E00040000000400020004000400040006000400080004000A0004000C0004000E00040200000402020004020400040206000402080004020A0004020C0004020E000404000004040200040404000404060004040800040
310
40A0004040C0004040E00040600000406020004060400040606000406080004060A0004060C0004060E00040800000408020004080400040806000408080004080A0004080C0004080E00040A0000040A0200040A0400040A0600040A0800040A0A00040A0C00040A0E00040C0000040C0200040C0400040C0600040C08000
310
40C0A00040C0C00040C0E00040E0000040E0200040E0400040E0600040E0800040E0A00040E0C00040E0E00080000000800020008000400080006000800080008000A0008000C0008000E00080200000802020008020400080206000802080008020A0008020C0008020E00080400000804020008040400080406000804080
310
008040A0008040C0008040E00080600000806020008060400080606000806080008060A0008060C0008060E00080800000808020008080400080806000808080008080A0008080C0008080E00080A0000080A0200080A0400080A0600080A0800080A0A00080A0C00080A0E00080C0000080C0200080C0400080C0600080C0
310
800080C0A00080C0C00080C0E00080E0000080E0200080E0400080E0600080E0800080E0A00080E0C00080E0E000C0000000C0002000C0004000C0006000C0008000C000A000C000C000C000E000C0200000C0202000C0204000C0206000C0208000C020A000C020C000C020E000C0400000C0402000C0404000C0406000C0
310
408000C040A000C040C000C040E000C0600000C0602000C0604000C0606000C0608000C060A000C060C000C060E000C0800000C0802000C0804000C0806000C0808000C080A000C080C000C080E000C0A00000C0A02000C0A04000C0A06000C0A08000C0A0A000C0A0C000C0A0E000C0C00000C0C02000C0C04000C0C06000
310
C0C08000C0C0A000F0FBFF00A4A0A000808080000000FF0000FF000000FFFF00FF000000FF00FF00FFFF0000FFFFFF00FFFFFFFFFFFFFFFFFFFFFFFFFFFFFFFFFFFFFFFFFFFFFFFFFFFFFFFFFFFFFFFFFFFFFFFFFFFF000000FFFFFFFFFFFFFF00FFFFFFFFFFFFFFFF00FFFFFFFFFFFFFFFFFFFFFFFF000000000000000000
310
0000000000000000000000FFFFFFFFFFFFFFFFFFFFFFFFFFFF00FFFFFF0000000000000000000000000000FFFFFFFFFFFFFFFFFFFFFFFFFFFF00FFFFFF0000000000000000FFFFFFFFFF00FFFFFFFFFFFFFFFFFFFFFFFFFFFF00FFFFFF0000000000000000000000000000FFFFFFFFFFFFFFFFFFFFFFFFFFFF00FFFFFF0000
310
000000000000000000000000FFFFFFFFFFFFFFFFFFFFFFFFFF0000FFFFFFFFFFFFFFFFFFFFFFFFFFFFFFFF00FFFFFFFFFFFFFFFFFFFFFFFFFFFF00FFFFFFFFFFFFFFFFFFFFFFFFFFFFFFFF00FFFFFFFFFFFFFFFFFFFFFFFFFFFF00FFFFFFFFFFFFFFFFFFFFFFFFFFFFFFFF00FFFFFFFFFFFFFFFFFFFFFFFFFFFF00FFFFFFFF
310
FFFFFFFFFFFFFFFFFFFFFFFF00FFFFFFFFFFFFFFFFFFFFFFFFFF0000FFFFFFFFFFFFFFFFFFFFFFFFFFFFFFFF00FFFFFFFFFFFFFFFFFFFFFFFFFFFF00FFFFFFFFFFFFFFFFFFFFFFFFFFFFFFFF00FFFFFFFFFFFFFFFFFFFFFFFFFFFF00FFFFFFFFFFFFFFFFFFFFFFFFFFFFFFFF00FFFFFFFFFFFFFFFFFFFFFFFFFFFF00FFFFFF
310
FFFFFFFFFFFFFFFFFFFFFFFFFF00FFFFFFFFFFFFFFFFFFFFFFFF000000FFFFFFFFFFFFFFFFFFFFFFFFFFFFFFFF00FFFFFFFFFFFFFFFFFFFFFFFFFFFF00FFFFFFFFFFFFFFFFFFFFFFFFFFFFFFFF00FFFFFFFFFFFFFFFFFFFFFFFFFFFF00FFFFFFFFFFFFFFFFFFFFFFFFFFFFFFFF00FFFFFFFFFFFFFFFFFFFFFFFFFFFF00FFFF
310
FFFFFFFFFFFFFFFFFFFFFFFFFFFF00FFFFFFFFFFFFFFFFFFFFFFFFFFFF00FFFFFFFFFFFFFFFFFFFFFFFFFFFFFFFF00FFFFFFFFFFFFFFFFFFFFFFFFFF0000FFFFFFFFFFFFFFFFFFFFFFFFFFFFFFFF00FFFFFFFFFFFFFFFFFFFFFFFFFFFF00FFFFFFFFFFFFFFFFFFFFFFFFFFFFFFFF00FFFFFFFFFFFFFFFFFFFFFFFFFFFF00FF
310
FFFFFFFFFFFFFFFFFFFFFFFFFFFFFF00FFFFFFFFFFFFFFFFFFFFFFFFFFFF00FFFFFFFFFFFFFFFFFFFFFFFFFFFFFFFF00FFFFFFFFFFFFFFFFFFFFFFFFFF0000FFFFFFFFFFFFFFFFFFFFFFFFFFFFFFFF00FFFFFFFFFFFFFFFFFFFFFFFFFFFF00FFFFFFFFFFFFFFFFFFFFFFFFFFFFFFFF00FFFFFFFFFFFFFFFFFFFFFFFFFFFF00
310
00000000000000000000FFFFFFFFFFFF00FFFFFFFFFFFFFFFFFFFFFFFFFFFF0000000000000000000000FFFFFFFFFFFF00FFFFFFFFFFFFFFFFFFFFFFFFFFFF0000000000000000000000FFFFFFFFFFFF00FFFFFFFFFFFFFFFFFFFFFFFF00FF000000000000000000000000000000000000FFFFFFFFFFFFFFFFFFFFFFFF0000
310
00FFFFFFFFFFFFFF00FFFFFFFFFFFFFFFF00FFFFFFFFFFFFFFFFFFFFFFFFFFFFFFFFFFFFFFFFFFFFFFFFFFFFFFFFFFFFFFFFFFFFFFFFFFFF
1001
AcDbDynamicBlockGUID
1000
{6DB1C6FB-04ED-4989-8D70-427348F3A6A6}
1001
AcDbBlockRepETag
1070
     1
1071
       23
1001
ACAD
1000
DesignCenter Data
1002
{
1070
     1
1070
     4
1002
}
  0
BLOCK_RECORD
  5
33F
330
1
100
AcDbSymbolTableRecord
100
AcDbBlockTableRecord
  2
_Open30
340
0
102
{BLKREFS
331
FF2
331
FF3
331
FFE
331
FFF
331
100B
331
100C
331
1018
331
1019
331
1024
331
1025
331
1031
331
1032
331
103D
331
103E
331
270C
331
270D
331
2715
331
2716
331
271E
331
271F
331
2728
331
2729
331
2730
331
2731
331
2738
331
2739
331
2741
331
2742
331
274D
331
274E
331
275A
331
275B
331
2773
331
2774
331
2AEF
331
2AF0
331
2B37
331
2B38
331
2B4E
331
2B4F
331
2B9A
331
2B9B
331
2BBB
331
2BBC
331
2BC4
331
2BC5
331
2BD6
331
2BD7
331
2C41
331
2C42
331
2C4A
331
2C4B
331
2C53
331
2C54
102
}
  0
BLOCK_RECORD
  5
4E7
102
{ACAD_XDICTIONARY
360
4E8
102
}
330
1
100
AcDbSymbolTableRecord
100
AcDbBlockTableRecord
  2
JIS A3 title block
340
0
310
2800000020000000200000000100080000000000000400000000000000000000000000000000000000000000000080000080000000808000800000008000800080800000C0C0C000C0DCC000F0CAA6000020400000206000002080000020A0000020C0000020E00000400000004020000040400000406000004080000040A0
310
000040C0000040E00000600000006020000060400000606000006080000060A0000060C0000060E00000800000008020000080400000806000008080000080A0000080C0000080E00000A0000000A0200000A0400000A0600000A0800000A0A00000A0C00000A0E00000C0000000C0200000C0400000C0600000C0800000C0
310
A00000C0C00000C0E00000E0000000E0200000E0400000E0600000E0800000E0A00000E0C00000E0E00040000000400020004000400040006000400080004000A0004000C0004000E00040200000402020004020400040206000402080004020A0004020C0004020E000404000004040200040404000404060004040800040
310
40A0004040C0004040E00040600000406020004060400040606000406080004060A0004060C0004060E00040800000408020004080400040806000408080004080A0004080C0004080E00040A0000040A0200040A0400040A0600040A0800040A0A00040A0C00040A0E00040C0000040C0200040C0400040C0600040C08000
310
40C0A00040C0C00040C0E00040E0000040E0200040E0400040E0600040E0800040E0A00040E0C00040E0E00080000000800020008000400080006000800080008000A0008000C0008000E00080200000802020008020400080206000802080008020A0008020C0008020E00080400000804020008040400080406000804080
310
008040A0008040C0008040E00080600000806020008060400080606000806080008060A0008060C0008060E00080800000808020008080400080806000808080008080A0008080C0008080E00080A0000080A0200080A0400080A0600080A0800080A0A00080A0C00080A0E00080C0000080C0200080C0400080C0600080C0
310
800080C0A00080C0C00080C0E00080E0000080E0200080E0400080E0600080E0800080E0A00080E0C00080E0E000C0000000C0002000C0004000C0006000C0008000C000A000C000C000C000E000C0200000C0202000C0204000C0206000C0208000C020A000C020C000C020E000C0400000C0402000C0404000C0406000C0
310
408000C040A000C040C000C040E000C0600000C0602000C0604000C0606000C0608000C060A000C060C000C060E000C0800000C0802000C0804000C0806000C0808000C080A000C080C000C080E000C0A00000C0A02000C0A04000C0A06000C0A08000C0A0A000C0A0C000C0A0E000C0C00000C0C02000C0C04000C0C06000
310
C0C08000C0C0A000F0FBFF00A4A0A000808080000000FF0000FF000000FFFF00FF000000FF00FF00FFFF0000FFFFFF00FFFFFFFFFFFFFFFFFFFFFFFFFFFFFFFFFFFFFFFFFFFFFFFFFFFFFFFFFFFFFFFFFFFFFFFFFFFFFFFFFFFFFFFFFFFFFFFFFFFFFFFFFFFFFFFFFFFFFFFFFFFFFFFFFFFFFFFFFFFFFFFFFFFFFFFFFFFFFF
310
FFFFFFFFFFFFFFFFFFFFFFFFFFFFFFFFFFFFFFFFFFFFFFFFFFFFFFFFFFFFFFFFFFFFFFFFFFFFFFFFFFFFFFFFFFFFFFFFFFFFFFFFFFFFFFFFFFFFFFFFFFFFFFFFFFFFFFFFFFFFFFFFFFFFFFFFFFFFFFFFFFFFFFFFFFFFFFFFFFFFFFFFFFFFFFFFFFFFFFFFFFFFFFFFFFFFFFFFFFFFFFFFFFFF00FFFF00000000000000000000
310
000000000000FFFFFFFFFFFF0000FFFF00FFFFFFFF0000000000000000FFFFFFFFFFFFFFFFFFFFFFFFFFFFFFFFFFFFFFFFFFFFFFFF0000000000000000FFFFFFFFFFFFFFFFFFFFFFFFFFFFFFFFFFFF00FFFFFFFFFF00FFFFFFFFFFFFFFFFFFFFFFFFFFFFFFFFFFFFFFFFFFFFFFFFFF00FFFFFFFFFFFFFFFFFFFFFFFFFFFFFF
310
FFFFFFFFFFFFFFFFFFFFFFFFFFFFFFFF00FFFFFFFFFF00FFFFFFFFFFFFFFFFFFFFFFFFFFFFFFFFFFFFFFFFFFFFFFFFFF00FFFFFFFFFF00FFFFFFFFFFFFFFFFFFFFFFFFFFFFFFFFFFFFFFFFFFFFFFFFFF00FFFFFFFFFFFFFFFFFFFFFFFFFFFFFFFFFFFFFFFFFFFFFFFFFFFFFFFFFFFFFF00FFFFFFFFFF00FFFFFFFFFFFFFFFF
310
FFFFFFFFFFFFFFFFFFFFFFFFFFFFFFFFFF00FFFFFFFFFF00FFFFFFFFFFFFFFFFFFFFFFFFFFFFFFFFFFFFFFFFFFFFFFFFFF00FFFFFF000000FFFFFFFFFFFFFFFFFFFFFFFFFFFFFFFFFFFFFFFFFFFFFFFFFF0000FFFFFFFF00FFFFFFFFFFFFFFFFFFFFFFFFFFFFFFFFFFFFFFFFFFFFFFFFFF00FFFFFFFFFF00FFFFFFFFFFFFFF
310
FFFFFFFFFFFFFFFFFFFFFFFFFFFFFFFFFFFF00FFFFFFFFFF00FFFFFFFFFFFFFFFFFFFFFFFFFFFFFFFFFFFFFFFFFFFFFFFFFF00FFFFFFFFFF00FFFFFFFFFFFFFFFFFFFFFFFFFFFFFFFFFFFFFFFFFFFFFFFFFF00FFFFFFFFFF00FFFFFFFFFFFFFFFFFFFFFFFFFFFFFFFFFFFFFFFFFFFFFFFFFF00FFFFFFFFFF00FFFFFFFFFFFF
310
FFFFFFFFFFFFFFFFFFFFFFFFFFFFFFFFFFFFFF00FFFFFFFFFF00FFFFFFFFFFFFFFFFFFFFFFFFFFFFFFFFFFFFFFFFFFFFFFFFFF00FFFFFFFFFF00FFFFFFFFFFFFFFFFFFFFFFFFFFFFFFFFFFFFFFFFFFFFFFFFFF00FFFFFF000000000000000000000000000000000000000000000000000000000000FFFFFFFFFFFFFFFFFFFF
310
FFFFFFFFFFFFFFFFFFFFFFFFFFFFFFFFFFFFFFFFFFFFFFFFFFFFFFFFFFFFFFFFFFFFFFFFFFFFFFFFFFFFFFFFFFFFFFFFFFFFFFFFFFFFFFFFFFFFFFFFFFFFFFFFFFFFFFFFFFFFFFFFFFFFFFFFFFFFFFFFFFFFFFFFFFFFFFFFFFFFFFFFFFFFFFFFFFFFFFFFFFFFFFFFFFFFFFFFFFFFFFFFFFFFFFFFFFFFFFFFFFFFFFFFFFFFFF
310
FFFFFFFFFFFFFFFFFFFFFFFFFFFFFFFFFFFFFFFFFFFFFFFFFFFFFFFFFFFFFFFFFFFFFFFFFFFFFFFFFFFFFFFFFFFFFFFFFFFFFFFFFFFFFFFF
1001
AcDbDynamicBlockGUID
1000
{ADD7F6C8-90DF-4B5E-9041-BE536E290B26}
1001
AcDbBlockRepETag
1070
     1
1071
       75
1001
ACAD
1000
DesignCenter Data
1002
{
1070
     1
1070
     4
1002
}
  0
BLOCK_RECORD
  5
6ED
102
{ACAD_XDICTIONARY
360
930
102
}
330
1
100
AcDbSymbolTableRecord
100
AcDbBlockTableRecord
  2
JIS A4 title block (landscape)
340
0
1001
AcDbDynamicBlockGUID
1000
{CEEEE382-D703-4645-97A2-E5AB7DAA0D3B}
1001
AcDbBlockRepETag
1070
     1
1071
       77
1001
ACAD
1000
DesignCenter Data
1002
{
1070
     1
1070
     4
1002
}
  0
BLOCK_RECORD
  5
FED
330
1
100
AcDbSymbolTableRecord
100
AcDbBlockTableRecord
  2
*D4
340
0
  0
BLOCK_RECORD
  5
FF9
330
1
100
AcDbSymbolTableRecord
100
AcDbBlockTableRecord
  2
*D5
340
0
  0
BLOCK_RECORD
  5
1005
330
1
100
AcDbSymbolTableRecord
100
AcDbBlockTableRecord
  2
*D6
340
0
  0
BLOCK_RECORD
  5
1012
330
1
100
AcDbSymbolTableRecord
100
AcDbBlockTableRecord
  2
*D7
340
0
  0
BLOCK_RECORD
  5
101F
330
1
100
AcDbSymbolTableRecord
100
AcDbBlockTableRecord
  2
*D8
340
0
  0
BLOCK_RECORD
  5
102B
330
1
100
AcDbSymbolTableRecord
100
AcDbBlockTableRecord
  2
*D9
340
0
  0
BLOCK_RECORD
  5
1038
330
1
100
AcDbSymbolTableRecord
100
AcDbBlockTableRecord
  2
*D10
340
0
  0
BLOCK_RECORD
  5
1044
102
{ACAD_XDICTIONARY
360
1128
102
}
330
1
100
AcDbSymbolTableRecord
100
AcDbBlockTableRecord
  2
A$C73271D1F
340
0
1001
ACAD
1000
DesignCenter Data
1002
{
1070
     1
1070
     4
1002
}
  0
BLOCK_RECORD
  5
236B
330
1
100
AcDbSymbolTableRecord
100
AcDbBlockTableRecord
  2
*D12
340
0
  0
BLOCK_RECORD
  5
2377
330
1
100
AcDbSymbolTableRecord
100
AcDbBlockTableRecord
  2
*D13
340
0
  0
BLOCK_RECORD
  5
2383
330
1
100
AcDbSymbolTableRecord
100
AcDbBlockTableRecord
  2
*D14
340
0
  0
BLOCK_RECORD
  5
238F
330
1
100
AcDbSymbolTableRecord
100
AcDbBlockTableRecord
  2
*D15
340
0
  0
BLOCK_RECORD
  5
239A
330
1
100
AcDbSymbolTableRecord
100
AcDbBlockTableRecord
  2
*D16
340
0
  0
BLOCK_RECORD
  5
23A6
330
1
100
AcDbSymbolTableRecord
100
AcDbBlockTableRecord
  2
*D17
340
0
  0
BLOCK_RECORD
  5
23B2
330
1
100
AcDbSymbolTableRecord
100
AcDbBlockTableRecord
  2
*D18
340
0
  0
BLOCK_RECORD
  5
23BE
330
1
100
AcDbSymbolTableRecord
100
AcDbBlockTableRecord
  2
*D19
340
0
  0
BLOCK_RECORD
  5
240A
330
1
100
AcDbSymbolTableRecord
100
AcDbBlockTableRecord
  2
*D20
340
0
  0
BLOCK_RECORD
  5
2423
330
1
100
AcDbSymbolTableRecord
100
AcDbBlockTableRecord
  2
*D21
340
0
  0
BLOCK_RECORD
  5
26A8
330
1
100
AcDbSymbolTableRecord
100
AcDbBlockTableRecord
  2
*D22
340
0
  0
BLOCK_RECORD
  5
26B4
330
1
100
AcDbSymbolTableRecord
100
AcDbBlockTableRecord
  2
*D23
340
0
  0
BLOCK_RECORD
  5
26C0
330
1
100
AcDbSymbolTableRecord
100
AcDbBlockTableRecord
  2
*D24
340
0
  0
BLOCK_RECORD
  5
26CC
330
1
100
AcDbSymbolTableRecord
100
AcDbBlockTableRecord
  2
*D25
340
0
  0
BLOCK_RECORD
  5
26D7
330
1
100
AcDbSymbolTableRecord
100
AcDbBlockTableRecord
  2
*D26
340
0
  0
BLOCK_RECORD
  5
26E3
330
1
100
AcDbSymbolTableRecord
100
AcDbBlockTableRecord
  2
*D27
340
0
  0
BLOCK_RECORD
  5
26EF
330
1
100
AcDbSymbolTableRecord
100
AcDbBlockTableRecord
  2
*D28
340
0
  0
BLOCK_RECORD
  5
26FB
330
1
100
AcDbSymbolTableRecord
100
AcDbBlockTableRecord
  2
*D29
340
0
  0
BLOCK_RECORD
  5
2747
330
1
100
AcDbSymbolTableRecord
100
AcDbBlockTableRecord
  2
*D30
340
0
  0
BLOCK_RECORD
  5
2760
330
1
100
AcDbSymbolTableRecord
100
AcDbBlockTableRecord
  2
*D31
340
0
  0
ENDTAB
  0
ENDSEC
  0
SECTION
  2
BLOCKS
  0
BLOCK
  5
20
330
1F
100
AcDbEntity
  8
0
100
AcDbBlockBegin
  2
*Model_Space
 70
     0
 10
0.0
 20
0.0
 30
0.0
  3
*Model_Space
  1

  0
ENDBLK
  5
21
330
1F
100
AcDbEntity
  8
0
100
AcDbBlockEnd
  0
BLOCK
  5
2CC1
330
2CA9
100
AcDbEntity
 67
     1
  8
0
100
AcDbBlockBegin
  2
*Paper_Space
 70
     0
 10
0.0
 20
0.0
 30
0.0
  3
*Paper_Space
  1

  0
ENDBLK
  5
2CC2
330
2CA9
100
AcDbEntity
 67
     1
  8
0
100
AcDbBlockEnd
  0
BLOCK
  5
116
330
AB
100
AcDbEntity
  8
0
100
AcDbBlockBegin
  2
JIS A4 title block (portrait)
 70
     2
 10
0.0
 20
0.0
 30
0.0
  3
JIS A4 title block (portrait)
  1

  4
JIS A4 title block and attributes (portrait)
  0
LINE
  5
28C
330
AB
100
AcDbEntity
  8
0
100
AcDbLine
 10
0.0
 20
297.0
 30
0.0
 11
25.0
 21
297.0
 31
0.0
1001
AcDbBlockRepETag
1070
     1
1071
        0
1005
28C
  0
LINE
  5
28D
330
AB
100
AcDbEntity
  8
0
100
AcDbLine
 10
0.0
 20
287.0
 30
0.0
 11
0.0
 21
297.0
 31
0.0
1001
AcDbBlockRepETag
1070
     1
1071
        1
1005
28D
  0
LINE
  5
2E7
330
AB
100
AcDbEntity
  8
0
100
AcDbLine
 10
17.5
 20
10.0
 30
0.0
 11
17.5
 21
287.0
 31
0.0
1001
AcDbBlockRepETag
1070
     1
1071
        2
1005
2E7
  0
LINE
  5
2E8
330
AB
100
AcDbEntity
  8
0
100
AcDbLine
 10
192.5
 20
287.0
 30
0.0
 11
192.5
 21
10.0
 31
0.0
1001
AcDbBlockRepETag
1070
     1
1071
        3
1005
2E8
  0
LINE
  5
2E9
330
AB
100
AcDbEntity
  8
0
100
AcDbLine
 10
192.5
 20
10.0
 30
0.0
 11
17.5
 21
10.0
 31
0.0
1001
AcDbBlockRepETag
1070
     1
1071
        4
1005
2E9
  0
LINE
  5
2EA
330
AB
100
AcDbEntity
  8
0
100
AcDbLine
 10
25.0
 20
0.0
 30
0.0
 11
0.0
 21
0.0
 31
0.0
1001
AcDbBlockRepETag
1070
     1
1071
        5
1005
2EA
  0
LINE
  5
2EB
330
AB
100
AcDbEntity
  8
0
100
AcDbLine
 10
0.0
 20
0.0
 30
0.0
 11
0.0
 21
10.0
 31
0.0
1001
AcDbBlockRepETag
1070
     1
1071
        6
1005
2EB
  0
LINE
  5
2EC
330
AB
100
AcDbEntity
  8
0
100
AcDbLine
 10
61.25
 20
10.0
 30
0.0
 11
61.25
 21
5.0
 31
0.0
1001
AcDbBlockRepETag
1070
     1
1071
        7
1005
2EC
  0
LINE
  5
2ED
330
AB
100
AcDbEntity
  8
0
100
AcDbLine
 10
17.5
 20
148.5
 30
0.0
 11
0.0
 21
148.5
 31
0.0
1001
AcDbBlockRepETag
1070
     1
1071
        8
1005
2ED
  0
LINE
  5
2EE
330
AB
100
AcDbEntity
  8
0
100
AcDbLine
 10
17.5
 20
56.16666666666668
 30
0.0
 11
12.5
 21
56.16666666666668
 31
0.0
1001
AcDbBlockRepETag
1070
     1
1071
        9
1005
2EE
  0
LINE
  5
2EF
330
AB
100
AcDbEntity
  8
0
100
AcDbLine
 10
17.5
 20
102.3333333333333
 30
0.0
 11
12.5
 21
102.3333333333333
 31
0.0
1001
AcDbBlockRepETag
1070
     1
1071
       10
1005
2EF
  0
LINE
  5
2F0
330
AB
100
AcDbEntity
  8
0
100
AcDbLine
 10
17.5
 20
148.5
 30
0.0
 11
12.5
 21
148.5
 31
0.0
1001
AcDbBlockRepETag
1070
     1
1071
       11
1005
2F0
  0
LINE
  5
2F1
330
AB
100
AcDbEntity
  8
0
100
AcDbLine
 10
105.0
 20
10.0
 30
0.0
 11
105.0
 21
0.0
 31
0.0
1001
AcDbBlockRepETag
1070
     1
1071
       12
1005
2F1
  0
LINE
  5
2F2
330
AB
100
AcDbEntity
  8
0
100
AcDbLine
 10
210.0
 20
10.0
 30
0.0
 11
210.0
 21
0.0
 31
0.0
1001
AcDbBlockRepETag
1070
     1
1071
       13
1005
2F2
  0
LINE
  5
2F3
330
AB
100
AcDbEntity
  8
0
100
AcDbLine
 10
148.75
 20
10.0
 30
0.0
 11
148.75
 21
5.0
 31
0.0
1001
AcDbBlockRepETag
1070
     1
1071
       14
1005
2F3
  0
LINE
  5
2F4
330
AB
100
AcDbEntity
  8
0
100
AcDbLine
 10
210.0
 20
0.0
 30
0.0
 11
200.0
 21
0.0
 31
0.0
1001
AcDbBlockRepETag
1070
     1
1071
       15
1005
2F4
  0
LINE
  5
2F5
330
AB
100
AcDbEntity
  8
0
100
AcDbLine
 10
192.5
 20
56.16666666666668
 30
0.0
 11
197.5
 21
56.16666666666668
 31
0.0
1001
AcDbBlockRepETag
1070
     1
1071
       16
1005
2F5
  0
LINE
  5
2F6
330
AB
100
AcDbEntity
  8
0
100
AcDbLine
 10
192.5
 20
102.3333333333333
 30
0.0
 11
197.5
 21
102.3333333333333
 31
0.0
1001
AcDbBlockRepETag
1070
     1
1071
       17
1005
2F6
  0
LINE
  5
2F7
330
AB
100
AcDbEntity
  8
0
100
AcDbLine
 10
192.5
 20
148.5
 30
0.0
 11
210.0
 21
148.5
 31
0.0
1001
AcDbBlockRepETag
1070
     1
1071
       18
1005
2F7
  0
LINE
  5
2F8
330
AB
100
AcDbEntity
  8
0
100
AcDbLine
 10
192.5
 20
148.5
 30
0.0
 11
197.5
 21
148.5
 31
0.0
1001
AcDbBlockRepETag
1070
     1
1071
       19
1005
2F8
  0
LINE
  5
2F9
330
AB
100
AcDbEntity
  8
0
100
AcDbLine
 10
17.5
 20
287.0
 30
0.0
 11
192.5
 21
287.0
 31
0.0
1001
AcDbBlockRepETag
1070
     1
1071
       20
1005
2F9
  0
LINE
  5
2FA
330
AB
100
AcDbEntity
  8
0
100
AcDbLine
 10
17.5
 20
194.6666666666666
 30
0.0
 11
12.5
 21
194.6666666666666
 31
0.0
1001
AcDbBlockRepETag
1070
     1
1071
       21
1005
2FA
  0
LINE
  5
2FB
330
AB
100
AcDbEntity
  8
0
100
AcDbLine
 10
17.5
 20
240.8333333333333
 30
0.0
 11
12.5
 21
240.8333333333333
 31
0.0
1001
AcDbBlockRepETag
1070
     1
1071
       22
1005
2FB
  0
LINE
  5
2FC
330
AB
100
AcDbEntity
  8
0
100
AcDbLine
 10
61.25
 20
287.0
 30
0.0
 11
61.25
 21
292.0
 31
0.0
1001
AcDbBlockRepETag
1070
     1
1071
       24
1005
2FC
  0
ATTDEF
  5
2FD
330
AB
100
AcDbEntity
  8
0
 62
     0
380
     1
100
AcDbText
 10
17.5
 20
293.0
 30
0.0
 40
3.0
  1

  7
Roman
100
AcDbAttributeDefinition
  3
Author:
  2
USER
 70
     8
1001
AcDbBlockRepETag
1070
     1
1071
       25
1005
0
  0
LINE
  5
2FE
330
AB
100
AcDbEntity
  8
0
100
AcDbLine
 10
192.5
 20
194.6666666666667
 30
0.0
 11
197.5
 21
194.6666666666667
 31
0.0
1001
AcDbBlockRepETag
1070
     1
1071
       26
1005
2FE
  0
LINE
  5
2FF
330
AB
100
AcDbEntity
  8
0
100
AcDbLine
 10
192.5
 20
240.8333333333334
 30
0.0
 11
197.5
 21
240.8333333333334
 31
0.0
1001
AcDbBlockRepETag
1070
     1
1071
       27
1005
2FF
  0
ATTDEF
  5
300
330
AB
100
AcDbEntity
  8
0
 62
     0
380
     1
100
AcDbText
 10
125.5
 20
293.0
 30
0.0
 40
3.0
  1

  7
Roman
100
AcDbAttributeDefinition
  3
File name:
  2
FNAME
 70
     8
1001
AcDbBlockRepETag
1070
     1
1071
       28
1005
0
  0
LINE
  5
301
330
AB
100
AcDbEntity
  8
0
100
AcDbLine
 10
105.0
 20
287.0
 30
0.0
 11
105.0
 21
297.0
 31
0.0
1001
AcDbBlockRepETag
1070
     1
1071
       29
1005
301
  0
LINE
  5
302
330
AB
100
AcDbEntity
  8
0
100
AcDbLine
 10
105.0
 20
287.0
 30
0.0
 11
105.0
 21
292.0
 31
0.0
1001
AcDbBlockRepETag
1070
     1
1071
       30
1005
302
  0
ATTDEF
  5
303
330
AB
100
AcDbEntity
  8
0
 62
     0
380
     1
100
AcDbText
 10
77.5
 20
293.0
 30
0.0
 40
3.0
  1

  7
Roman
100
AcDbAttributeDefinition
  3
Revision date:
  2
REVDATE
 70
     8
1001
AcDbBlockRepETag
1070
     1
1071
       31
1005
0
  0
LINE
  5
304
330
AB
100
AcDbEntity
  8
0
100
AcDbLine
 10
210.0
 20
297.0
 30
0.0
 11
210.0
 21
287.0
 31
0.0
1001
AcDbBlockRepETag
1070
     1
1071
       32
1005
304
  0
LINE
  5
305
330
AB
100
AcDbEntity
  8
0
100
AcDbLine
 10
148.75
 20
287.0
 30
0.0
 11
148.75
 21
292.0
 31
0.0
1001
AcDbBlockRepETag
1070
     1
1071
       33
1005
305
  0
LINE
  5
306
330
AB
100
AcDbEntity
  8
0
100
AcDbLine
 10
200.0
 20
297.0
 30
0.0
 11
210.0
 21
297.0
 31
0.0
1001
AcDbBlockRepETag
1070
     1
1071
       34
1005
306
  0
TEXT
  5
307
330
AB
100
AcDbEntity
  8
0
100
AcDbText
 10
13.87568307432493
 20
120.75
 30
0.0
 40
3.0
  1
D
  7
Roman
 72
     1
 11
15.4471116457535
 21
120.75
 31
0.0
100
AcDbText
1001
AcDbBlockRepETag
1070
     1
1071
       35
1005
307
  0
TEXT
  5
308
330
AB
100
AcDbEntity
  8
0
100
AcDbText
 10
13.9471116457535
 20
168.25
 30
0.0
 40
3.0
  1
C
  7
Roman
 72
     1
 11
15.4471116457535
 21
168.25
 31
0.0
100
AcDbText
1001
AcDbBlockRepETag
1070
     1
1071
       36
1005
308
  0
TEXT
  5
309
330
AB
100
AcDbEntity
  8
0
100
AcDbText
 10
13.87568307432493
 20
215.75
 30
0.0
 40
3.0
  1
B
  7
Roman
 72
     1
 11
15.4471116457535
 21
215.75
 31
0.0
100
AcDbText
1001
AcDbBlockRepETag
1070
     1
1071
       37
1005
309
  0
TEXT
  5
30A
330
AB
100
AcDbEntity
  8
0
100
AcDbText
 10
14.16139736003921
 20
263.25
 30
0.0
 40
3.0
  1
A
  7
Roman
 72
     1
 11
15.4471116457535
 21
263.25
 31
0.0
100
AcDbText
1001
AcDbBlockRepETag
1070
     1
1071
       38
1005
30A
  0
TEXT
  5
30B
330
AB
100
AcDbEntity
  8
0
100
AcDbText
 10
38.11904761904761
 20
288.0
 30
0.0
 40
3.0
  1
1
  7
Roman
 72
     1
 11
39.33333333333332
 21
288.0
 31
0.0
100
AcDbText
1001
AcDbBlockRepETag
1070
     1
1071
       39
1005
30B
  0
TEXT
  5
30C
330
AB
100
AcDbEntity
  8
0
100
AcDbText
 10
81.57142857142856
 20
288.0
 30
0.0
 40
3.0
  1
2
  7
Roman
 72
     1
 11
83.0
 21
288.0
 31
0.0
100
AcDbText
1001
AcDbBlockRepETag
1070
     1
1071
       40
1005
30C
  0
TEXT
  5
30D
330
AB
100
AcDbEntity
  8
0
100
AcDbText
 10
125.2380952380953
 20
288.0
 30
0.0
 40
3.0
  1
3
  7
Roman
 72
     1
 11
126.6666666666667
 21
288.0
 31
0.0
100
AcDbText
1001
AcDbBlockRepETag
1070
     1
1071
       41
1005
30D
  0
TEXT
  5
30E
330
AB
100
AcDbEntity
  8
0
100
AcDbText
 10
168.8333333333333
 20
288.0
 30
0.0
 40
3.0
  1
4
  7
Roman
 72
     1
 11
170.3333333333333
 21
288.0
 31
0.0
100
AcDbText
1001
AcDbBlockRepETag
1070
     1
1071
       42
1005
30E
  0
TEXT
  5
30F
330
AB
100
AcDbEntity
  8
0
100
AcDbText
 10
13.9471116457535
 20
28.41666666666668
 30
0.0
 40
3.0
  1
F
  7
Roman
 72
     1
 11
15.4471116457535
 21
28.41666666666668
 31
0.0
100
AcDbText
1001
AcDbBlockRepETag
1070
     1
1071
       43
1005
30F
  0
TEXT
  5
310
330
AB
100
AcDbEntity
  8
0
100
AcDbText
 10
13.9471116457535
 20
75.91666666666668
 30
0.0
 40
3.0
  1
E
  7
Roman
 72
     1
 11
15.4471116457535
 21
75.91666666666668
 31
0.0
100
AcDbText
1001
AcDbBlockRepETag
1070
     1
1071
       44
1005
310
  0
LINE
  5
311
330
AB
100
AcDbEntity
  8
0
100
AcDbLine
 10
192.4978723404242
 20
19.0
 30
0.0
 11
75.49787234042418
 21
19.0
 31
0.0
1001
AcDbBlockRepETag
1070
     1
1071
      166
1005
311
  0
LINE
  5
312
330
AB
100
AcDbEntity
  8
0
100
AcDbLine
 10
115.4978723404242
 20
28.0
 30
0.0
 11
75.49787234042418
 21
28.0
 31
0.0
1001
AcDbBlockRepETag
1070
     1
1071
      168
1005
312
  0
LINE
  5
313
330
AB
100
AcDbEntity
  8
0
100
AcDbLine
 10
192.4978723404242
 20
37.0
 30
0.0
 11
75.49787234042418
 21
37.0
 31
0.0
1001
AcDbBlockRepETag
1070
     1
1071
      169
1005
313
  0
LINE
  5
314
330
AB
100
AcDbEntity
  8
0
100
AcDbLine
 10
192.4978723404242
 20
46.0
 30
0.0
 11
75.49787234042418
 21
46.0
 31
0.0
1001
AcDbBlockRepETag
1070
     1
1071
      170
1005
314
  0
MTEXT
  5
315
330
AB
100
AcDbEntity
  8
0
100
AcDbMText
 10
100.9978723404242
 20
14.5
 30
0.0
 40
4.0
 41
51.0
 71
     5
 72
     5
  1
富国石油株式会社
 73
     1
 44
1.0
1001
AcDbBlockRepETag
1070
     1
1071
      171
1005
315
1001
ACAD
1000
MTEXTBEGIN
1070
    73
1070
     1
1070
    44
1040
1.0
1070
    74
1070
     0
1000
MTEXTEND
  0
MTEXT
  5
316
102
{ACAD_XDICTIONARY
360
2D0C
102
}
330
AB
100
AcDbEntity
  8
0
100
AcDbMText
 10
78.47796344079569
 20
23.5
 30
0.0
 40
2.0
 41
3.96018220074299
 71
     5
 72
     5
  1
検\P図
 73
     1
 44
1.0
1001
AcDbBlockRepETag
1070
     1
1071
      172
1005
316
1001
ACAD
1000
MTEXTBEGIN
1070
    73
1070
     1
1070
    44
1040
1.0
1070
    74
1070
     0
1000
MTEXTEND
1000
ACAD_MTEXT_DEFINED_HEIGHT_BEGIN
1070
    46
1040
9.0
1000
ACAD_MTEXT_DEFINED_HEIGHT_END
  0
MTEXT
  5
317
330
AB
100
AcDbEntity
  8
0
100
AcDbMText
 10
78.47796344079569
 20
32.5
 30
0.0
 40
2.0
 41
3.96018220074299
 71
     5
 72
     5
  1
確\P認
 73
     1
 44
1.0
1001
AcDbBlockRepETag
1070
     1
1071
      173
1005
317
1001
ACAD
1000
MTEXTBEGIN
1070
    73
1070
     1
1070
    44
1040
1.0
1070
    74
1070
     0
1000
MTEXTEND
1000
ACAD_MTEXT_DEFINED_HEIGHT_BEGIN
1070
    46
1040
9.0
1000
ACAD_MTEXT_DEFINED_HEIGHT_END
  0
MTEXT
  5
318
330
AB
100
AcDbEntity
  8
0
100
AcDbMText
 10
78.47796344079569
 20
41.5
 30
0.0
 40
2.0
 41
3.96018220074299
 71
     5
 72
     5
  1
縮\P尺
 73
     1
 44
1.0
1001
AcDbBlockRepETag
1070
     1
1071
      174
1005
318
1001
ACAD
1000
MTEXTBEGIN
1070
    73
1070
     1
1070
    44
1040
1.0
1070
    74
1070
     0
1000
MTEXTEND
1000
ACAD_MTEXT_DEFINED_HEIGHT_BEGIN
1070
    46
1040
9.0
1000
ACAD_MTEXT_DEFINED_HEIGHT_END
  0
LINE
  5
319
330
AB
100
AcDbEntity
  8
0
100
AcDbLine
 10
95.49787234042415
 20
19.0
 30
0.0
 11
95.49787234042415
 21
46.0
 31
0.0
1001
AcDbBlockRepETag
1070
     1
1071
      175
1005
319
  0
LINE
  5
31A
330
AB
100
AcDbEntity
  8
0
100
AcDbLine
 10
115.4978723404242
 20
19.0
 30
0.0
 11
115.4978723404242
 21
46.0
 31
0.0
1001
AcDbBlockRepETag
1070
     1
1071
      176
1005
31A
  0
LINE
  5
31B
330
AB
100
AcDbEntity
  8
0
100
AcDbLine
 10
147.4978723404241
 20
37.0
 30
0.0
 11
147.4978723404241
 21
46.0
 31
0.0
1001
AcDbBlockRepETag
1070
     1
1071
      194
1005
31B
  0
MTEXT
  5
31C
330
AB
100
AcDbEntity
  8
0
100
AcDbMText
 10
98.47796344079569
 20
32.5
 30
0.0
 40
2.0
 41
3.96018220074299
 71
     5
 72
     5
  1
設\P計
 73
     1
 44
1.0
1001
AcDbBlockRepETag
1070
     1
1071
      177
1005
31C
1001
ACAD
1000
MTEXTBEGIN
1070
    73
1070
     1
1070
    44
1040
1.0
1070
    74
1070
     0
1000
MTEXTEND
1000
ACAD_MTEXT_DEFINED_HEIGHT_BEGIN
1070
    46
1040
9.0
1000
ACAD_MTEXT_DEFINED_HEIGHT_END
  0
MTEXT
  5
31D
330
AB
100
AcDbEntity
  8
0
100
AcDbMText
 10
98.47796344079569
 20
23.5
 30
0.0
 40
2.0
 41
3.96018220074299
 71
     5
 72
     5
  1
製\P図
 73
     1
 44
1.0
1001
AcDbBlockRepETag
1070
     1
1071
      178
1005
31D
1001
ACAD
1000
MTEXTBEGIN
1070
    73
1070
     1
1070
    44
1040
1.0
1070
    74
1070
     0
1000
MTEXTEND
1000
ACAD_MTEXT_DEFINED_HEIGHT_BEGIN
1070
    46
1040
9.0
1000
ACAD_MTEXT_DEFINED_HEIGHT_END
  0
MTEXT
  5
31E
330
AB
100
AcDbEntity
  8
0
100
AcDbMText
 10
118.4779634407957
 20
41.5
 30
0.0
 40
2.0
 41
3.96018220074299
 71
     5
 72
     5
  1
材\P料
 73
     1
 44
1.0
1001
AcDbBlockRepETag
1070
     1
1071
      179
1005
31E
1001
ACAD
1000
MTEXTBEGIN
1070
    73
1070
     1
1070
    44
1040
1.0
1070
    74
1070
     0
1000
MTEXTEND
1000
ACAD_MTEXT_DEFINED_HEIGHT_BEGIN
1070
    46
1040
9.0
1000
ACAD_MTEXT_DEFINED_HEIGHT_END
  0
LINE
  5
31F
330
AB
100
AcDbEntity
  8
0
  6
HIDDEN2
 48
0.5
100
AcDbLine
 10
192.4978723404242
 20
32.5
 30
0.0
 11
115.4978723404242
 21
32.5
 31
0.0
1001
AcDbBlockRepETag
1070
     1
1071
      180
1005
31F
  0
POINT
  5
320
330
AB
100
AcDbEntity
  8
0
100
AcDbPoint
 10
101.2478723404242
 20
37.0
 30
0.0
1001
AcDbBlockRepETag
1070
     1
1071
      189
1005
320
  0
POINT
  5
321
330
AB
100
AcDbEntity
  8
0
100
AcDbPoint
 10
101.2478723404242
 20
28.0
 30
0.0
1001
AcDbBlockRepETag
1070
     1
1071
      190
1005
321
  0
MTEXT
  5
322
330
AB
100
AcDbEntity
  8
0
100
AcDbMText
 10
108.3728723404242
 20
23.5
 30
0.0
 40
3.0
 41
14.25
 71
     5
 72
     5
  1
齊藤
 73
     1
 44
1.0
1001
AcDbBlockRepETag
1070
     1
1071
      192
1005
322
1001
ACAD
1000
MTEXTBEGIN
1070
    73
1070
     1
1070
    44
1040
1.0
1070
    74
1070
     0
1000
MTEXTEND
1000
ACAD_MTEXT_DEFINED_HEIGHT_BEGIN
1070
    46
1040
9.0
1000
ACAD_MTEXT_DEFINED_HEIGHT_END
  0
TEXT
  5
323
330
AB
100
AcDbEntity
  8
0
100
AcDbText
 10
38.45238095238097
 20
6.230338100985591
 30
0.0
 40
3.0
  1
1
  7
Roman
 72
     1
 11
39.66666666666668
 21
6.230338100985591
 31
0.0
100
AcDbText
1001
AcDbBlockRepETag
1070
     1
1071
       45
1005
323
  0
TEXT
  5
324
330
AB
100
AcDbEntity
  8
0
100
AcDbText
 10
81.90476190476188
 20
6.230338100985591
 30
0.0
 40
3.0
  1
2
  7
Roman
 72
     1
 11
83.33333333333332
 21
6.230338100985591
 31
0.0
100
AcDbText
1001
AcDbBlockRepETag
1070
     1
1071
       46
1005
324
  0
TEXT
  5
325
330
AB
100
AcDbEntity
  8
0
100
AcDbText
 10
125.5714285714286
 20
6.230338100985591
 30
0.0
 40
3.0
  1
3
  7
Roman
 72
     1
 11
127.0
 21
6.230338100985591
 31
0.0
100
AcDbText
1001
AcDbBlockRepETag
1070
     1
1071
       47
1005
325
  0
TEXT
  5
326
330
AB
100
AcDbEntity
  8
0
100
AcDbText
 10
169.1666666666667
 20
6.230338100985591
 30
0.0
 40
3.0
  1
4
  7
Roman
 72
     1
 11
170.6666666666667
 21
6.230338100985591
 31
0.0
100
AcDbText
1001
AcDbBlockRepETag
1070
     1
1071
       48
1005
326
  0
TEXT
  5
327
330
AB
100
AcDbEntity
  8
0
100
AcDbText
 10
193.2387724536951
 20
33.75
 30
0.0
 40
3.0
  1
F
  7
Roman
 72
     1
 11
194.7387724536952
 21
33.75
 31
0.0
100
AcDbText
1001
AcDbBlockRepETag
1070
     1
1071
       49
1005
327
  0
TEXT
  5
328
330
AB
100
AcDbEntity
  8
0
100
AcDbText
 10
193.2387724536951
 20
81.25
 30
0.0
 40
3.0
  1
E
  7
Roman
 72
     1
 11
194.7387724536952
 21
81.25
 31
0.0
100
AcDbText
1001
AcDbBlockRepETag
1070
     1
1071
       50
1005
328
  0
TEXT
  5
329
330
AB
100
AcDbEntity
  8
0
100
AcDbText
 10
193.1673438822666
 20
221.0833333333333
 30
0.0
 40
3.0
  1
B
  7
Roman
 72
     1
 11
194.7387724536952
 21
221.0833333333333
 31
0.0
100
AcDbText
1001
AcDbBlockRepETag
1070
     1
1071
       51
1005
329
  0
TEXT
  5
32A
330
AB
100
AcDbEntity
  8
0
100
AcDbText
 10
193.4530581679809
 20
268.5833333333333
 30
0.0
 40
3.0
  1
A
  7
Roman
 72
     1
 11
194.7387724536952
 21
268.5833333333333
 31
0.0
100
AcDbText
1001
AcDbBlockRepETag
1070
     1
1071
       52
1005
32A
  0
LINE
  5
32B
330
AB
100
AcDbEntity
  8
0
100
AcDbLine
 10
75.49787234042418
 20
10.0
 30
0.0
 11
75.49787234042418
 21
46.0
 31
0.0
1001
AcDbBlockRepETag
1070
     1
1071
      162
1005
32B
  0
LINE
  5
32C
330
AB
100
AcDbEntity
  8
0
100
AcDbLine
 10
126.4978723404242
 20
10.0
 30
0.0
 11
126.4978723404242
 21
19.0
 31
0.0
1001
AcDbBlockRepETag
1070
     1
1071
      167
1005
32C
  0
TEXT
  5
32D
330
AB
100
AcDbEntity
  8
0
100
AcDbText
 10
193.1673438822666
 20
126.0833333333333
 30
0.0
 40
3.0
  1
D
  7
Roman
 72
     1
 11
194.7387724536952
 21
126.0833333333333
 31
0.0
100
AcDbText
1001
AcDbBlockRepETag
1070
     1
1071
       54
1005
32D
  0
TEXT
  5
32E
330
AB
100
AcDbEntity
  8
0
100
AcDbText
 10
193.2387724536951
 20
173.5833333333333
 30
0.0
 40
3.0
  1
C
  7
Roman
 72
     1
 11
194.7387724536952
 21
173.5833333333333
 31
0.0
100
AcDbText
1001
AcDbBlockRepETag
1070
     1
1071
       53
1005
32E
  0
ENDBLK
  5
117
330
AB
100
AcDbEntity
  8
0
100
AcDbBlockEnd
  0
BLOCK
  5
340
330
33F
100
AcDbEntity
  8
0
100
AcDbBlockBegin
  2
_Open30
 70
     0
 10
0.0
 20
0.0
 30
0.0
  3
_Open30
  1

  0
LINE
  5
341
330
33F
100
AcDbEntity
  8
0
  6
ByBlock
 62
     0
370
    -2
100
AcDbLine
 10
-1.0
 20
0.26794919
 30
0.0
 11
0.0
 21
0.0
 31
0.0
  0
LINE
  5
342
330
33F
100
AcDbEntity
  8
0
  6
ByBlock
 62
     0
370
    -2
100
AcDbLine
 10
0.0
 20
0.0
 30
0.0
 11
-1.0
 21
-0.26794919
 31
0.0
  0
LINE
  5
343
330
33F
100
AcDbEntity
  8
0
  6
ByBlock
 62
     0
370
    -2
100
AcDbLine
 10
0.0
 20
0.0
 30
0.0
 11
-1.0
 21
0.0
 31
0.0
  0
ENDBLK
  5
344
330
33F
100
AcDbEntity
  8
0
100
AcDbBlockEnd
  0
BLOCK
  5
4EA
330
4E7
100
AcDbEntity
  8
0
100
AcDbBlockBegin
  2
JIS A3 title block
 70
     2
 10
0.0
 20
0.0
 30
0.0
  3
JIS A3 title block
  1

  4
JIS A3 title block and attributes
  0
LINE
  5
4EB
330
4E7
100
AcDbEntity
  8
0
100
AcDbLine
 10
402.5
 20
10.0
 30
0.0
 11
17.49999999999999
 21
10.0
 31
0.0
1001
AcDbBlockRepETag
1070
     1
1071
        0
1005
4EB
  0
LINE
  5
4EC
330
4E7
100
AcDbEntity
  8
0
100
AcDbLine
 10
17.5
 20
287.0
 30
0.0
 11
402.5
 21
287.0
 31
0.0
1001
AcDbBlockRepETag
1070
     1
1071
        1
1005
4EC
  0
LINE
  5
4ED
330
4E7
100
AcDbEntity
  8
0
100
AcDbLine
 10
25.0
 20
0.0
 30
0.0
 11
0.0
 21
0.0
 31
0.0
1001
AcDbBlockRepETag
1070
     1
1071
        3
1005
4ED
  0
LINE
  5
4EE
330
4E7
100
AcDbEntity
  8
0
100
AcDbLine
 10
0.0
 20
0.0
 30
0.0
 11
0.0
 21
10.0
 31
0.0
1001
AcDbBlockRepETag
1070
     1
1071
        4
1005
4EE
  0
LINE
  5
4EF
330
4E7
100
AcDbEntity
  8
0
100
AcDbLine
 10
65.625
 20
10.0
 30
0.0
 11
65.625
 21
5.0
 31
0.0
1001
AcDbBlockRepETag
1070
     1
1071
        5
1005
4EF
  0
TEXT
  5
4F0
330
4E7
100
AcDbEntity
  8
0
100
AcDbText
 10
40.34821428571429
 20
6.019997240728746
 30
0.0
 40
3.0
  1
1
  7
Roman
 72
     1
 11
41.5625
 21
6.019997240728746
 31
0.0
100
AcDbText
1001
AcDbBlockRepETag
1070
     1
1071
        6
1005
4F0
  0
ATTDEF
  5
4F1
330
4E7
100
AcDbEntity
  8
0
 62
     0
380
     1
100
AcDbText
 10
11.49999999999999
 20
10.0
 30
0.0
 40
3.0
  1

 50
90.0
  7
Roman
100
AcDbAttributeDefinition
  3
Author:
  2
USER
 70
     8
1001
AcDbBlockRepETag
1070
     1
1071
        7
1005
0
  0
TEXT
  5
4F2
330
4E7
100
AcDbEntity
  8
0
100
AcDbText
 10
13.60716135953388
 20
33.08333333333334
 30
0.0
 40
3.0
  1
F
  7
Roman
 72
     1
 11
15.10716135953388
 21
33.08333333333334
 31
0.0
100
AcDbText
1001
AcDbBlockRepETag
1070
     1
1071
        8
1005
4F2
  0
LINE
  5
4F3
330
4E7
100
AcDbEntity
  8
0
100
AcDbLine
 10
17.49999999999999
 20
148.5
 30
0.0
 11
0.0
 21
148.5
 31
0.0
1001
AcDbBlockRepETag
1070
     1
1071
        9
1005
4F3
  0
ATTDEF
  5
4F4
330
4E7
100
AcDbEntity
  8
0
 62
     0
380
     1
100
AcDbText
 10
11.49999999999999
 20
70.0
 30
0.0
 40
3.0
  1

 50
90.0
  7
Roman
100
AcDbAttributeDefinition
  3
Revision date:
  2
REVDATE
 70
     8
1001
AcDbBlockRepETag
1070
     1
1071
       10
1005
0
  0
LINE
  5
4F5
330
4E7
100
AcDbEntity
  8
0
100
AcDbLine
 10
17.49999999999999
 20
56.16666666666667
 30
0.0
 11
12.49999999999999
 21
56.16666666666667
 31
0.0
1001
AcDbBlockRepETag
1070
     1
1071
       11
1005
4F5
  0
TEXT
  5
4F6
330
4E7
100
AcDbEntity
  8
0
100
AcDbText
 10
13.60716135953388
 20
79.25
 30
0.0
 40
3.0
  1
E
  7
Roman
 72
     1
 11
15.10716135953388
 21
79.25
 31
0.0
100
AcDbText
1001
AcDbBlockRepETag
1070
     1
1071
       12
1005
4F6
  0
ATTDEF
  5
4F7
330
4E7
100
AcDbEntity
  8
0
 62
     0
380
     1
100
AcDbText
 10
11.49999999999999
 20
118.0
 30
0.0
 40
3.0
  1

 50
90.0
  7
Roman
100
AcDbAttributeDefinition
  3
File name:
  2
FNAME
 70
     8
1001
AcDbBlockRepETag
1070
     1
1071
       13
1005
0
  0
LINE
  5
4F8
330
4E7
100
AcDbEntity
  8
0
100
AcDbLine
 10
17.49999999999999
 20
102.3333333333333
 30
0.0
 11
12.49999999999999
 21
102.3333333333333
 31
0.0
1001
AcDbBlockRepETag
1070
     1
1071
       14
1005
4F8
  0
TEXT
  5
4F9
330
4E7
100
AcDbEntity
  8
0
100
AcDbText
 10
13.53573278810531
 20
125.4166666666666
 30
0.0
 40
3.0
  1
D
  7
Roman
 72
     1
 11
15.10716135953388
 21
125.4166666666666
 31
0.0
100
AcDbText
1001
AcDbBlockRepETag
1070
     1
1071
       15
1005
4F9
  0
LINE
  5
4FA
330
4E7
100
AcDbEntity
  8
0
100
AcDbLine
 10
17.49999999999999
 20
148.5
 30
0.0
 11
12.49999999999999
 21
148.5
 31
0.0
1001
AcDbBlockRepETag
1070
     1
1071
       16
1005
4FA
  0
TEXT
  5
4FB
330
4E7
100
AcDbEntity
  8
0
100
AcDbText
 10
136.3839285714286
 20
6.019997240728746
 30
0.0
 40
3.0
  1
3
  7
Roman
 72
     1
 11
137.8125
 21
6.019997240728746
 31
0.0
100
AcDbText
1001
AcDbBlockRepETag
1070
     1
1071
       17
1005
4FB
  0
LINE
  5
4FC
330
4E7
100
AcDbEntity
  8
0
100
AcDbLine
 10
113.75
 20
10.0
 30
0.0
 11
113.75
 21
5.0
 31
0.0
1001
AcDbBlockRepETag
1070
     1
1071
       18
1005
4FC
  0
TEXT
  5
4FD
330
4E7
100
AcDbEntity
  8
0
100
AcDbText
 10
88.25892857142857
 20
6.019997240728746
 30
0.0
 40
3.0
  1
2
  7
Roman
 72
     1
 11
89.6875
 21
6.019997240728746
 31
0.0
100
AcDbText
1001
AcDbBlockRepETag
1070
     1
1071
       19
1005
4FD
  0
LINE
  5
4FE
330
4E7
100
AcDbEntity
  8
0
100
AcDbLine
 10
161.875
 20
10.0
 30
0.0
 11
161.875
 21
5.0
 31
0.0
1001
AcDbBlockRepETag
1070
     1
1071
       20
1005
4FE
  0
TEXT
  5
4FF
330
4E7
100
AcDbEntity
  8
0
100
AcDbText
 10
184.4375
 20
6.019997240728746
 30
0.0
 40
3.0
  1
4
  7
Roman
 72
     1
 11
185.9375
 21
6.019997240728746
 31
0.0
100
AcDbText
1001
AcDbBlockRepETag
1070
     1
1071
       21
1005
4FF
  0
TEXT
  5
500
330
4E7
100
AcDbEntity
  8
0
100
AcDbText
 10
13.60716135953388
 20
171.5833333333333
 30
0.0
 40
3.0
  1
C
  7
Roman
 72
     1
 11
15.10716135953388
 21
171.5833333333333
 31
0.0
100
AcDbText
1001
AcDbBlockRepETag
1070
     1
1071
       22
1005
500
  0
LINE
  5
501
330
4E7
100
AcDbEntity
  8
0
100
AcDbLine
 10
17.49999999999999
 20
194.6666666666666
 30
0.0
 11
12.49999999999999
 21
194.6666666666666
 31
0.0
1001
AcDbBlockRepETag
1070
     1
1071
       23
1005
501
  0
TEXT
  5
502
330
4E7
100
AcDbEntity
  8
0
100
AcDbText
 10
13.53573278810531
 20
217.75
 30
0.0
 40
3.0
  1
B
  7
Roman
 72
     1
 11
15.10716135953388
 21
217.75
 31
0.0
100
AcDbText
1001
AcDbBlockRepETag
1070
     1
1071
       24
1005
502
  0
LINE
  5
503
330
4E7
100
AcDbEntity
  8
0
100
AcDbLine
 10
17.49999999999999
 20
240.8333333333333
 30
0.0
 11
12.49999999999999
 21
240.8333333333333
 31
0.0
1001
AcDbBlockRepETag
1070
     1
1071
       25
1005
503
  0
LINE
  5
504
330
4E7
100
AcDbEntity
  8
0
100
AcDbLine
 10
0.0
 20
297.0
 30
0.0
 11
25.0
 21
297.0
 31
0.0
1001
AcDbBlockRepETag
1070
     1
1071
       26
1005
504
  0
LINE
  5
505
330
4E7
100
AcDbEntity
  8
0
100
AcDbLine
 10
0.0
 20
287.0
 30
0.0
 11
0.0
 21
297.0
 31
0.0
1001
AcDbBlockRepETag
1070
     1
1071
       27
1005
505
  0
LINE
  5
506
330
4E7
100
AcDbEntity
  8
0
100
AcDbLine
 10
65.625
 20
287.0
 30
0.0
 11
65.625
 21
292.0
 31
0.0
1001
AcDbBlockRepETag
1070
     1
1071
       28
1005
506
  0
TEXT
  5
507
330
4E7
100
AcDbEntity
  8
0
100
AcDbText
 10
13.82144707381959
 20
263.9166666666666
 30
0.0
 40
3.0
  1
A
  7
Roman
 72
     1
 11
15.10716135953388
 21
263.9166666666666
 31
0.0
100
AcDbText
1001
AcDbBlockRepETag
1070
     1
1071
       29
1005
507
  0
TEXT
  5
508
330
4E7
100
AcDbEntity
  8
0
100
AcDbText
 10
40.34821428571429
 20
288.0
 30
0.0
 40
3.0
  1
1
  7
Roman
 72
     1
 11
41.5625
 21
288.0
 31
0.0
100
AcDbText
1001
AcDbBlockRepETag
1070
     1
1071
       30
1005
508
  0
TEXT
  5
509
330
4E7
100
AcDbEntity
  8
0
100
AcDbText
 10
136.3839285714286
 20
288.0
 30
0.0
 40
3.0
  1
3
  7
Roman
 72
     1
 11
137.8125
 21
288.0
 31
0.0
100
AcDbText
1001
AcDbBlockRepETag
1070
     1
1071
       31
1005
509
  0
LINE
  5
50A
330
4E7
100
AcDbEntity
  8
0
100
AcDbLine
 10
113.75
 20
287.0
 30
0.0
 11
113.75
 21
292.0
 31
0.0
1001
AcDbBlockRepETag
1070
     1
1071
       32
1005
50A
  0
TEXT
  5
50B
330
4E7
100
AcDbEntity
  8
0
100
AcDbText
 10
88.25892857142857
 20
288.0
 30
0.0
 40
3.0
  1
2
  7
Roman
 72
     1
 11
89.6875
 21
288.0
 31
0.0
100
AcDbText
1001
AcDbBlockRepETag
1070
     1
1071
       33
1005
50B
  0
LINE
  5
50C
330
4E7
100
AcDbEntity
  8
0
100
AcDbLine
 10
161.875
 20
287.0
 30
0.0
 11
161.875
 21
292.0
 31
0.0
1001
AcDbBlockRepETag
1070
     1
1071
       34
1005
50C
  0
TEXT
  5
50D
330
4E7
100
AcDbEntity
  8
0
100
AcDbText
 10
184.4375
 20
288.0
 30
0.0
 40
3.0
  1
4
  7
Roman
 72
     1
 11
185.9375
 21
288.0
 31
0.0
100
AcDbText
1001
AcDbBlockRepETag
1070
     1
1071
       35
1005
50D
  0
LINE
  5
50E
330
4E7
100
AcDbEntity
  8
0
100
AcDbLine
 10
402.5
 20
287.0
 30
0.0
 11
402.5
 21
10.0
 31
0.0
1001
AcDbBlockRepETag
1070
     1
1071
       36
1005
50E
  0
LINE
  5
50F
330
4E7
100
AcDbEntity
  8
0
100
AcDbLine
 10
210.0
 20
10.0
 30
0.0
 11
210.0
 21
0.0
 31
0.0
1001
AcDbBlockRepETag
1070
     1
1071
       37
1005
50F
  0
LINE
  5
510
330
4E7
100
AcDbEntity
  8
0
100
AcDbLine
 10
258.125
 20
10.0
 30
0.0
 11
258.125
 21
5.0
 31
0.0
1001
AcDbBlockRepETag
1070
     1
1071
       39
1005
510
  0
TEXT
  5
511
330
4E7
100
AcDbEntity
  8
0
100
AcDbText
 10
232.6339285714286
 20
6.019997240728746
 30
0.0
 40
3.0
  1
5
  7
Roman
 72
     1
 11
234.0625
 21
6.019997240728746
 31
0.0
100
AcDbText
1001
AcDbBlockRepETag
1070
     1
1071
       40
1005
511
  0
LINE
  5
512
330
4E7
100
AcDbEntity
  8
0
100
AcDbLine
 10
306.25
 20
10.0
 30
0.0
 11
306.25
 21
5.0
 31
0.0
1001
AcDbBlockRepETag
1070
     1
1071
       41
1005
512
  0
TEXT
  5
513
330
4E7
100
AcDbEntity
  8
0
100
AcDbText
 10
280.6875
 20
6.019997240728746
 30
0.0
 40
3.0
  1
6
  7
Roman
 72
     1
 11
282.1875
 21
6.019997240728746
 31
0.0
100
AcDbText
1001
AcDbBlockRepETag
1070
     1
1071
       42
1005
513
  0
TEXT
  5
514
330
4E7
100
AcDbEntity
  8
0
100
AcDbText
 10
328.8839285714285
 20
6.019997240728746
 30
0.0
 40
3.0
  1
7
  7
Roman
 72
     1
 11
330.3125
 21
6.019997240728746
 31
0.0
100
AcDbText
1001
AcDbBlockRepETag
1070
     1
1071
       43
1005
514
  0
LINE
  5
515
330
4E7
100
AcDbEntity
  8
0
100
AcDbLine
 10
354.375
 20
10.0
 30
0.0
 11
354.375
 21
5.0
 31
0.0
1001
AcDbBlockRepETag
1070
     1
1071
       44
1005
515
  0
TEXT
  5
516
330
4E7
100
AcDbEntity
  8
0
100
AcDbText
 10
377.0089285714286
 20
6.019997240728746
 30
0.0
 40
3.0
  1
8
  7
Roman
 72
     1
 11
378.4375
 21
6.019997240728746
 31
0.0
100
AcDbText
1001
AcDbBlockRepETag
1070
     1
1071
       45
1005
516
  0
LINE
  5
517
330
4E7
100
AcDbEntity
  8
0
100
AcDbLine
 10
420.0
 20
10.0
 30
0.0
 11
420.0
 21
0.0
 31
0.0
1001
AcDbBlockRepETag
1070
     1
1071
       46
1005
517
  0
LINE
  5
518
330
4E7
100
AcDbEntity
  8
0
100
AcDbLine
 10
420.0
 20
0.0
 30
0.0
 11
410.0
 21
0.0
 31
0.0
1001
AcDbBlockRepETag
1070
     1
1071
       47
1005
518
  0
LINE
  5
519
330
4E7
100
AcDbEntity
  8
0
 62
     0
380
     1
100
AcDbLine
 10
402.5
 20
49.00000000000036
 30
0.0
 11
402.5
 21
10.0
 31
0.0
1001
AcDbBlockRepETag
1070
     1
1071
       48
1005
519
  0
LINE
  5
51A
330
4E7
100
AcDbEntity
  8
0
 62
     0
380
     1
100
AcDbLine
 10
402.5
 20
10.0
 30
0.0
 11
402.5
 21
49.00000000000036
 31
0.0
1001
AcDbBlockRepETag
1070
     1
1071
       49
1005
51A
  0
TEXT
  5
51B
330
4E7
100
AcDbEntity
  8
0
100
AcDbText
 10
403.8708251683468
 20
33.08333333333334
 30
0.0
 40
3.0
  1
F
  7
Roman
 72
     1
 11
405.3708251683468
 21
33.08333333333334
 31
0.0
100
AcDbText
1001
AcDbBlockRepETag
1070
     1
1071
       50
1005
51B
  0
LINE
  5
51C
330
4E7
100
AcDbEntity
  8
0
100
AcDbLine
 10
402.5
 20
56.16666666666668
 30
0.0
 11
407.5
 21
56.16666666666668
 31
0.0
1001
AcDbBlockRepETag
1070
     1
1071
       51
1005
51C
  0
TEXT
  5
51D
330
4E7
100
AcDbEntity
  8
0
100
AcDbText
 10
403.8708251683468
 20
79.25
 30
0.0
 40
3.0
  1
E
  7
Roman
 72
     1
 11
405.3708251683468
 21
79.25
 31
0.0
100
AcDbText
1001
AcDbBlockRepETag
1070
     1
1071
       52
1005
51D
  0
LINE
  5
51E
330
4E7
100
AcDbEntity
  8
0
100
AcDbLine
 10
402.5
 20
102.3333333333333
 30
0.0
 11
407.5
 21
102.3333333333333
 31
0.0
1001
AcDbBlockRepETag
1070
     1
1071
       53
1005
51E
  0
TEXT
  5
51F
330
4E7
100
AcDbEntity
  8
0
100
AcDbText
 10
403.7993965969183
 20
125.4166666666666
 30
0.0
 40
3.0
  1
D
  7
Roman
 72
     1
 11
405.3708251683468
 21
125.4166666666666
 31
0.0
100
AcDbText
1001
AcDbBlockRepETag
1070
     1
1071
       54
1005
51F
  0
LINE
  5
520
330
4E7
100
AcDbEntity
  8
0
100
AcDbLine
 10
402.5
 20
148.5
 30
0.0
 11
420.0
 21
148.5
 31
0.0
1001
AcDbBlockRepETag
1070
     1
1071
       56
1005
520
  0
LINE
  5
521
330
4E7
100
AcDbEntity
  8
0
100
AcDbLine
 10
210.0
 20
287.0
 30
0.0
 11
210.0
 21
297.0
 31
0.0
1001
AcDbBlockRepETag
1070
     1
1071
       57
1005
521
  0
LINE
  5
522
330
4E7
100
AcDbEntity
  8
0
100
AcDbLine
 10
258.125
 20
287.0
 30
0.0
 11
258.125
 21
292.0
 31
0.0
1001
AcDbBlockRepETag
1070
     1
1071
       58
1005
522
  0
LINE
  5
523
330
4E7
100
AcDbEntity
  8
0
100
AcDbLine
 10
210.0
 20
287.0
 30
0.0
 11
210.0
 21
292.0
 31
0.0
1001
AcDbBlockRepETag
1070
     1
1071
       59
1005
523
  0
TEXT
  5
524
330
4E7
100
AcDbEntity
  8
0
100
AcDbText
 10
232.6339285714286
 20
288.0
 30
0.0
 40
3.0
  1
5
  7
Roman
 72
     1
 11
234.0625
 21
288.0
 31
0.0
100
AcDbText
1001
AcDbBlockRepETag
1070
     1
1071
       60
1005
524
  0
LINE
  5
525
330
4E7
100
AcDbEntity
  8
0
100
AcDbLine
 10
306.25
 20
287.0
 30
0.0
 11
306.25
 21
292.0
 31
0.0
1001
AcDbBlockRepETag
1070
     1
1071
       61
1005
525
  0
TEXT
  5
526
330
4E7
100
AcDbEntity
  8
0
100
AcDbText
 10
280.6875
 20
288.0
 30
0.0
 40
3.0
  1
6
  7
Roman
 72
     1
 11
282.1875
 21
288.0
 31
0.0
100
AcDbText
1001
AcDbBlockRepETag
1070
     1
1071
       62
1005
526
  0
TEXT
  5
527
330
4E7
100
AcDbEntity
  8
0
100
AcDbText
 10
328.8839285714285
 20
288.0
 30
0.0
 40
3.0
  1
7
  7
Roman
 72
     1
 11
330.3125
 21
288.0
 31
0.0
100
AcDbText
1001
AcDbBlockRepETag
1070
     1
1071
       63
1005
527
  0
TEXT
  5
528
330
4E7
100
AcDbEntity
  8
0
100
AcDbText
 10
403.8708251683468
 20
171.5833333333333
 30
0.0
 40
3.0
  1
C
  7
Roman
 72
     1
 11
405.3708251683468
 21
171.5833333333333
 31
0.0
100
AcDbText
1001
AcDbBlockRepETag
1070
     1
1071
       64
1005
528
  0
LINE
  5
529
330
4E7
100
AcDbEntity
  8
0
100
AcDbLine
 10
402.5
 20
194.6666666666667
 30
0.0
 11
407.5
 21
194.6666666666667
 31
0.0
1001
AcDbBlockRepETag
1070
     1
1071
       65
1005
529
  0
TEXT
  5
52A
330
4E7
100
AcDbEntity
  8
0
100
AcDbText
 10
403.7993965969183
 20
217.75
 30
0.0
 40
3.0
  1
B
  7
Roman
 72
     1
 11
405.3708251683468
 21
217.75
 31
0.0
100
AcDbText
1001
AcDbBlockRepETag
1070
     1
1071
       66
1005
52A
  0
LINE
  5
52B
330
4E7
100
AcDbEntity
  8
0
100
AcDbLine
 10
402.5
 20
240.8333333333334
 30
0.0
 11
407.5
 21
240.8333333333334
 31
0.0
1001
AcDbBlockRepETag
1070
     1
1071
       67
1005
52B
  0
LINE
  5
52C
330
4E7
100
AcDbEntity
  8
0
100
AcDbLine
 10
354.375
 20
287.0
 30
0.0
 11
354.375
 21
292.0
 31
0.0
1001
AcDbBlockRepETag
1070
     1
1071
       68
1005
52C
  0
TEXT
  5
52D
330
4E7
100
AcDbEntity
  8
0
100
AcDbText
 10
377.0089285714286
 20
288.0
 30
0.0
 40
3.0
  1
8
  7
Roman
 72
     1
 11
378.4375
 21
288.0
 31
0.0
100
AcDbText
1001
AcDbBlockRepETag
1070
     1
1071
       69
1005
52D
  0
LINE
  5
52E
330
4E7
100
AcDbEntity
  8
0
100
AcDbLine
 10
420.0
 20
297.0
 30
0.0
 11
420.0
 21
287.0
 31
0.0
1001
AcDbBlockRepETag
1070
     1
1071
       70
1005
52E
  0
TEXT
  5
52F
330
4E7
100
AcDbEntity
  8
0
100
AcDbText
 10
404.0851108826325
 20
263.9166666666666
 30
0.0
 40
3.0
  1
A
  7
Roman
 72
     1
 11
405.3708251683468
 21
263.9166666666666
 31
0.0
100
AcDbText
1001
AcDbBlockRepETag
1070
     1
1071
       71
1005
52F
  0
LINE
  5
530
330
4E7
100
AcDbEntity
  8
0
100
AcDbLine
 10
410.0
 20
297.0
 30
0.0
 11
420.0
 21
297.0
 31
0.0
1001
AcDbBlockRepETag
1070
     1
1071
       72
1005
530
  0
LINE
  5
531
330
4E7
100
AcDbEntity
  8
0
100
AcDbLine
 10
286.4978723404242
 20
10.0
 30
0.0
 11
286.4978723404242
 21
10.0
 31
0.0
1001
AcDbBlockRepETag
1070
     1
1071
      161
1005
531
  0
LINE
  5
532
330
4E7
100
AcDbEntity
  8
0
100
AcDbLine
 10
285.4978723404242
 20
10.0
 30
0.0
 11
285.4978723404242
 21
46.0
 31
0.0
1001
AcDbBlockRepETag
1070
     1
1071
      162
1005
532
  0
LINE
  5
533
330
4E7
100
AcDbEntity
  8
0
100
AcDbLine
 10
402.4978723404242
 20
19.0
 30
0.0
 11
285.4978723404242
 21
19.0
 31
0.0
1001
AcDbBlockRepETag
1070
     1
1071
      166
1005
533
  0
LINE
  5
534
330
4E7
100
AcDbEntity
  8
0
100
AcDbLine
 10
336.4978723404242
 20
10.0
 30
0.0
 11
336.4978723404242
 21
19.0
 31
0.0
1001
AcDbBlockRepETag
1070
     1
1071
      167
1005
534
  0
LINE
  5
535
330
4E7
100
AcDbEntity
  8
0
100
AcDbLine
 10
325.4978723404242
 20
28.0
 30
0.0
 11
285.4978723404242
 21
28.0
 31
0.0
1001
AcDbBlockRepETag
1070
     1
1071
      168
1005
535
  0
LINE
  5
536
330
4E7
100
AcDbEntity
  8
0
100
AcDbLine
 10
402.4978723404242
 20
37.0
 30
0.0
 11
285.4978723404242
 21
37.0
 31
0.0
1001
AcDbBlockRepETag
1070
     1
1071
      169
1005
536
  0
LINE
  5
537
330
4E7
100
AcDbEntity
  8
0
100
AcDbLine
 10
402.4978723404242
 20
46.0
 30
0.0
 11
285.4978723404242
 21
46.0
 31
0.0
1001
AcDbBlockRepETag
1070
     1
1071
      170
1005
537
  0
MTEXT
  5
538
330
4E7
100
AcDbEntity
  8
0
100
AcDbMText
 10
310.9978723404242
 20
14.5
 30
0.0
 40
4.0
 41
51.0
 71
     5
 72
     5
  1
富国石油株式会社
 73
     1
 44
1.0
1001
AcDbBlockRepETag
1070
     1
1071
      171
1005
538
1001
ACAD
1000
MTEXTBEGIN
1070
    73
1070
     1
1070
    44
1040
1.0
1070
    74
1070
     0
1000
MTEXTEND
  0
MTEXT
  5
539
102
{ACAD_XDICTIONARY
360
2D0E
102
}
330
4E7
100
AcDbEntity
  8
0
100
AcDbMText
 10
288.4779634407957
 20
23.5
 30
0.0
 40
2.0
 41
3.96018220074299
 71
     5
 72
     5
  1
検\P図
 73
     1
 44
1.0
1001
AcDbBlockRepETag
1070
     1
1071
      172
1005
539
1001
ACAD
1000
MTEXTBEGIN
1070
    73
1070
     1
1070
    44
1040
1.0
1070
    74
1070
     0
1000
MTEXTEND
1000
ACAD_MTEXT_DEFINED_HEIGHT_BEGIN
1070
    46
1040
9.0
1000
ACAD_MTEXT_DEFINED_HEIGHT_END
  0
MTEXT
  5
53A
330
4E7
100
AcDbEntity
  8
0
100
AcDbMText
 10
288.4779634407957
 20
32.5
 30
0.0
 40
2.0
 41
3.96018220074299
 71
     5
 72
     5
  1
確\P認
 73
     1
 44
1.0
1001
AcDbBlockRepETag
1070
     1
1071
      173
1005
53A
1001
ACAD
1000
MTEXTBEGIN
1070
    73
1070
     1
1070
    44
1040
1.0
1070
    74
1070
     0
1000
MTEXTEND
1000
ACAD_MTEXT_DEFINED_HEIGHT_BEGIN
1070
    46
1040
9.0
1000
ACAD_MTEXT_DEFINED_HEIGHT_END
  0
MTEXT
  5
53B
330
4E7
100
AcDbEntity
  8
0
100
AcDbMText
 10
288.4779634407957
 20
41.5
 30
0.0
 40
2.0
 41
3.96018220074299
 71
     5
 72
     5
  1
縮\P尺
 73
     1
 44
1.0
1001
AcDbBlockRepETag
1070
     1
1071
      174
1005
53B
1001
ACAD
1000
MTEXTBEGIN
1070
    73
1070
     1
1070
    44
1040
1.0
1070
    74
1070
     0
1000
MTEXTEND
1000
ACAD_MTEXT_DEFINED_HEIGHT_BEGIN
1070
    46
1040
9.0
1000
ACAD_MTEXT_DEFINED_HEIGHT_END
  0
LINE
  5
53C
330
4E7
100
AcDbEntity
  8
0
100
AcDbLine
 10
305.4978723404242
 20
19.0
 30
0.0
 11
305.4978723404242
 21
46.0
 31
0.0
1001
AcDbBlockRepETag
1070
     1
1071
      175
1005
53C
  0
LINE
  5
53D
330
4E7
100
AcDbEntity
  8
0
100
AcDbLine
 10
325.4978723404242
 20
19.0
 30
0.0
 11
325.4978723404242
 21
46.0
 31
0.0
1001
AcDbBlockRepETag
1070
     1
1071
      176
1005
53D
  0
LINE
  5
53E
330
4E7
100
AcDbEntity
  8
0
100
AcDbLine
 10
357.4978723404242
 20
37.0
 30
0.0
 11
357.4978723404242
 21
46.0
 31
0.0
1001
AcDbBlockRepETag
1070
     1
1071
      194
1005
53E
  0
MTEXT
  5
53F
330
4E7
100
AcDbEntity
  8
0
100
AcDbMText
 10
308.4779634407957
 20
32.5
 30
0.0
 40
2.0
 41
3.96018220074299
 71
     5
 72
     5
  1
設\P計
 73
     1
 44
1.0
1001
AcDbBlockRepETag
1070
     1
1071
      177
1005
53F
1001
ACAD
1000
MTEXTBEGIN
1070
    73
1070
     1
1070
    44
1040
1.0
1070
    74
1070
     0
1000
MTEXTEND
1000
ACAD_MTEXT_DEFINED_HEIGHT_BEGIN
1070
    46
1040
9.0
1000
ACAD_MTEXT_DEFINED_HEIGHT_END
  0
MTEXT
  5
540
330
4E7
100
AcDbEntity
  8
0
100
AcDbMText
 10
308.4779634407957
 20
23.5
 30
0.0
 40
2.0
 41
3.96018220074299
 71
     5
 72
     5
  1
製\P図
 73
     1
 44
1.0
1001
AcDbBlockRepETag
1070
     1
1071
      178
1005
540
1001
ACAD
1000
MTEXTBEGIN
1070
    73
1070
     1
1070
    44
1040
1.0
1070
    74
1070
     0
1000
MTEXTEND
1000
ACAD_MTEXT_DEFINED_HEIGHT_BEGIN
1070
    46
1040
9.0
1000
ACAD_MTEXT_DEFINED_HEIGHT_END
  0
MTEXT
  5
541
330
4E7
100
AcDbEntity
  8
0
100
AcDbMText
 10
328.4779634407957
 20
41.5
 30
0.0
 40
2.0
 41
3.96018220074299
 71
     5
 72
     5
  1
材\P料
 73
     1
 44
1.0
1001
AcDbBlockRepETag
1070
     1
1071
      179
1005
541
1001
ACAD
1000
MTEXTBEGIN
1070
    73
1070
     1
1070
    44
1040
1.0
1070
    74
1070
     0
1000
MTEXTEND
1000
ACAD_MTEXT_DEFINED_HEIGHT_BEGIN
1070
    46
1040
9.0
1000
ACAD_MTEXT_DEFINED_HEIGHT_END
  0
LINE
  5
542
330
4E7
100
AcDbEntity
  8
0
  6
HIDDEN2
 48
0.5
100
AcDbLine
 10
402.4978723404242
 20
32.5
 30
0.0
 11
325.4978723404242
 21
32.5
 31
0.0
1001
AcDbBlockRepETag
1070
     1
1071
      180
1005
542
  0
POINT
  5
543
330
4E7
100
AcDbEntity
  8
0
100
AcDbPoint
 10
311.2478723404242
 20
37.0
 30
0.0
1001
AcDbBlockRepETag
1070
     1
1071
      189
1005
543
  0
POINT
  5
544
330
4E7
100
AcDbEntity
  8
0
100
AcDbPoint
 10
311.2478723404242
 20
28.0
 30
0.0
1001
AcDbBlockRepETag
1070
     1
1071
      190
1005
544
  0
LINE
  5
545
330
4E7
100
AcDbEntity
  8
0
100
AcDbLine
 10
17.5
 20
10.0
 30
0.0
 11
17.5
 21
287.0
 31
0.0
1001
AcDbBlockRepETag
1070
     1
1071
       74
1005
545
  0
ENDBLK
  5
546
330
4E7
100
AcDbEntity
  8
0
100
AcDbBlockEnd
  0
BLOCK
  5
6F0
330
6ED
100
AcDbEntity
  8
0
100
AcDbBlockBegin
  2
JIS A4 title block (landscape)
 70
     2
 10
0.0
 20
0.0
 30
0.0
  3
JIS A4 title block (landscape)
  1

  4
JIS A3 title block and attributes
  0
LINE
  5
92E
330
6ED
100
AcDbEntity
  8
0
100
AcDbLine
 10
0.0
 20
297.0
 30
0.0
 11
25.0
 21
297.0
 31
0.0
1001
AcDbBlockRepETag
1070
     1
1071
       26
1005
92E
  0
LINE
  5
92F
330
6ED
100
AcDbEntity
  8
0
100
AcDbLine
 10
0.0
 20
287.0
 30
0.0
 11
0.0
 21
297.0
 31
0.0
1001
AcDbBlockRepETag
1070
     1
1071
       27
1005
92F
  0
LINE
  5
989
330
6ED
100
AcDbEntity
  8
0
100
AcDbLine
 10
279.5
 20
97.0
 30
0.0
 11
17.5
 21
97.0
 31
0.0
1001
AcDbBlockRepETag
1070
     1
1071
        0
1005
989
  0
LINE
  5
98A
330
6ED
100
AcDbEntity
  8
0
100
AcDbLine
 10
17.5
 20
287.0
 30
0.0
 11
279.5
 21
287.0
 31
0.0
1001
AcDbBlockRepETag
1070
     1
1071
        1
1005
98A
  0
LINE
  5
98B
330
6ED
100
AcDbEntity
  8
0
100
AcDbLine
 10
17.5
 20
97.0
 30
0.0
 11
17.5
 21
287.0
 31
0.0
1001
AcDbBlockRepETag
1070
     1
1071
        2
1005
98B
  0
LINE
  5
98C
330
6ED
100
AcDbEntity
  8
0
100
AcDbLine
 10
25.0
 20
87.0
 30
0.0
 11
0.0
 21
87.0
 31
0.0
1001
AcDbBlockRepETag
1070
     1
1071
        3
1005
98C
  0
LINE
  5
98D
330
6ED
100
AcDbEntity
  8
0
100
AcDbLine
 10
0.0
 20
87.0
 30
0.0
 11
0.0
 21
97.0
 31
0.0
1001
AcDbBlockRepETag
1070
     1
1071
        4
1005
98D
  0
LINE
  5
98E
330
6ED
100
AcDbEntity
  8
0
100
AcDbLine
 10
61.16666666666668
 20
97.0
 30
0.0
 11
61.16666666666668
 21
92.0
 31
0.0
1001
AcDbBlockRepETag
1070
     1
1071
        5
1005
98E
  0
TEXT
  5
98F
330
6ED
100
AcDbEntity
  8
0
100
AcDbText
 10
38.11904761904761
 20
93.23033810098564
 30
0.0
 40
3.0
  1
1
  7
Roman
 72
     1
 11
39.33333333333332
 21
93.23033810098564
 31
0.0
100
AcDbText
1001
AcDbBlockRepETag
1070
     1
1071
        6
1005
98F
  0
ATTDEF
  5
990
330
6ED
100
AcDbEntity
  8
0
 62
     0
100
AcDbText
 10
11.5
 20
97.0
 30
0.0
 40
3.0
  1

 50
90.0
  7
Roman
100
AcDbAttributeDefinition
  3
Author:
  2
USER
 70
     8
1001
AcDbBlockRepETag
1070
     1
1071
        7
1005
0
  0
TEXT
  5
991
330
6ED
100
AcDbEntity
  8
0
100
AcDbText
 10
13.87568307432493
 20
120.75
 30
0.0
 40
3.0
  1
D
  7
Roman
 72
     1
 11
15.4471116457535
 21
120.75
 31
0.0
100
AcDbText
1001
AcDbBlockRepETag
1070
     1
1071
        8
1005
991
  0
LINE
  5
992
330
6ED
100
AcDbEntity
  8
0
100
AcDbLine
 10
17.5
 20
192.0
 30
0.0
 11
0.0
 21
192.0
 31
0.0
1001
AcDbBlockRepETag
1070
     1
1071
        9
1005
992
  0
ATTDEF
  5
993
330
6ED
100
AcDbEntity
  8
0
 62
     0
100
AcDbText
 10
11.5
 20
157.0
 30
0.0
 40
3.0
  1

 50
90.0
  7
Roman
100
AcDbAttributeDefinition
  3
Revision date:
  2
REVDATE
 70
     8
1001
AcDbBlockRepETag
1070
     1
1071
       10
1005
0
  0
LINE
  5
994
330
6ED
100
AcDbEntity
  8
0
100
AcDbLine
 10
17.5
 20
144.5
 30
0.0
 11
12.5
 21
144.5
 31
0.0
1001
AcDbBlockRepETag
1070
     1
1071
       11
1005
994
  0
TEXT
  5
995
330
6ED
100
AcDbEntity
  8
0
100
AcDbText
 10
13.9471116457535
 20
168.25
 30
0.0
 40
3.0
  1
C
  7
Roman
 72
     1
 11
15.4471116457535
 21
168.25
 31
0.0
100
AcDbText
1001
AcDbBlockRepETag
1070
     1
1071
       12
1005
995
  0
ATTDEF
  5
996
330
6ED
100
AcDbEntity
  8
0
 62
     0
100
AcDbText
 10
11.5
 20
205.0
 30
0.0
 40
3.0
  1

 50
90.0
  7
Roman
100
AcDbAttributeDefinition
  3
File name:
  2
FNAME
 70
     8
1001
AcDbBlockRepETag
1070
     1
1071
       13
1005
0
  0
LINE
  5
997
330
6ED
100
AcDbEntity
  8
0
100
AcDbLine
 10
17.5
 20
192.0
 30
0.0
 11
12.5
 21
192.0
 31
0.0
1001
AcDbBlockRepETag
1070
     1
1071
       14
1005
997
  0
TEXT
  5
998
330
6ED
100
AcDbEntity
  8
0
100
AcDbText
 10
13.87568307432493
 20
215.75
 30
0.0
 40
3.0
  1
B
  7
Roman
 72
     1
 11
15.4471116457535
 21
215.75
 31
0.0
100
AcDbText
1001
AcDbBlockRepETag
1070
     1
1071
       15
1005
998
  0
LINE
  5
999
330
6ED
100
AcDbEntity
  8
0
100
AcDbLine
 10
104.8333333333333
 20
97.0
 30
0.0
 11
104.8333333333333
 21
92.0
 31
0.0
1001
AcDbBlockRepETag
1070
     1
1071
       16
1005
999
  0
TEXT
  5
99A
330
6ED
100
AcDbEntity
  8
0
100
AcDbText
 10
81.57142857142856
 20
93.23033810098564
 30
0.0
 40
3.0
  1
2
  7
Roman
 72
     1
 11
83.0
 21
93.23033810098564
 31
0.0
100
AcDbText
1001
AcDbBlockRepETag
1070
     1
1071
       17
1005
99A
  0
TEXT
  5
99B
330
6ED
100
AcDbEntity
  8
0
100
AcDbText
 10
125.2380952380953
 20
93.23033810098564
 30
0.0
 40
3.0
  1
3
  7
Roman
 72
     1
 11
126.6666666666667
 21
93.23033810098564
 31
0.0
100
AcDbText
1001
AcDbBlockRepETag
1070
     1
1071
       18
1005
99B
  0
LINE
  5
99C
330
6ED
100
AcDbEntity
  8
0
100
AcDbLine
 10
148.5
 20
97.0
 30
0.0
 11
148.5
 21
87.0
 31
0.0
1001
AcDbBlockRepETag
1070
     1
1071
       19
1005
99C
  0
LINE
  5
99D
330
6ED
100
AcDbEntity
  8
0
100
AcDbLine
 10
148.5
 20
97.0
 30
0.0
 11
148.5
 21
92.0
 31
0.0
1001
AcDbBlockRepETag
1070
     1
1071
       20
1005
99D
  0
LINE
  5
99E
330
6ED
100
AcDbEntity
  8
0
100
AcDbLine
 10
192.1666666666667
 20
97.0
 30
0.0
 11
192.1666666666667
 21
92.0
 31
0.0
1001
AcDbBlockRepETag
1070
     1
1071
       21
1005
99E
  0
TEXT
  5
99F
330
6ED
100
AcDbEntity
  8
0
100
AcDbText
 10
168.8333333333333
 20
93.23033810098564
 30
0.0
 40
3.0
  1
4
  7
Roman
 72
     1
 11
170.3333333333333
 21
93.23033810098564
 31
0.0
100
AcDbText
1001
AcDbBlockRepETag
1070
     1
1071
       22
1005
99F
  0
LINE
  5
9A0
330
6ED
100
AcDbEntity
  8
0
100
AcDbLine
 10
17.5
 20
239.5
 30
0.0
 11
12.5
 21
239.5
 31
0.0
1001
AcDbBlockRepETag
1070
     1
1071
       25
1005
9A0
  0
TEXT
  5
9A1
330
6ED
100
AcDbEntity
  8
0
100
AcDbText
 10
14.16139736003921
 20
263.25
 30
0.0
 40
3.0
  1
A
  7
Roman
 72
     1
 11
15.4471116457535
 21
263.25
 31
0.0
100
AcDbText
1001
AcDbBlockRepETag
1070
     1
1071
       75
1005
9A1
  0
TEXT
  5
9A2
330
6ED
100
AcDbEntity
  8
0
100
AcDbText
 10
38.11904761904761
 20
288.0
 30
0.0
 40
3.0
  1
1
  7
Roman
 72
     1
 11
39.33333333333332
 21
288.0
 31
0.0
100
AcDbText
1001
AcDbBlockRepETag
1070
     1
1071
       76
1005
9A2
  0
LINE
  5
9A3
330
6ED
100
AcDbEntity
  8
0
100
AcDbLine
 10
61.16666666666666
 20
287.0
 30
0.0
 11
61.16666666666666
 21
292.0
 31
0.0
1001
AcDbBlockRepETag
1070
     1
1071
       28
1005
9A3
  0
TEXT
  5
9A4
330
6ED
100
AcDbEntity
  8
0
100
AcDbText
 10
81.57142857142856
 20
288.0
 30
0.0
 40
3.0
  1
2
  7
Roman
 72
     1
 11
83.0
 21
288.0
 31
0.0
100
AcDbText
1001
AcDbBlockRepETag
1070
     1
1071
       29
1005
9A4
  0
LINE
  5
9A5
330
6ED
100
AcDbEntity
  8
0
100
AcDbLine
 10
104.8333333333333
 20
287.0
 30
0.0
 11
104.8333333333333
 21
292.0
 31
0.0
1001
AcDbBlockRepETag
1070
     1
1071
       30
1005
9A5
  0
TEXT
  5
9A6
330
6ED
100
AcDbEntity
  8
0
100
AcDbText
 10
125.2380952380953
 20
288.0
 30
0.0
 40
3.0
  1
3
  7
Roman
 72
     1
 11
126.6666666666667
 21
288.0
 31
0.0
100
AcDbText
1001
AcDbBlockRepETag
1070
     1
1071
       31
1005
9A6
  0
TEXT
  5
9A7
330
6ED
100
AcDbEntity
  8
0
100
AcDbText
 10
168.8333333333333
 20
288.0
 30
0.0
 40
3.0
  1
4
  7
Roman
 72
     1
 11
170.3333333333333
 21
288.0
 31
0.0
100
AcDbText
1001
AcDbBlockRepETag
1070
     1
1071
       32
1005
9A7
  0
LINE
  5
9A8
330
6ED
100
AcDbEntity
  8
0
100
AcDbLine
 10
148.5
 20
287.0
 30
0.0
 11
148.5
 21
297.0
 31
0.0
1001
AcDbBlockRepETag
1070
     1
1071
       33
1005
9A8
  0
LINE
  5
9A9
330
6ED
100
AcDbEntity
  8
0
100
AcDbLine
 10
148.5
 20
287.0
 30
0.0
 11
148.5
 21
292.0
 31
0.0
1001
AcDbBlockRepETag
1070
     1
1071
       34
1005
9A9
  0
LINE
  5
9AA
330
6ED
100
AcDbEntity
  8
0
100
AcDbLine
 10
192.1666666666666
 20
287.0
 30
0.0
 11
192.1666666666666
 21
292.0
 31
0.0
1001
AcDbBlockRepETag
1070
     1
1071
       35
1005
9AA
  0
LINE
  5
9AB
330
6ED
100
AcDbEntity
  8
0
100
AcDbLine
 10
279.5
 20
287.0
 30
0.0
 11
279.5
 21
97.0
 31
0.0
1001
AcDbBlockRepETag
1070
     1
1071
       36
1005
9AB
  0
LINE
  5
9AC
330
6ED
100
AcDbEntity
  8
0
100
AcDbLine
 10
235.8333333333334
 20
97.0
 30
0.0
 11
235.8333333333334
 21
92.0
 31
0.0
1001
AcDbBlockRepETag
1070
     1
1071
       37
1005
9AC
  0
TEXT
  5
9AD
330
6ED
100
AcDbEntity
  8
0
100
AcDbText
 10
212.5714285714286
 20
93.23033810098564
 30
0.0
 40
3.0
  1
5
  7
Roman
 72
     1
 11
214.0
 21
93.23033810098564
 31
0.0
100
AcDbText
1001
AcDbBlockRepETag
1070
     1
1071
       38
1005
9AD
  0
TEXT
  5
9AE
330
6ED
100
AcDbEntity
  8
0
100
AcDbText
 10
256.1666666666667
 20
93.23033810098564
 30
0.0
 40
3.0
  1
6
  7
Roman
 72
     1
 11
257.6666666666667
 21
93.23033810098564
 31
0.0
100
AcDbText
1001
AcDbBlockRepETag
1070
     1
1071
       39
1005
9AE
  0
LINE
  5
9AF
330
6ED
100
AcDbEntity
  8
0
100
AcDbLine
 10
297.0
 20
97.0
 30
0.0
 11
297.0
 21
87.0
 31
0.0
1001
AcDbBlockRepETag
1070
     1
1071
       40
1005
9AF
  0
LINE
  5
9B0
330
6ED
100
AcDbEntity
  8
0
100
AcDbLine
 10
297.0
 20
87.0
 30
0.0
 11
287.0
 21
87.0
 31
0.0
1001
AcDbBlockRepETag
1070
     1
1071
       41
1005
9B0
  0
TEXT
  5
9B1
330
6ED
100
AcDbEntity
  8
0
100
AcDbText
 10
280.1673438822666
 20
120.75
 30
0.0
 40
3.0
  1
D
  7
Roman
 72
     1
 11
281.7387724536952
 21
120.75
 31
0.0
100
AcDbText
1001
AcDbBlockRepETag
1070
     1
1071
       42
1005
9B1
  0
LINE
  5
9B2
330
6ED
100
AcDbEntity
  8
0
100
AcDbLine
 10
279.5
 20
144.5
 30
0.0
 11
284.5
 21
144.5
 31
0.0
1001
AcDbBlockRepETag
1070
     1
1071
       43
1005
9B2
  0
TEXT
  5
9B3
330
6ED
100
AcDbEntity
  8
0
100
AcDbText
 10
280.2387724536952
 20
168.25
 30
0.0
 40
3.0
  1
C
  7
Roman
 72
     1
 11
281.7387724536952
 21
168.25
 31
0.0
100
AcDbText
1001
AcDbBlockRepETag
1070
     1
1071
       44
1005
9B3
  0
LINE
  5
9B4
330
6ED
100
AcDbEntity
  8
0
100
AcDbLine
 10
279.5
 20
192.0
 30
0.0
 11
297.0
 21
192.0
 31
0.0
1001
AcDbBlockRepETag
1070
     1
1071
       45
1005
9B4
  0
LINE
  5
9B5
330
6ED
100
AcDbEntity
  8
0
100
AcDbLine
 10
279.5
 20
192.0
 30
0.0
 11
284.5
 21
192.0
 31
0.0
1001
AcDbBlockRepETag
1070
     1
1071
       46
1005
9B5
  0
TEXT
  5
9B6
330
6ED
100
AcDbEntity
  8
0
100
AcDbText
 10
280.1673438822666
 20
215.75
 30
0.0
 40
3.0
  1
B
  7
Roman
 72
     1
 11
281.7387724536952
 21
215.75
 31
0.0
100
AcDbText
1001
AcDbBlockRepETag
1070
     1
1071
       47
1005
9B6
  0
TEXT
  5
9B7
330
6ED
100
AcDbEntity
  8
0
100
AcDbText
 10
212.5714285714286
 20
288.0
 30
0.0
 40
3.0
  1
5
  7
Roman
 72
     1
 11
214.0
 21
288.0
 31
0.0
100
AcDbText
1001
AcDbBlockRepETag
1070
     1
1071
       48
1005
9B7
  0
LINE
  5
9B8
330
6ED
100
AcDbEntity
  8
0
100
AcDbLine
 10
235.8333333333333
 20
287.0
 30
0.0
 11
235.8333333333333
 21
292.0
 31
0.0
1001
AcDbBlockRepETag
1070
     1
1071
       49
1005
9B8
  0
TEXT
  5
9B9
330
6ED
100
AcDbEntity
  8
0
100
AcDbText
 10
256.1666666666667
 20
288.0
 30
0.0
 40
3.0
  1
6
  7
Roman
 72
     1
 11
257.6666666666667
 21
288.0
 31
0.0
100
AcDbText
1001
AcDbBlockRepETag
1070
     1
1071
       50
1005
9B9
  0
LINE
  5
9BA
330
6ED
100
AcDbEntity
  8
0
100
AcDbLine
 10
279.5
 20
239.5
 30
0.0
 11
284.5
 21
239.5
 31
0.0
1001
AcDbBlockRepETag
1070
     1
1071
       51
1005
9BA
  0
TEXT
  5
9BB
330
6ED
100
AcDbEntity
  8
0
100
AcDbText
 10
280.4530581679809
 20
263.25
 30
0.0
 40
3.0
  1
A
  7
Roman
 72
     1
 11
281.7387724536952
 21
263.25
 31
0.0
100
AcDbText
1001
AcDbBlockRepETag
1070
     1
1071
       52
1005
9BB
  0
LINE
  5
9BC
330
6ED
100
AcDbEntity
  8
0
100
AcDbLine
 10
287.0
 20
297.0
 30
0.0
 11
297.0
 21
297.0
 31
0.0
1001
AcDbBlockRepETag
1070
     1
1071
       53
1005
9BC
  0
LINE
  5
9BD
330
6ED
100
AcDbEntity
  8
0
100
AcDbLine
 10
297.0
 20
297.0
 30
0.0
 11
297.0
 21
287.0
 31
0.0
1001
AcDbBlockRepETag
1070
     1
1071
       54
1005
9BD
  0
LINE
  5
9BE
330
6ED
100
AcDbEntity
  8
0
100
AcDbLine
 10
163.4978723404242
 20
97.0
 30
0.0
 11
163.4978723404242
 21
97.0
 31
0.0
1001
AcDbBlockRepETag
1070
     1
1071
      161
1005
9BE
  0
LINE
  5
9BF
330
6ED
100
AcDbEntity
  8
0
100
AcDbLine
 10
162.4978723404242
 20
97.0
 30
0.0
 11
162.4978723404242
 21
133.0
 31
0.0
1001
AcDbBlockRepETag
1070
     1
1071
      162
1005
9BF
  0
LINE
  5
9C0
330
6ED
100
AcDbEntity
  8
0
100
AcDbLine
 10
279.4978723404242
 20
106.0
 30
0.0
 11
162.4978723404242
 21
106.0
 31
0.0
1001
AcDbBlockRepETag
1070
     1
1071
      166
1005
9C0
  0
LINE
  5
9C1
330
6ED
100
AcDbEntity
  8
0
100
AcDbLine
 10
213.4978723404242
 20
97.0
 30
0.0
 11
213.4978723404242
 21
106.0
 31
0.0
1001
AcDbBlockRepETag
1070
     1
1071
      167
1005
9C1
  0
LINE
  5
9C2
330
6ED
100
AcDbEntity
  8
0
100
AcDbLine
 10
202.4978723404242
 20
115.0
 30
0.0
 11
162.4978723404242
 21
115.0
 31
0.0
1001
AcDbBlockRepETag
1070
     1
1071
      168
1005
9C2
  0
LINE
  5
9C3
330
6ED
100
AcDbEntity
  8
0
100
AcDbLine
 10
279.4978723404242
 20
124.0
 30
0.0
 11
162.4978723404242
 21
124.0
 31
0.0
1001
AcDbBlockRepETag
1070
     1
1071
      169
1005
9C3
  0
LINE
  5
9C4
330
6ED
100
AcDbEntity
  8
0
100
AcDbLine
 10
279.4978723404242
 20
133.0
 30
0.0
 11
162.4978723404242
 21
133.0
 31
0.0
1001
AcDbBlockRepETag
1070
     1
1071
      170
1005
9C4
  0
MTEXT
  5
9C5
330
6ED
100
AcDbEntity
  8
0
100
AcDbMText
 10
187.997872340424
 20
101.5
 30
0.0
 40
4.0
 41
51.0
 71
     5
 72
     5
  1
富国石油株式会社
 73
     1
 44
1.0
1001
AcDbBlockRepETag
1070
     1
1071
      171
1005
9C5
1001
ACAD
1000
MTEXTBEGIN
1070
    73
1070
     1
1070
    44
1040
1.0
1070
    74
1070
     0
1000
MTEXTEND
  0
MTEXT
  5
9C6
102
{ACAD_XDICTIONARY
360
2D10
102
}
330
6ED
100
AcDbEntity
  8
0
100
AcDbMText
 10
165.4779634407957
 20
110.5
 30
0.0
 40
2.0
 41
3.96018220074299
 71
     5
 72
     5
  1
検\P図
 73
     1
 44
1.0
1001
AcDbBlockRepETag
1070
     1
1071
      172
1005
9C6
1001
ACAD
1000
MTEXTBEGIN
1070
    73
1070
     1
1070
    44
1040
1.0
1070
    74
1070
     0
1000
MTEXTEND
1000
ACAD_MTEXT_DEFINED_HEIGHT_BEGIN
1070
    46
1040
9.0
1000
ACAD_MTEXT_DEFINED_HEIGHT_END
  0
MTEXT
  5
9C7
330
6ED
100
AcDbEntity
  8
0
100
AcDbMText
 10
165.4779634407957
 20
119.5
 30
0.0
 40
2.0
 41
3.96018220074299
 71
     5
 72
     5
  1
確\P認
 73
     1
 44
1.0
1001
AcDbBlockRepETag
1070
     1
1071
      173
1005
9C7
1001
ACAD
1000
MTEXTBEGIN
1070
    73
1070
     1
1070
    44
1040
1.0
1070
    74
1070
     0
1000
MTEXTEND
1000
ACAD_MTEXT_DEFINED_HEIGHT_BEGIN
1070
    46
1040
9.0
1000
ACAD_MTEXT_DEFINED_HEIGHT_END
  0
MTEXT
  5
9C8
330
6ED
100
AcDbEntity
  8
0
100
AcDbMText
 10
165.4779634407957
 20
128.5
 30
0.0
 40
2.0
 41
3.96018220074299
 71
     5
 72
     5
  1
縮\P尺
 73
     1
 44
1.0
1001
AcDbBlockRepETag
1070
     1
1071
      174
1005
9C8
1001
ACAD
1000
MTEXTBEGIN
1070
    73
1070
     1
1070
    44
1040
1.0
1070
    74
1070
     0
1000
MTEXTEND
1000
ACAD_MTEXT_DEFINED_HEIGHT_BEGIN
1070
    46
1040
9.0
1000
ACAD_MTEXT_DEFINED_HEIGHT_END
  0
LINE
  5
9C9
330
6ED
100
AcDbEntity
  8
0
100
AcDbLine
 10
182.4978723404242
 20
106.0
 30
0.0
 11
182.4978723404242
 21
133.0
 31
0.0
1001
AcDbBlockRepETag
1070
     1
1071
      175
1005
9C9
  0
LINE
  5
9CA
330
6ED
100
AcDbEntity
  8
0
100
AcDbLine
 10
202.4978723404242
 20
106.0
 30
0.0
 11
202.4978723404242
 21
133.0
 31
0.0
1001
AcDbBlockRepETag
1070
     1
1071
      176
1005
9CA
  0
LINE
  5
9CB
330
6ED
100
AcDbEntity
  8
0
100
AcDbLine
 10
234.4978723404242
 20
124.0
 30
0.0
 11
234.4978723404242
 21
133.0
 31
0.0
1001
AcDbBlockRepETag
1070
     1
1071
      194
1005
9CB
  0
MTEXT
  5
9CC
330
6ED
100
AcDbEntity
  8
0
100
AcDbMText
 10
185.4779634407956
 20
119.5
 30
0.0
 40
2.0
 41
3.96018220074299
 71
     5
 72
     5
  1
設\P計
 73
     1
 44
1.0
1001
AcDbBlockRepETag
1070
     1
1071
      177
1005
9CC
1001
ACAD
1000
MTEXTBEGIN
1070
    73
1070
     1
1070
    44
1040
1.0
1070
    74
1070
     0
1000
MTEXTEND
1000
ACAD_MTEXT_DEFINED_HEIGHT_BEGIN
1070
    46
1040
9.0
1000
ACAD_MTEXT_DEFINED_HEIGHT_END
  0
MTEXT
  5
9CD
330
6ED
100
AcDbEntity
  8
0
100
AcDbMText
 10
185.4779634407956
 20
110.5
 30
0.0
 40
2.0
 41
3.96018220074299
 71
     5
 72
     5
  1
製\P図
 73
     1
 44
1.0
1001
AcDbBlockRepETag
1070
     1
1071
      178
1005
9CD
1001
ACAD
1000
MTEXTBEGIN
1070
    73
1070
     1
1070
    44
1040
1.0
1070
    74
1070
     0
1000
MTEXTEND
1000
ACAD_MTEXT_DEFINED_HEIGHT_BEGIN
1070
    46
1040
9.0
1000
ACAD_MTEXT_DEFINED_HEIGHT_END
  0
MTEXT
  5
9CE
330
6ED
100
AcDbEntity
  8
0
100
AcDbMText
 10
205.4779634407957
 20
128.5
 30
0.0
 40
2.0
 41
3.96018220074299
 71
     5
 72
     5
  1
材\P料
 73
     1
 44
1.0
1001
AcDbBlockRepETag
1070
     1
1071
      179
1005
9CE
1001
ACAD
1000
MTEXTBEGIN
1070
    73
1070
     1
1070
    44
1040
1.0
1070
    74
1070
     0
1000
MTEXTEND
1000
ACAD_MTEXT_DEFINED_HEIGHT_BEGIN
1070
    46
1040
9.0
1000
ACAD_MTEXT_DEFINED_HEIGHT_END
  0
LINE
  5
9CF
330
6ED
100
AcDbEntity
  8
0
  6
HIDDEN2
 48
0.5
100
AcDbLine
 10
279.4978723404242
 20
119.5
 30
0.0
 11
202.4978723404242
 21
119.5
 31
0.0
1001
AcDbBlockRepETag
1070
     1
1071
      180
1005
9CF
  0
POINT
  5
9D0
330
6ED
100
AcDbEntity
  8
0
100
AcDbPoint
 10
188.2478723404242
 20
124.0
 30
0.0
1001
AcDbBlockRepETag
1070
     1
1071
      189
1005
9D0
  0
POINT
  5
9D1
330
6ED
100
AcDbEntity
  8
0
100
AcDbPoint
 10
188.2478723404242
 20
115.0
 30
0.0
1001
AcDbBlockRepETag
1070
     1
1071
      190
1005
9D1
  0
ENDBLK
  5
74C
330
6ED
100
AcDbEntity
  8
0
100
AcDbBlockEnd
  0
BLOCK
  5
FEE
330
FED
100
AcDbEntity
  8
0
100
AcDbBlockBegin
  2
*D4
 70
     1
 10
0.0
 20
0.0
 30
0.0
  3
*D4
  1

  0
LINE
  5
FEF
330
FED
100
AcDbEntity
  8
Object
 62
     0
370
    -2
100
AcDbLine
 10
-236.0678237260986
 20
1501.259191341884
 30
0.0
 11
-236.0678237260986
 21
1603.101199955093
 31
0.0
  0
LINE
  5
FF0
330
FED
100
AcDbEntity
  8
Object
 62
     0
370
    -2
100
AcDbLine
 10
-137.0552872530715
 20
1501.259191341884
 30
0.0
 11
-137.0552872530715
 21
1603.101199955093
 31
0.0
  0
LINE
  5
FF1
330
FED
100
AcDbEntity
  8
Object
 62
     0
370
    -2
100
AcDbLine
 10
-232.0678237260986
 20
1602.101199955091
 30
0.0
 11
-141.0552872530715
 21
1602.101199955091
 31
0.0
  0
INSERT
  5
FF2
330
FED
100
AcDbEntity
  8
Object
 62
     0
370
    -2
100
AcDbBlockReference
  2
_Open30
 10
-236.0678237260986
 20
1602.101199955091
 30
0.0
 41
4.0
 42
4.0
 43
4.0
 50
180.0
  0
INSERT
  5
FF3
330
FED
100
AcDbEntity
  8
Object
 62
     0
370
    -2
100
AcDbBlockReference
  2
_Open30
 10
-137.0552872530715
 20
1602.101199955091
 30
0.0
 41
4.0
 42
4.0
 43
4.0
  0
MTEXT
  5
FF4
330
FED
100
AcDbEntity
  8
Object
 62
     0
100
AcDbMText
 10
-186.561555489585
 20
1608.459154500547
 30
0.0
 40
7.5
 41
0.0
 71
     5
 72
     1
  1
\A1;{\fＭＳ Ｐゴシック|b0|i0|c128|p50;外径（ｄ）}
 73
     1
 44
1.0
1001
ACAD
1000
MTEXTBEGIN
1070
    73
1070
     1
1070
    44
1040
1.0
1070
    74
1070
     0
1000
MTEXTEND
  0
POINT
  5
FF5
330
FED
100
AcDbEntity
  8
Defpoints
 62
     0
100
AcDbPoint
 10
-236.0678237260986
 20
1500.259191341885
 30
0.0
  0
POINT
  5
FF6
330
FED
100
AcDbEntity
  8
Defpoints
 62
     0
100
AcDbPoint
 10
-137.0552872530715
 20
1500.259191341885
 30
0.0
  0
POINT
  5
FF7
330
FED
100
AcDbEntity
  8
Defpoints
 62
     0
100
AcDbPoint
 10
-137.0552872530715
 20
1602.101199955091
 30
0.0
  0
ENDBLK
  5
FF8
330
FED
100
AcDbEntity
  8
0
100
AcDbBlockEnd
  0
BLOCK
  5
FFA
330
FF9
100
AcDbEntity
  8
0
100
AcDbBlockBegin
  2
*D5
 70
     1
 10
0.0
 20
0.0
 30
0.0
  3
*D5
  1

  0
LINE
  5
FFB
330
FF9
100
AcDbEntity
  8
Object
 62
     0
370
    -2
100
AcDbLine
 10
-176.4365554895849
 20
1493.101199955092
 30
0.0
 11
-176.4365554895849
 21
1573.101199955092
 31
0.0
  0
LINE
  5
FFC
330
FF9
100
AcDbEntity
  8
Object
 62
     0
370
    -2
100
AcDbLine
 10
-137.0552872530715
 20
1501.259191341884
 30
0.0
 11
-137.0552872530715
 21
1573.101199955092
 31
0.0
  0
LINE
  5
FFD
330
FF9
100
AcDbEntity
  8
Object
 62
     0
370
    -2
100
AcDbLine
 10
-172.4365554895849
 20
1572.101199955092
 30
0.0
 11
-141.0552872530715
 21
1572.101199955092
 31
0.0
  0
INSERT
  5
FFE
330
FF9
100
AcDbEntity
  8
Object
 62
     0
370
    -2
100
AcDbBlockReference
  2
_Open30
 10
-176.4365554895849
 20
1572.101199955092
 30
0.0
 41
4.0
 42
4.0
 43
4.0
 50
180.0
  0
INSERT
  5
FFF
330
FF9
100
AcDbEntity
  8
Object
 62
     0
370
    -2
100
AcDbBlockReference
  2
_Open30
 10
-137.0552872530715
 20
1572.101199955092
 30
0.0
 41
4.0
 42
4.0
 43
4.0
  0
MTEXT
  5
1000
330
FF9
100
AcDbEntity
  8
Object
 62
     0
100
AcDbMText
 10
-156.7459213713282
 20
1584.900915864183
 30
0.0
 40
7.5
 41
0.0
 71
     5
 72
     1
  1
\A1;\P{\fＭＳ Ｐゴシック|b0|i0|c128|p50;カブリ}
 73
     1
 44
1.0
1001
ACAD
1000
MTEXTBEGIN
1070
    73
1070
     1
1070
    44
1040
1.0
1070
    74
1070
     0
1000
MTEXTEND
  0
POINT
  5
1001
330
FF9
100
AcDbEntity
  8
Defpoints
 62
     0
100
AcDbPoint
 10
-176.4365554895849
 20
1492.101199955092
 30
0.0
  0
POINT
  5
1002
330
FF9
100
AcDbEntity
  8
Defpoints
 62
     0
100
AcDbPoint
 10
-137.0552872530715
 20
1500.259191341885
 30
0.0
  0
POINT
  5
1003
330
FF9
100
AcDbEntity
  8
Defpoints
 62
     0
100
AcDbPoint
 10
-137.0552872530715
 20
1572.101199955092
 30
0.0
  0
ENDBLK
  5
1004
330
FF9
100
AcDbEntity
  8
0
100
AcDbBlockEnd
  0
BLOCK
  5
1006
330
1005
100
AcDbEntity
  8
0
100
AcDbBlockBegin
  2
*D6
 70
     1
 10
0.0
 20
0.0
 30
0.0
  3
*D6
  1

  0
LINE
  5
1007
330
1005
100
AcDbEntity
  8
Object
 62
     0
370
    -2
100
AcDbLine
 10
-76.56155548958494
 20
1510.516199955092
 30
0.0
 11
-76.56155548958494
 21
1603.101199955093
 31
0.0
  0
LINE
  5
1008
330
1005
100
AcDbEntity
  8
Object
 62
     0
370
    -2
100
AcDbLine
 10
-47.40155548958513
 20
1510.516199955092
 30
0.0
 11
-47.40155548958511
 21
1603.101199955093
 31
0.0
  0
LINE
  5
1009
330
1005
100
AcDbEntity
  8
Object
 62
     0
370
    -2
100
AcDbLine
 10
-51.40155548958514
 20
1602.101199955091
 30
0.0
 11
-72.56155548958495
 21
1602.101199955091
 31
0.0
  0
LINE
  5
100A
330
1005
100
AcDbEntity
  8
Object
 62
     0
370
    -2
100
AcDbLine
 10
-76.56155548958494
 20
1602.101199955091
 30
0.0
 11
-125.1529096004707
 21
1602.101199955091
 31
0.0
  0
INSERT
  5
100B
330
1005
100
AcDbEntity
  8
Object
 62
     0
370
    -2
100
AcDbBlockReference
  2
_Open30
 10
-47.40155548958511
 20
1602.101199955091
 30
0.0
 41
4.0
 42
4.0
 43
4.0
  0
INSERT
  5
100C
330
1005
100
AcDbEntity
  8
Object
 62
     0
370
    -2
100
AcDbBlockReference
  2
_Open30
 10
-76.56155548958494
 20
1602.101199955091
 30
0.0
 41
4.0
 42
4.0
 43
4.0
 50
180.0
  0
MTEXT
  5
100D
330
1005
100
AcDbEntity
  8
Object
 62
     0
100
AcDbMText
 10
-106.6926823277435
 20
1608.395234046001
 30
0.0
 40
7.5
 41
0.0
 71
     5
 72
     1
  1
\A1;{\fＭＳ Ｐゴシック|b0|i0|c128|p50;厚さ（ａ）}
 73
     1
 44
1.0
1001
ACAD
1000
MTEXTBEGIN
1070
    73
1070
     1
1070
    44
1040
1.0
1070
    74
1070
     0
1000
MTEXTEND
  0
POINT
  5
100E
330
1005
100
AcDbEntity
  8
Defpoints
 62
     0
100
AcDbPoint
 10
-76.56155548958494
 20
1509.516199955092
 30
0.0
  0
POINT
  5
100F
330
1005
100
AcDbEntity
  8
Defpoints
 62
     0
100
AcDbPoint
 10
-47.40155548958513
 20
1509.516199955092
 30
0.0
  0
POINT
  5
1010
330
1005
100
AcDbEntity
  8
Defpoints
 62
     0
100
AcDbPoint
 10
-47.40155548958511
 20
1602.101199955091
 30
0.0
  0
ENDBLK
  5
1011
330
1005
100
AcDbEntity
  8
0
100
AcDbBlockEnd
  0
BLOCK
  5
1013
330
1012
100
AcDbEntity
  8
0
100
AcDbBlockBegin
  2
*D7
 70
     1
 10
0.0
 20
0.0
 30
0.0
  3
*D7
  1

  0
LINE
  5
1014
330
1012
100
AcDbEntity
  8
Object
 62
     0
370
    -2
100
AcDbLine
 10
-70.08155548958486
 20
1543.321199955092
 30
0.0
 11
-70.08155548958486
 21
1573.101199955092
 31
0.0
  0
LINE
  5
1015
330
1012
100
AcDbEntity
  8
Object
 62
     0
370
    -2
100
AcDbLine
 10
-53.88155548958494
 20
1543.321199955092
 30
0.0
 11
-53.88155548958494
 21
1573.101199955092
 31
0.0
  0
LINE
  5
1016
330
1012
100
AcDbEntity
  8
Object
 62
     0
370
    -2
100
AcDbLine
 10
-57.88155548958496
 20
1572.101199955092
 30
0.0
 11
-66.08155548958485
 21
1572.101199955092
 31
0.0
  0
LINE
  5
1017
330
1012
100
AcDbEntity
  8
Object
 62
     0
370
    -2
100
AcDbLine
 10
-70.08155548958486
 20
1572.101199955092
 30
0.0
 11
-124.9517914543667
 21
1572.101199955092
 31
0.0
  0
INSERT
  5
1018
330
1012
100
AcDbEntity
  8
Object
 62
     0
370
    -2
100
AcDbBlockReference
  2
_Open30
 10
-53.88155548958494
 20
1572.101199955092
 30
0.0
 41
4.0
 42
4.0
 43
4.0
  0
INSERT
  5
1019
330
1012
100
AcDbEntity
  8
Object
 62
     0
370
    -2
100
AcDbBlockReference
  2
_Open30
 10
-70.08155548958486
 20
1572.101199955092
 30
0.0
 41
4.0
 42
4.0
 43
4.0
 50
180.0
  0
MTEXT
  5
101A
330
1012
100
AcDbEntity
  8
Object
 62
     0
100
AcDbMText
 10
-106.3424164543667
 20
1578.395234046001
 30
0.0
 40
7.5
 41
0.0
 71
     5
 72
     1
  1
\A1;{\fＭＳ Ｐゴシック|b0|i0|c128|p50;厚さ（ｂ）}
 73
     1
 44
1.0
1001
ACAD
1000
MTEXTBEGIN
1070
    73
1070
     1
1070
    44
1040
1.0
1070
    74
1070
     0
1000
MTEXTEND
  0
POINT
  5
101B
330
1012
100
AcDbEntity
  8
Defpoints
 62
     0
100
AcDbPoint
 10
-70.08155548958486
 20
1542.321199955092
 30
0.0
  0
POINT
  5
101C
330
1012
100
AcDbEntity
  8
Defpoints
 62
     0
100
AcDbPoint
 10
-53.88155548958494
 20
1542.321199955092
 30
0.0
  0
POINT
  5
101D
330
1012
100
AcDbEntity
  8
Defpoints
 62
     0
100
AcDbPoint
 10
-53.88155548958494
 20
1572.101199955092
 30
0.0
  0
ENDBLK
  5
101E
330
1012
100
AcDbEntity
  8
0
100
AcDbBlockEnd
  0
BLOCK
  5
1020
330
101F
100
AcDbEntity
  8
0
100
AcDbBlockBegin
  2
*D8
 70
     1
 10
0.0
 20
0.0
 30
0.0
  3
*D8
  1

  0
LINE
  5
1021
330
101F
100
AcDbEntity
  8
Object
 62
     0
370
    -2
100
AcDbLine
 10
223.5864445104151
 20
1493.101199955092
 30
0.0
 11
223.5864445104151
 21
1603.101199955092
 31
0.0
  0
LINE
  5
1022
330
101F
100
AcDbEntity
  8
Object
 62
     0
370
    -2
100
AcDbLine
 10
323.2904445104152
 20
1493.101199955092
 30
0.0
 11
323.2904445104152
 21
1603.101199955092
 31
0.0
  0
LINE
  5
1023
330
101F
100
AcDbEntity
  8
Object
 62
     0
370
    -2
100
AcDbLine
 10
227.5864445104151
 20
1602.101199955091
 30
0.0
 11
319.2904445104152
 21
1602.101199955091
 31
0.0
  0
INSERT
  5
1024
330
101F
100
AcDbEntity
  8
Object
 62
     0
370
    -2
100
AcDbBlockReference
  2
_Open30
 10
223.5864445104151
 20
1602.101199955091
 30
0.0
 41
4.0
 42
4.0
 43
4.0
 50
180.0
  0
INSERT
  5
1025
330
101F
100
AcDbEntity
  8
Object
 62
     0
370
    -2
100
AcDbBlockReference
  2
_Open30
 10
323.2904445104152
 20
1602.101199955091
 30
0.0
 41
4.0
 42
4.0
 43
4.0
  0
MTEXT
  5
1026
330
101F
100
AcDbEntity
  8
Object
 62
     0
100
AcDbMText
 10
273.4384445104151
 20
1608.459154500547
 30
0.0
 40
7.5
 41
0.0
 71
     5
 72
     1
  1
\A1;{\fＭＳ Ｐゴシック|b0|i0|c128|p50;外径（ｄ）}
 73
     1
 44
1.0
1001
ACAD
1000
MTEXTBEGIN
1070
    73
1070
     1
1070
    44
1040
1.0
1070
    74
1070
     0
1000
MTEXTEND
  0
POINT
  5
1027
330
101F
100
AcDbEntity
  8
Defpoints
 62
     0
100
AcDbPoint
 10
223.5864445104151
 20
1492.101199955092
 30
0.0
  0
POINT
  5
1028
330
101F
100
AcDbEntity
  8
Defpoints
 62
     0
100
AcDbPoint
 10
323.2904445104152
 20
1492.101199955092
 30
0.0
  0
POINT
  5
1029
330
101F
100
AcDbEntity
  8
Defpoints
 62
     0
100
AcDbPoint
 10
323.2904445104152
 20
1602.101199955091
 30
0.0
  0
ENDBLK
  5
102A
330
101F
100
AcDbEntity
  8
0
100
AcDbBlockEnd
  0
BLOCK
  5
102C
330
102B
100
AcDbEntity
  8
0
100
AcDbBlockBegin
  2
*D9
 70
     1
 10
0.0
 20
0.0
 30
0.0
  3
*D9
  1

  0
LINE
  5
102D
330
102B
100
AcDbEntity
  8
Object
 62
     0
370
    -2
100
AcDbLine
 10
383.4384445104151
 20
1542.953199955092
 30
0.0
 11
383.4384445104151
 21
1602.809844561993
 31
0.0
  0
LINE
  5
102E
330
102B
100
AcDbEntity
  8
Object
 62
     0
370
    -2
100
AcDbLine
 10
414.3384445104151
 20
1542.953199955092
 30
0.0
 11
414.3384445104151
 21
1602.809844561993
 31
0.0
  0
LINE
  5
102F
330
102B
100
AcDbEntity
  8
Object
 62
     0
370
    -2
100
AcDbLine
 10
410.3384445104151
 20
1601.809844561993
 30
0.0
 11
387.4384445104151
 21
1601.809844561993
 31
0.0
  0
LINE
  5
1030
330
102B
100
AcDbEntity
  8
Object
 62
     0
370
    -2
100
AcDbLine
 10
383.4384445104151
 20
1601.809844561993
 30
0.0
 11
342.5179899649605
 21
1601.809844561993
 31
0.0
  0
INSERT
  5
1031
330
102B
100
AcDbEntity
  8
Object
 62
     0
370
    -2
100
AcDbBlockReference
  2
_Open30
 10
414.3384445104151
 20
1601.809844561993
 30
0.0
 41
4.0
 42
4.0
 43
4.0
  0
INSERT
  5
1032
330
102B
100
AcDbEntity
  8
Object
 62
     0
370
    -2
100
AcDbBlockReference
  2
_Open30
 10
383.4384445104151
 20
1601.809844561993
 30
0.0
 41
4.0
 42
4.0
 43
4.0
 50
180.0
  0
MTEXT
  5
1033
330
102B
100
AcDbEntity
  8
Object
 62
     0
100
AcDbMText
 10
360.9782172376878
 20
1608.103878652902
 30
0.0
 40
7.5
 41
0.0
 71
     5
 72
     1
  1
\A1;{\fＭＳ Ｐゴシック|b0|i0|c128|p50;厚さ（ａ）}
 73
     1
 44
1.0
1001
ACAD
1000
MTEXTBEGIN
1070
    73
1070
     1
1070
    44
1040
1.0
1070
    74
1070
     0
1000
MTEXTEND
  0
POINT
  5
1034
330
102B
100
AcDbEntity
  8
Defpoints
 62
     0
100
AcDbPoint
 10
383.4384445104151
 20
1541.953199955092
 30
0.0
  0
POINT
  5
1035
330
102B
100
AcDbEntity
  8
Defpoints
 62
     0
100
AcDbPoint
 10
414.3384445104151
 20
1541.953199955092
 30
0.0
  0
POINT
  5
1036
330
102B
100
AcDbEntity
  8
Defpoints
 62
     0
100
AcDbPoint
 10
414.3384445104151
 20
1601.809844561993
 30
0.0
  0
ENDBLK
  5
1037
330
102B
100
AcDbEntity
  8
0
100
AcDbBlockEnd
  0
BLOCK
  5
1039
330
1038
100
AcDbEntity
  8
0
100
AcDbBlockBegin
  2
*D10
 70
     1
 10
0.0
 20
0.0
 30
0.0
  3
*D10
  1

  0
LINE
  5
103A
330
1038
100
AcDbEntity
  8
Object
 62
     0
370
    -2
100
AcDbLine
 10
290.9484445104153
 20
1493.101199955092
 30
0.0
 11
290.9484445104153
 21
1553.616610022545
 31
0.0
  0
LINE
  5
103B
330
1038
100
AcDbEntity
  8
Object
 62
     0
370
    -2
100
AcDbLine
 10
323.2904445104153
 20
1493.101199955092
 30
0.0
 11
323.2904445104153
 21
1553.616610022545
 31
0.0
  0
LINE
  5
103C
330
1038
100
AcDbEntity
  8
Object
 62
     0
370
    -2
100
AcDbLine
 10
294.9484445104154
 20
1552.616610022545
 30
0.0
 11
319.2904445104153
 21
1552.616610022545
 31
0.0
  0
INSERT
  5
103D
330
1038
100
AcDbEntity
  8
Object
 62
     0
370
    -2
100
AcDbBlockReference
  2
_Open30
 10
290.9484445104153
 20
1552.616610022545
 30
0.0
 41
4.0
 42
4.0
 43
4.0
 50
180.0
  0
INSERT
  5
103E
330
1038
100
AcDbEntity
  8
Object
 62
     0
370
    -2
100
AcDbBlockReference
  2
_Open30
 10
323.2904445104153
 20
1552.616610022545
 30
0.0
 41
4.0
 42
4.0
 43
4.0
  0
MTEXT
  5
103F
330
1038
100
AcDbEntity
  8
Object
 62
     0
100
AcDbMText
 10
307.1194445104153
 20
1559.166325931636
 30
0.0
 40
7.5
 41
0.0
 71
     5
 72
     1
  1
\A1;{\fＭＳ Ｐゴシック|b0|i0|c128|p50;カブリ}
 73
     1
 44
1.0
1001
ACAD
1000
MTEXTBEGIN
1070
    73
1070
     1
1070
    44
1040
1.0
1070
    74
1070
     0
1000
MTEXTEND
  0
POINT
  5
1040
330
1038
100
AcDbEntity
  8
Defpoints
 62
     0
100
AcDbPoint
 10
290.9484445104153
 20
1492.101199955092
 30
0.0
  0
POINT
  5
1041
330
1038
100
AcDbEntity
  8
Defpoints
 62
     0
100
AcDbPoint
 10
323.2904445104153
 20
1492.101199955092
 30
0.0
  0
POINT
  5
1042
330
1038
100
AcDbEntity
  8
Defpoints
 62
     0
100
AcDbPoint
 10
323.2904445104153
 20
1552.616610022545
 30
0.0
  0
ENDBLK
  5
1043
330
1038
100
AcDbEntity
  8
0
100
AcDbBlockEnd
  0
BLOCK
  5
112A
330
1044
100
AcDbEntity
  8
0
100
AcDbBlockBegin
  2
A$C73271D1F
 70
     0
 10
0.0
 20
0.0
 30
0.0
  3
A$C73271D1F
  1

  0
ARC
  5
1045
330
1044
100
AcDbEntity
  8
Object
100
AcDbCircle
 10
49.50626785569415
 20
46.7770557557069
 30
0.0
 40
47.78999999999999
100
AcDbArc
 50
313.7940898506292
 51
326.2059101493784
  0
ARC
  5
1046
330
1044
100
AcDbEntity
  8
Object
100
AcDbCircle
 10
49.50626785569415
 20
46.7770557557069
 30
0.0
 40
40.49999999999999
100
AcDbArc
 50
54.1821976988511
 51
90.0
  0
ARC
  5
1047
330
1044
100
AcDbEntity
  8
Object
100
AcDbCircle
 10
49.50626785569415
 20
46.7770557557069
 30
0.0
 40
10.125
100
AcDbArc
 50
346.1134596373704
 51
193.8865403626295
  0
ARC
  5
1048
330
1044
100
AcDbEntity
  8
Object
100
AcDbCircle
 10
49.50626785569415
 20
46.7770557557069
 30
0.0
 40
17.415
100
AcDbArc
 50
351.9790671247573
 51
188.0209328752425
  0
LINE
  5
1049
330
1044
100
AcDbEntity
  8
Object
100
AcDbLine
 10
58.97037932359722
 20
61.39597565845996
 30
0.0
 11
73.50346876233448
 21
75.92906509719703
 31
0.0
  0
LINE
  5
104A
330
1044
100
AcDbEntity
  8
Object
100
AcDbLine
 10
64.12518775844714
 20
56.24116722360986
 30
0.0
 11
78.65827719718446
 21
70.7742566623474
 31
0.0
  0
LINE
  5
104B
330
1044
100
AcDbEntity
  8
Object
100
AcDbLine
 10
53.15126785569415
 20
84.35922273686946
 30
0.0
 11
53.15126785569407
 21
63.8063305494261
 31
0.0
  0
ARC
  5
104C
330
1044
100
AcDbEntity
  8
Object
100
AcDbCircle
 10
49.50626785569415
 20
46.7770557557069
 30
0.0
 40
40.49999999999999
100
AcDbArc
 50
90.0
 51
125.8178023011489
  0
ARC
  5
104D
330
1044
100
AcDbEntity
  8
Object
100
AcDbCircle
 10
49.50626785569415
 20
46.7770557557069
 30
0.0
 40
40.49999999999999
100
AcDbArc
 50
352.6656310757573
 51
35.81780230114532
  0
LINE
  5
104E
330
1044
100
AcDbEntity
  8
Object
100
AcDbLine
 10
65.70626785569425
 20
44.34705575570703
 30
0.0
 11
73.27609818536015
 21
13.98612459938113
 31
0.0
  0
LINE
  5
104F
330
1044
100
AcDbEntity
  8
Object
100
AcDbLine
 10
73.2194412136549
 20
44.34705575570703
 30
0.0
 11
79.4206409119489
 21
19.47540224074146
 31
0.0
  0
ARC
  5
1050
330
1044
100
AcDbEntity
  8
Object
100
AcDbCircle
 10
49.50626785569415
 20
46.7770557557069
 30
0.0
 40
40.49999999999999
100
AcDbArc
 50
317.6145451051316
 51
352.6656310757573
  0
ARC
  5
1051
330
1044
100
AcDbEntity
  8
Object
100
AcDbCircle
 10
49.50626785569415
 20
46.7770557557069
 30
0.0
 40
40.49999999999999
100
AcDbArc
 50
289.8198413333077
 51
305.9379945624823
  0
ARC
  5
1052
330
1044
100
AcDbEntity
  8
Object
100
AcDbCircle
 10
55.58126785569417
 20
84.35922273686946
 30
0.0
 40
2.43
100
AcDbArc
 50
80.81780230114706
 51
180.0
  0
ARC
  5
1053
330
1044
100
AcDbEntity
  8
Object
100
AcDbCircle
 10
71.78519928405117
 20
77.6473345754807
 30
0.0
 40
2.43
100
AcDbArc
 50
315.000000000008
 51
54.1821976988511
  0
ARC
  5
1054
330
1044
100
AcDbEntity
  8
Object
100
AcDbCircle
 10
80.3765466754678
 20
69.05598718406372
 30
0.0
 40
2.43
100
AcDbArc
 50
35.81780230114532
 51
135.000000000008
  0
ARC
  5
1055
330
1044
100
AcDbEntity
  8
Object
100
AcDbCircle
 10
86.87177066242753
 20
54.06705575570686
 30
0.0
 40
2.43
100
AcDbArc
 50
270.0
 51
11.03971441403837
  0
ARC
  5
1056
330
1044
100
AcDbEntity
  8
Object
100
AcDbCircle
 10
87.26478080310767
 20
41.91705575570722
 30
0.0
 40
2.43
100
AcDbArc
 50
352.6656310757573
 51
90.0
  0
LINE
  5
1057
330
1044
100
AcDbEntity
  8
Object
100
AcDbLine
 10
52.08664644303195
 20
36.98638308494492
 30
0.0
 11
65.74639054362363
 21
2.309102468664605
 31
0.0
  0
LINE
  5
1058
330
1044
100
AcDbEntity
  8
Object
100
AcDbLine
 10
58.14523865752261
 20
41.49654361339026
 30
0.0
 11
69.85800245173834
 21
11.76196045479173
 31
0.0
  0
LINE
  5
1059
330
1044
100
AcDbEntity
  8
Object
100
AcDbLine
 10
59.33534334629854
 20
44.34705575570703
 30
0.0
 11
87.26478080310767
 21
44.34705575570703
 31
0.0
  0
ARC
  5
105A
330
1044
100
AcDbEntity
  8
Object
100
AcDbCircle
 10
49.50626785569415
 20
46.7770557557069
 30
0.0
 40
10.125
100
AcDbArc
 50
284.7648278509679
 51
328.5649244997035
  0
LINE
  5
105B
330
1044
100
AcDbEntity
  8
Object
100
AcDbLine
 10
66.22938434156485
 20
51.63705575570657
 30
0.0
 11
86.87177066242753
 21
51.63705575570657
 31
0.0
  0
ARC
  5
105C
330
1044
100
AcDbEntity
  8
Object
100
AcDbCircle
 10
79.7044297587677
 20
10.78828781797756
 30
0.0
 40
3.24
100
AcDbArc
 50
232.5723593422679
 51
27.42764065773093
  0
ARC
  5
105D
330
1044
100
AcDbEntity
  8
Object
100
AcDbCircle
 10
90.19214132548702
 20
23.28705575570666
 30
0.0
 40
3.24
100
AcDbArc
 50
252.5723593422668
 51
47.42764065772903
  0
ARC
  5
105E
330
1044
100
AcDbEntity
  8
Object
100
AcDbCircle
 10
95.77253609220756
 20
38.61906436891468
 30
0.0
 40
3.24
100
AcDbArc
 50
272.5723593422631
 51
67.42764065773264
  0
ARC
  5
105F
330
1044
100
AcDbEntity
  8
Object
100
AcDbCircle
 10
95.77253609220756
 20
54.93504714249912
 30
0.0
 40
3.24
100
AcDbArc
 50
292.5723593422659
 51
87.42764065773362
  0
ARC
  5
1060
330
1044
100
AcDbEntity
  8
Object
100
AcDbCircle
 10
90.19214132548679
 20
70.26705575570713
 30
0.0
 40
3.24
100
AcDbArc
 50
312.572359342271
 51
107.4276406577331
  0
ARC
  5
1061
330
1044
100
AcDbEntity
  8
Object
100
AcDbCircle
 10
79.7044297587677
 20
82.76582369343623
 30
0.0
 40
3.24
100
AcDbArc
 50
332.5723593422683
 51
127.4276406577319
  0
ARC
  5
1062
330
1044
100
AcDbEntity
  8
Object
100
AcDbCircle
 10
65.57437418913392
 20
90.92381508022844
 30
0.0
 40
3.24
100
AcDbArc
 50
352.5723593422716
 51
147.427640657726
  0
ARC
  5
1063
330
1044
100
AcDbEntity
  8
Object
100
AcDbCircle
 10
49.50626785569406
 20
93.75705575570648
 30
0.0
 40
3.24
100
AcDbArc
 50
12.57235934226009
 51
167.4276406577399
  0
ARC
  5
1064
330
1044
100
AcDbEntity
  8
Object
100
AcDbCircle
 10
33.43816152225418
 20
90.92381508022844
 30
0.0
 40
3.24
100
AcDbArc
 50
32.57235934225858
 51
187.4276406577283
  0
ARC
  5
1065
330
1044
100
AcDbEntity
  8
Object
100
AcDbCircle
 10
19.30810595262039
 20
82.76582369343623
 30
0.0
 40
3.24
100
AcDbArc
 50
52.57235934226804
 51
207.4276406577309
  0
ARC
  5
1066
330
1044
100
AcDbEntity
  8
Object
100
AcDbCircle
 10
8.820394385901007
 20
70.26705575570668
 30
0.0
 40
3.24
100
AcDbArc
 50
72.57235934226685
 51
227.427640657729
  0
ARC
  5
1067
330
1044
100
AcDbEntity
  8
Object
100
AcDbCircle
 10
3.23999961918048
 20
54.93504714249912
 30
0.0
 40
3.24
100
AcDbArc
 50
92.57235934226306
 51
247.4276406577327
  0
ARC
  5
1068
330
1044
100
AcDbEntity
  8
Object
100
AcDbCircle
 10
3.239999619180621
 20
38.61906436891468
 30
0.0
 40
3.24
100
AcDbArc
 50
112.5723593422673
 51
267.4276406577337
  0
ARC
  5
1069
330
1044
100
AcDbEntity
  8
Object
100
AcDbCircle
 10
8.820394385901209
 20
23.28705575570666
 30
0.0
 40
3.24
100
AcDbArc
 50
132.5723593422709
 51
287.4276406577331
  0
ARC
  5
106A
330
1044
100
AcDbEntity
  8
Object
100
AcDbCircle
 10
19.30810595262059
 20
10.7882878179771
 30
0.0
 40
3.24
100
AcDbArc
 50
152.5723593422683
 51
307.427640657732
  0
ARC
  5
106B
330
1044
100
AcDbEntity
  8
Object
100
AcDbCircle
 10
49.50626785569415
 20
46.7770557557069
 30
0.0
 40
47.78999999999999
100
AcDbArc
 50
213.7940898506215
 51
226.2059101493708
  0
ARC
  5
106C
330
1044
100
AcDbEntity
  8
Object
100
AcDbCircle
 10
49.50626785569415
 20
46.7770557557069
 30
0.0
 40
47.78999999999999
100
AcDbArc
 50
193.7940898506359
 51
206.205910149363
  0
ARC
  5
106D
330
1044
100
AcDbEntity
  8
Object
100
AcDbCircle
 10
49.50626785569415
 20
46.7770557557069
 30
0.0
 40
47.78999999999999
100
AcDbArc
 50
173.7940898506357
 51
186.2059101493643
  0
ARC
  5
106E
330
1044
100
AcDbEntity
  8
Object
100
AcDbCircle
 10
49.50626785569415
 20
46.7770557557069
 30
0.0
 40
47.78999999999999
100
AcDbArc
 50
153.794089850637
 51
166.2059101493775
  0
ARC
  5
106F
330
1044
100
AcDbEntity
  8
Object
100
AcDbCircle
 10
49.50626785569415
 20
46.7770557557069
 30
0.0
 40
47.78999999999999
100
AcDbArc
 50
133.7940898506292
 51
146.2059101493784
  0
ARC
  5
1070
330
1044
100
AcDbEntity
  8
Object
100
AcDbCircle
 10
49.50626785569415
 20
46.7770557557069
 30
0.0
 40
47.78999999999999
100
AcDbArc
 50
113.7940898506285
 51
126.205910149365
  0
ARC
  5
1071
330
1044
100
AcDbEntity
  8
Object
100
AcDbCircle
 10
49.50626785569415
 20
46.7770557557069
 30
0.0
 40
47.78999999999999
100
AcDbArc
 50
93.7940898506296
 51
106.2059101493675
  0
ARC
  5
1072
330
1044
100
AcDbEntity
  8
Object
100
AcDbCircle
 10
49.50626785569415
 20
46.7770557557069
 30
0.0
 40
47.78999999999999
100
AcDbArc
 50
73.79408985063243
 51
86.20591014937039
  0
ARC
  5
1073
330
1044
100
AcDbEntity
  8
Object
100
AcDbCircle
 10
49.50626785569415
 20
46.7770557557069
 30
0.0
 40
47.78999999999999
100
AcDbArc
 50
53.79408985063498
 51
66.20591014937152
  0
ARC
  5
1074
330
1044
100
AcDbEntity
  8
Object
100
AcDbCircle
 10
49.50626785569415
 20
46.7770557557069
 30
0.0
 40
47.78999999999999
100
AcDbArc
 50
33.79408985062152
 51
46.20591014937074
  0
ARC
  5
1075
330
1044
100
AcDbEntity
  8
Object
100
AcDbCircle
 10
49.50626785569415
 20
46.7770557557069
 30
0.0
 40
47.78999999999999
100
AcDbArc
 50
13.79408985062247
 51
26.20591014936297
  0
ARC
  5
1076
330
1044
100
AcDbEntity
  8
Object
100
AcDbCircle
 10
49.50626785569415
 20
46.7770557557069
 30
0.0
 40
47.78999999999999
100
AcDbArc
 50
353.7940898506357
 51
6.205910149364329
  0
ARC
  5
1077
330
1044
100
AcDbEntity
  8
Object
100
AcDbCircle
 10
49.50626785569415
 20
46.7770557557069
 30
0.0
 40
47.78999999999999
100
AcDbArc
 50
333.794089850637
 51
346.2059101493641
  0
LINE
  5
1078
330
1044
100
AcDbEntity
  8
Object
100
AcDbLine
 10
45.86126785569399
 20
84.35922273686946
 30
0.0
 11
45.86126785569404
 21
63.8063305494261
 31
0.0
  0
ARC
  5
1079
330
1044
100
AcDbEntity
  8
Object
100
AcDbCircle
 10
43.43126785569396
 20
84.35922273686946
 30
0.0
 40
2.43
100
AcDbArc
 50
0.0
 51
99.18219769885292
  0
LINE
  5
107A
330
1044
100
AcDbEntity
  8
Object
100
AcDbLine
 10
40.04215638779089
 20
61.39597565845996
 30
0.0
 11
25.50906694905362
 21
75.92906509719703
 31
0.0
  0
ARC
  5
107B
330
1044
100
AcDbEntity
  8
Object
100
AcDbCircle
 10
27.22733642733698
 20
77.6473345754807
 30
0.0
 40
2.43
100
AcDbArc
 50
125.8178023011489
 51
224.9999999999919
  0
ARC
  5
107C
330
1044
100
AcDbEntity
  8
Object
100
AcDbCircle
 10
18.63598903592034
 20
69.05598718406372
 30
0.0
 40
2.43
100
AcDbArc
 50
44.99999999999194
 51
144.1821976988546
  0
LINE
  5
107D
330
1044
100
AcDbEntity
  8
Object
100
AcDbLine
 10
34.88734795294102
 20
56.24116722360986
 30
0.0
 11
20.35425851420365
 21
70.7742566623474
 31
0.0
  0
LINE
  5
107E
330
1044
100
AcDbEntity
  8
Object
100
AcDbLine
 10
32.78315136982332
 20
51.63705575570657
 30
0.0
 11
12.14076504896059
 21
51.63705575570657
 31
0.0
  0
ARC
  5
107F
330
1044
100
AcDbEntity
  8
Object
100
AcDbCircle
 10
12.14076504896059
 20
54.06705575570686
 30
0.0
 40
2.43
100
AcDbArc
 50
168.9602855859616
 51
270.0
  0
ARC
  5
1080
330
1044
100
AcDbEntity
  8
Object
100
AcDbCircle
 10
11.7477549082804
 20
41.91705575570722
 30
0.0
 40
2.43
100
AcDbArc
 50
90.0
 51
187.3343689242427
  0
LINE
  5
1081
330
1044
100
AcDbEntity
  8
Object
100
AcDbLine
 10
25.79309449773319
 20
44.34705575570703
 30
0.0
 11
19.59189479943919
 21
19.47540224074146
 31
0.0
  0
LINE
  5
1082
330
1044
100
AcDbEntity
  8
Object
100
AcDbLine
 10
33.3062678556939
 20
44.34705575570703
 30
0.0
 11
25.73643752602794
 21
13.98612459938113
 31
0.0
  0
ARC
  5
1083
330
1044
100
AcDbEntity
  8
Object
100
AcDbCircle
 10
49.50626785569395
 20
46.7770557557069
 30
0.0
 40
10.125
100
AcDbArc
 50
211.4350755002965
 51
255.2351721490321
  0
LINE
  5
1084
330
1044
100
AcDbEntity
  8
Object
100
AcDbLine
 10
40.86729705386553
 20
41.49654361339026
 30
0.0
 11
29.15453325964978
 21
11.76196045479173
 31
0.0
  0
LINE
  5
1085
330
1044
100
AcDbEntity
  8
Object
100
AcDbLine
 10
46.92588926835614
 20
36.98638308494492
 30
0.0
 11
33.26614516776454
 21
2.309102468664605
 31
0.0
  0
LINE
  5
1086
330
1044
100
AcDbEntity
  8
Object
100
AcDbLine
 10
39.67719236508955
 20
44.34705575570703
 30
0.0
 11
11.7477549082804
 21
44.34705575570703
 31
0.0
  0
ARC
  5
1087
330
1044
100
AcDbEntity
  8
Object
100
AcDbCircle
 10
49.50626785569415
 20
46.7770557557069
 30
0.0
 40
40.49999999999999
100
AcDbArc
 50
234.0620054375177
 51
250.1801586666923
  0
ARC
  5
1088
330
1044
100
AcDbEntity
  8
Object
100
AcDbCircle
 10
49.50626785569415
 20
46.7770557557069
 30
0.0
 40
40.49999999999999
100
AcDbArc
 50
144.1821976988546
 51
222.3854548948683
  0
ARC
  5
1089
330
1044
100
AcDbEntity
  8
Object
100
AcDbCircle
 10
69.13776257891822
 20
3.644999440075022
 30
0.0
 40
3.645
100
AcDbArc
 50
201.4999999999982
 51
20.35130538008116
  0
ARC
  5
108A
330
1044
100
AcDbEntity
  8
Object
100
AcDbCircle
 10
49.50626785569415
 20
46.7770557557069
 30
0.0
 40
47.78999999999999
100
AcDbArc
 50
298.835520240128
 51
306.205910149365
  0
ARC
  5
108B
330
1044
100
AcDbEntity
  8
Object
100
AcDbCircle
 10
29.87477313247007
 20
3.644999440075022
 30
0.0
 40
3.645
100
AcDbArc
 50
159.6486946199188
 51
338.5000000000018
  0
ARC
  5
108C
330
1044
100
AcDbEntity
  8
Object
100
AcDbCircle
 10
49.50626785569395
 20
46.7770557557069
 30
0.0
 40
47.78999999999999
100
AcDbArc
 50
233.794089850635
 51
241.1644797598706
  0
LINE
  5
108D
330
1044
100
AcDbEntity
  8
Object
100
AcDbLine
 10
159.5062678556941
 20
64.19205575570686
 30
0.0
 11
159.5062678556941
 21
44.34705575570703
 31
0.0
  0
LINE
  5
108E
330
1044
100
AcDbEntity
  8
Object
100
AcDbLine
 10
165.986267855694
 20
96.99705575570623
 30
0.0
 11
165.9862678556941
 21
-0.0000005599249562
 31
0.0
  0
LINE
  5
108F
330
1044
100
AcDbEntity
  8
Object
100
AcDbLine
 10
182.1862678556941
 20
96.99705575570623
 30
0.0
 11
182.1862678556941
 21
-0.0000005599249562
 31
0.0
  0
LINE
  5
1090
330
1044
100
AcDbEntity
  8
Object
100
AcDbLine
 10
165.9862678556941
 20
96.99705575570623
 30
0.0
 11
182.186267855694
 21
96.99705575570623
 31
0.0
  0
LINE
  5
1091
330
1044
100
AcDbEntity
  8
Object
100
AcDbLine
 10
165.9862678556941
 20
-0.0000005599249562
 30
0.0
 11
182.1862678556941
 21
-0.0000005599249562
 31
0.0
  0
LINE
  5
1092
330
1044
100
AcDbEntity
  8
Object
100
AcDbLine
 10
165.9862678556941
 20
64.19205575570686
 30
0.0
 11
182.1862678556941
 21
64.19205575570686
 31
0.0
  0
LINE
  5
1093
330
1044
100
AcDbEntity
  8
Object
100
AcDbLine
 10
159.5062678556941
 20
44.34705575570703
 30
0.0
 11
188.6662678556941
 21
44.34705575570703
 31
0.0
  0
LINE
  5
1094
330
1044
100
AcDbEntity
  8
Object
100
AcDbLine
 10
165.9862678556941
 20
87.2770557557069
 30
0.0
 11
182.1862678556939
 21
87.2770557557069
 31
0.0
  0
LINE
  5
1095
330
1044
100
AcDbEntity
  8
Object
100
AcDbLine
 10
165.9862678556941
 20
87.2770557557069
 30
0.0
 11
159.5062678556941
 21
64.19205575570686
 31
0.0
  0
LINE
  5
1096
330
1044
100
AcDbEntity
  8
Object
100
AcDbLine
 10
165.986267855694
 20
94.46231437639651
 30
0.0
 11
182.186267855694
 21
94.46231437639651
 31
0.0
  0
LINE
  5
1097
330
1044
100
AcDbEntity
  8
Object
100
AcDbLine
 10
165.9862678556941
 20
94.16381508022869
 30
0.0
 11
182.186267855694
 21
94.16381508022869
 31
0.0
  0
LINE
  5
1098
330
1044
100
AcDbEntity
  8
Object
100
AcDbLine
 10
165.9862678556941
 20
90.50496737189131
 30
0.0
 11
182.186267855694
 21
90.50496737189131
 31
0.0
  0
LINE
  5
1099
330
1044
100
AcDbEntity
  8
Object
100
AcDbLine
 10
165.9862678556941
 20
86.00582369343646
 30
0.0
 11
182.1862678556941
 21
86.00582369343646
 31
0.0
  0
LINE
  5
109A
330
1044
100
AcDbEntity
  8
Object
100
AcDbLine
 10
165.986267855694
 20
81.27338887123142
 30
0.0
 11
182.1862678556941
 21
81.27338887123142
 31
0.0
  0
LINE
  5
109B
330
1044
100
AcDbEntity
  8
Object
100
AcDbLine
 10
165.9862678556941
 20
73.50705575570692
 30
0.0
 11
182.186267855694
 21
73.50705575570692
 31
0.0
  0
LINE
  5
109C
330
1044
100
AcDbEntity
  8
Object
100
AcDbLine
 10
165.9862678556941
 20
67.88104348518435
 30
0.0
 11
182.1862678556941
 21
67.88104348518435
 31
0.0
  0
LINE
  5
109D
330
1044
100
AcDbEntity
  8
Object
100
AcDbLine
 10
165.9862678556941
 20
58.1717823162571
 30
0.0
 11
182.1862678556941
 21
58.1717823162571
 31
0.0
  0
LINE
  5
109E
330
1044
100
AcDbEntity
  8
Object
100
AcDbLine
 10
165.9862678556941
 20
51.94324571727475
 30
0.0
 11
182.186267855694
 21
51.94324571727475
 31
0.0
  0
LINE
  5
109F
330
1044
100
AcDbEntity
  8
Object
100
AcDbLine
 10
165.9862678556941
 20
41.61086579413903
 30
0.0
 11
182.1862678556941
 21
41.61086579413903
 31
0.0
  0
LINE
  5
10A0
330
1044
100
AcDbEntity
  8
Object
100
AcDbLine
 10
165.9862678556941
 20
35.38232919515667
 30
0.0
 11
182.186267855694
 21
35.38232919515667
 31
0.0
  0
LINE
  5
10A1
330
1044
100
AcDbEntity
  8
Object
100
AcDbLine
 10
165.986267855694
 20
25.67306802622943
 30
0.0
 11
182.186267855694
 21
25.67306802622943
 31
0.0
  0
LINE
  5
10A2
330
1044
100
AcDbEntity
  8
Object
100
AcDbLine
 10
165.9862678556941
 20
20.04705575570688
 30
0.0
 11
182.186267855694
 21
20.04705575570688
 31
0.0
  0
LINE
  5
10A3
330
1044
100
AcDbEntity
  8
Object
100
AcDbLine
 10
165.9862678556941
 20
12.28072264018237
 30
0.0
 11
182.1862678556941
 21
12.28072264018237
 31
0.0
  0
LINE
  5
10A4
330
1044
100
AcDbEntity
  8
Object
100
AcDbLine
 10
165.9862678556941
 20
7.54828781797687
 30
0.0
 11
182.186267855694
 21
7.54828781797687
 31
0.0
  0
LINE
  5
10A5
330
1044
100
AcDbEntity
  8
Object
100
AcDbLine
 10
165.9862678556941
 20
4.912640565160471
 30
0.0
 11
182.1862678556942
 21
4.912640565160471
 31
0.0
  0
LINE
  5
10A6
330
1044
100
AcDbEntity
  8
Object
100
AcDbLine
 10
159.5062678556941
 20
41.49654361339026
 30
0.0
 11
165.9862678556941
 21
41.49654361339026
 31
0.0
  0
LINE
  5
10A7
330
1044
100
AcDbEntity
  8
Object
100
AcDbLine
 10
159.5062678556941
 20
41.49654361339026
 30
0.0
 11
165.9862678556941
 21
11.76196045479173
 31
0.0
  0
LINE
  5
10A8
330
1044
100
AcDbEntity
  8
Object
100
AcDbLine
 10
159.5062678556941
 20
36.98638308494492
 30
0.0
 11
165.9862678556941
 21
8.676137701225798
 31
0.0
  0
LINE
  5
10A9
330
1044
100
AcDbEntity
  8
Object
100
AcDbLine
 10
159.5062678556941
 20
41.4965436133898
 30
0.0
 11
159.5062678556941
 21
36.98638308494537
 31
0.0
  0
LINE
  5
10AA
330
1044
100
AcDbEntity
  8
Object
100
AcDbLine
 10
159.5062678556943
 20
51.63705575570657
 30
0.0
 11
165.9862678556941
 21
51.63705575570657
 31
0.0
  0
LINE
  5
10AB
330
1044
100
AcDbEntity
  8
Object
100
AcDbLine
 10
188.6662678556939
 20
64.19205575570686
 30
0.0
 11
188.6662678556939
 21
44.34705575570703
 31
0.0
  0
LINE
  5
10AC
330
1044
100
AcDbEntity
  8
Object
100
AcDbLine
 10
188.6662678556939
 20
36.98638308494492
 30
0.0
 11
182.186267855694
 21
8.676137701225798
 31
0.0
  0
LINE
  5
10AD
330
1044
100
AcDbEntity
  8
Object
100
AcDbLine
 10
188.6662678556939
 20
41.49654361339026
 30
0.0
 11
182.186267855694
 21
11.76196045479173
 31
0.0
  0
LINE
  5
10AE
330
1044
100
AcDbEntity
  8
Object
100
AcDbLine
 10
188.6662678556938
 20
41.49654361339026
 30
0.0
 11
182.1862678556939
 21
41.49654361339026
 31
0.0
  0
LINE
  5
10AF
330
1044
100
AcDbEntity
  8
Object
100
AcDbLine
 10
188.6662678556939
 20
41.49654361339026
 30
0.0
 11
188.6662678556939
 21
36.98638308494537
 31
0.0
  0
LINE
  5
10B0
330
1044
100
AcDbEntity
  8
Object
100
AcDbLine
 10
182.1862678556938
 20
87.2770557557069
 30
0.0
 11
188.6662678556939
 21
64.19205575570686
 31
0.0
  0
LINE
  5
10B1
330
1044
100
AcDbEntity
  8
Object
100
AcDbLine
 10
188.6662678556937
 20
51.63705575570657
 30
0.0
 11
182.1862678556939
 21
51.63705575570657
 31
0.0
  0
ARC
  5
10B2
330
1044
100
AcDbEntity
  8
Object
100
AcDbCircle
 10
69.35435835715228
 20
19.67079977716048
 30
0.0
 40
2.43
100
AcDbArc
 50
201.4999999999982
 51
14.00000000000317
  0
ARC
  5
10B3
330
1044
100
AcDbEntity
  8
Object
100
AcDbCircle
 10
29.65817735423588
 20
19.67079977715957
 30
0.0
 40
2.43
100
AcDbArc
 50
165.9999999999968
 51
338.5000000000018
  0
DIMENSION
  5
10B4
330
1044
100
AcDbEntity
  8
Object
100
AcDbDimension
  2
*D4
 10
99.01253609220757
 20
156.7770557557071
 30
0.0
 11
49.50626785569401
 21
163.1350103011616
 31
0.0
 12
236.0678233452791
 22
-1445.324144199385
 32
0.0
  1
{\fＭＳ Ｐゴシック|b0|i0|c128|p50;外径（ｄ）}
 71
     5
 42
99.01253647302716
  3
JIS
100
AcDbAlignedDimension
 13
-0.0000003808195572
 23
54.93504714249912
 33
0.0
 14
99.01253609220757
 24
54.93504714249912
 34
0.0
100
AcDbRotatedDimension
1001
ACAD
1000
DSTYLE
1002
{
1070
   147
1040
1.5
1070
   140
1040
7.5
1002
}
  0
DIMENSION
  5
10B5
330
1044
100
AcDbEntity
  8
Object
100
AcDbDimension
  2
*D5
 10
99.01253609220757
 20
126.7770557557071
 30
0.0
 11
79.32190197395084
 21
139.5767716647981
 31
0.0
 12
236.0678233452791
 22
-1445.324144199385
 32
0.0
  1
\P{\fＭＳ Ｐゴシック|b0|i0|c128|p50;カブリ}
 71
     5
 42
39.38126823651342
  3
JIS
100
AcDbAlignedDimension
 13
59.63126785569414
 23
46.7770557557069
 33
0.0
 14
99.01253609220757
 24
54.93504714249912
 34
0.0
100
AcDbRotatedDimension
1001
ACAD
1000
DSTYLE
1002
{
1070
   147
1040
1.5
1070
   140
1040
7.5
1002
}
  0
DIMENSION
  5
10B6
330
1044
100
AcDbEntity
  8
Object
100
AcDbDimension
  2
*D6
 10
188.6662678556939
 20
156.7770557557071
 30
0.0
 11
129.3751410175356
 21
156.7770557557071
 31
0.0
 12
236.0678233452791
 22
-1445.324144199385
 32
0.0
 70
   128
  1
{\fＭＳ Ｐゴシック|b0|i0|c128|p50;厚さ（ａ）}
 71
     5
 42
29.15999999999981
  3
JIS
100
AcDbAlignedDimension
 13
159.5062678556941
 23
64.19205575570686
 33
0.0
 14
188.6662678556939
 24
64.19205575570686
 34
0.0
100
AcDbRotatedDimension
1001
ACAD
1000
DSTYLE
1002
{
1070
   147
1040
1.5
1070
   140
1040
7.5
1002
}
  0
DIMENSION
  5
10B7
330
1044
100
AcDbEntity
  8
Object
100
AcDbDimension
  2
*D7
 10
182.1862678556941
 20
126.7770557557071
 30
0.0
 11
129.7254068909123
 21
126.7770557557071
 31
0.0
 12
236.0678233452791
 22
-1445.324144199385
 32
0.0
 70
   128
  1
{\fＭＳ Ｐゴシック|b0|i0|c128|p50;厚さ（ｂ）}
 71
     5
 42
16.19999999999991
  3
JIS
100
AcDbAlignedDimension
 13
165.9862678556941
 23
96.99705575570623
 33
0.0
 14
182.1862678556941
 24
96.99705575570623
 34
0.0
100
AcDbRotatedDimension
1001
ACAD
1000
DSTYLE
1002
{
1070
   147
1040
1.5
1070
   140
1040
7.5
1002
}
  0
ARC
  5
10B8
330
1044
100
AcDbEntity
  8
Object
100
AcDbCircle
 10
509.5062678556941
 20
46.7770557557069
 30
0.0
 40
48.20399999999999
100
AcDbArc
 50
91.95892547816134
 51
106.0410745218389
  0
ARC
  5
10B9
330
1044
100
AcDbEntity
  8
Object
100
AcDbCircle
 10
509.5062678556941
 20
46.7770557557069
 30
0.0
 40
42.22999999999998
100
AcDbArc
 50
93.49581363239023
 51
131.5041863676056
  0
ARC
  5
10BA
330
1044
100
AcDbEntity
  8
Object
100
AcDbCircle
 10
509.5062678556941
 20
46.7770557557069
 30
0.0
 40
19.57
100
AcDbArc
 50
292.4391568233262
 51
307.5608431766769
  0
ARC
  5
10BB
330
1044
100
AcDbEntity
  8
Object
100
AcDbCircle
 10
509.5062678556941
 20
46.7770557557069
 30
0.0
 40
26.265
100
AcDbArc
 50
95.62627094610391
 51
129.3737290538868
  0
ARC
  5
10BC
330
1044
100
AcDbEntity
  8
Object
100
AcDbCircle
 10
509.5062678556941
 20
94.98105575570708
 30
0.0
 40
1.647999999999994
100
AcDbArc
 50
359.0205372609195
 51
180.9794627390805
  0
ARC
  5
10BD
330
1044
100
AcDbEntity
  8
Object
100
AcDbCircle
 10
494.6104126588442
 20
92.6217840671984
 30
0.0
 40
1.647999999999994
100
AcDbArc
 50
17.02053726092254
 51
198.9794627390777
  0
ARC
  5
10BE
330
1044
100
AcDbEntity
  8
Object
100
AcDbCircle
 10
481.1726675541875
 20
85.77491095255664
 30
0.0
 40
1.647999999999994
100
AcDbArc
 50
35.02053726091162
 51
216.9794627390771
  0
ARC
  5
10BF
330
1044
100
AcDbEntity
  8
Object
100
AcDbCircle
 10
470.5084126588441
 20
75.11065605721319
 30
0.0
 40
1.647999999999994
100
AcDbArc
 50
53.02053726091415
 51
234.9794627390775
  0
ARC
  5
10C0
330
1044
100
AcDbEntity
  8
Object
100
AcDbCircle
 10
463.6615395442026
 20
61.672910952557
 30
0.0
 40
1.647999999999994
100
AcDbArc
 50
71.02053726092022
 51
252.9794627390776
  0
ARC
  5
10C1
330
1044
100
AcDbEntity
  8
Object
100
AcDbCircle
 10
461.3022678556942
 20
46.7770557557069
 30
0.0
 40
1.647999999999994
100
AcDbArc
 50
89.02053726091628
 51
270.9794627390837
  0
ARC
  5
10C2
330
1044
100
AcDbEntity
  8
Object
100
AcDbCircle
 10
463.6615395442026
 20
31.88120055885702
 30
0.0
 40
1.647999999999994
100
AcDbArc
 50
107.0205372609208
 51
288.9794627390798
  0
ARC
  5
10C3
330
1044
100
AcDbEntity
  8
Object
100
AcDbCircle
 10
470.5084126588443
 20
18.4434554542006
 30
0.0
 40
1.647999999999994
100
AcDbArc
 50
125.0205372609252
 51
306.9794627390897
  0
ARC
  5
10C4
330
1044
100
AcDbEntity
  8
Object
100
AcDbCircle
 10
548.5041230525442
 20
18.4434554542006
 30
0.0
 40
1.647999999999994
100
AcDbArc
 50
233.0205372609142
 51
54.97946273907743
  0
ARC
  5
10C5
330
1044
100
AcDbEntity
  8
Object
100
AcDbCircle
 10
555.3509961671855
 20
31.88120055885702
 30
0.0
 40
1.647999999999994
100
AcDbArc
 50
251.0205372609202
 51
72.97946273907759
  0
ARC
  5
10C6
330
1044
100
AcDbEntity
  8
Object
100
AcDbCircle
 10
557.7102678556941
 20
46.7770557557069
 30
0.0
 40
1.647999999999994
100
AcDbArc
 50
269.0205372609162
 51
90.97946273908048
  0
ARC
  5
10C7
330
1044
100
AcDbEntity
  8
Object
100
AcDbCircle
 10
555.3509961671855
 20
61.672910952557
 30
0.0
 40
1.647999999999994
100
AcDbArc
 50
287.0205372609209
 51
108.9794627390797
  0
ARC
  5
10C8
330
1044
100
AcDbEntity
  8
Object
100
AcDbCircle
 10
548.5041230525442
 20
75.11065605721319
 30
0.0
 40
1.647999999999994
100
AcDbArc
 50
305.0205372609253
 51
126.9794627390897
  0
ARC
  5
10C9
330
1044
100
AcDbEntity
  8
Object
100
AcDbCircle
 10
537.8398681572003
 20
85.77491095255709
 30
0.0
 40
1.647999999999994
100
AcDbArc
 50
323.0205372609229
 51
144.9794627390883
  0
ARC
  5
10CA
330
1044
100
AcDbEntity
  8
Object
100
AcDbCircle
 10
524.4021230525437
 20
92.6217840671984
 30
0.0
 40
1.647999999999994
100
AcDbArc
 50
341.0205372609222
 51
162.9794627390774
  0
LINE
  5
10CB
330
1044
100
AcDbEntity
  8
Object
100
AcDbLine
 10
512.0812678556941
 20
88.92847655026617
 30
0.0
 11
512.0812678556942
 21
72.91552548903315
 31
0.0
  0
LINE
  5
10CC
330
1044
100
AcDbEntity
  8
Object
100
AcDbLine
 10
506.9312678556941
 20
88.92847655026617
 30
0.0
 11
506.9312678556942
 21
72.91552548903315
 31
0.0
  0
LINE
  5
10CD
330
1044
100
AcDbEntity
  8
Object
100
AcDbLine
 10
481.5215123367691
 20
78.40341119774301
 30
0.0
 11
492.8443786189752
 21
67.08054491553662
 31
0.0
  0
LINE
  5
10CE
330
1044
100
AcDbEntity
  8
Object
100
AcDbLine
 10
477.8799124136583
 20
74.76181127463224
 30
0.0
 11
489.2027786958646
 21
63.43894499242583
 31
0.0
  0
LINE
  5
10CF
330
1044
100
AcDbEntity
  8
Object
100
AcDbLine
 10
529.8015025485121
 20
63.4489984668437
 30
0.0
 11
541.11875967272
 21
74.7774711297411
 31
0.0
  0
ARC
  5
10D0
330
1044
100
AcDbEntity
  8
Object
100
AcDbCircle
 10
509.5062678556941
 20
46.7770557557069
 30
0.0
 40
42.22999999999998
100
AcDbArc
 50
138.4958136323956
 51
191.5041863676053
  0
ARC
  5
10D1
330
1044
100
AcDbEntity
  8
Object
100
AcDbCircle
 10
509.5062678556941
 20
46.7770557557069
 30
0.0
 40
26.265
100
AcDbArc
 50
140.626270946104
 51
189.3737290538951
  0
LINE
  5
10D2
330
1044
100
AcDbEntity
  8
Object
100
AcDbLine
 10
526.1580995311153
 20
67.08879440244571
 30
0.0
 11
537.4753566553236
 21
78.41726706534314
 31
0.0
  0
ARC
  5
10D3
330
1044
100
AcDbEntity
  8
Object
100
AcDbCircle
 10
509.5062678556941
 20
46.7770557557069
 30
0.0
 40
26.265
100
AcDbArc
 50
50.65464728837042
 51
84.37372905389285
  0
ARC
  5
10D4
330
1044
100
AcDbEntity
  8
Object
100
AcDbCircle
 10
509.5062678556941
 20
46.7770557557069
 30
0.0
 40
42.22999999999998
100
AcDbArc
 50
48.52418997465528
 51
86.5041863676098
  0
LINE
  5
10D5
330
1044
100
AcDbEntity
  8
Object
100
AcDbLine
 10
535.4205498719278
 20
42.49918098158082
 30
0.0
 11
550.887872857076
 21
38.35472427863897
 31
0.0
  0
LINE
  5
10D6
330
1044
100
AcDbEntity
  8
Object
100
AcDbLine
 10
533.5861460278961
 20
37.65903568106955
 30
0.0
 11
549.5549547747978
 21
33.38020627325
 31
0.0
  0
ARC
  5
10D7
330
1044
100
AcDbEntity
  8
Object
100
AcDbCircle
 10
509.5062678556941
 20
46.7770557557069
 30
0.0
 40
26.265
100
AcDbArc
 50
350.6262709461048
 51
39.40210539616846
  0
ARC
  5
10D8
330
1044
100
AcDbEntity
  8
Object
100
AcDbCircle
 10
509.5062678556941
 20
46.7770557557069
 30
0.0
 40
42.22999999999998
100
AcDbArc
 50
348.4958136323947
 51
41.53256270987899
  0
LINE
  5
10D9
330
1044
100
AcDbEntity
  8
Object
100
AcDbLine
 10
483.5919858394606
 20
42.49918098158082
 30
0.0
 11
468.1246628543124
 21
38.35472427863897
 31
0.0
  0
LINE
  5
10DA
330
1044
100
AcDbEntity
  8
Object
100
AcDbLine
 10
484.9249039217387
 20
37.52466297619208
 30
0.0
 11
469.4575809365903
 21
33.38020627325
 31
0.0
  0
ARC
  5
10DB
330
1044
100
AcDbEntity
  8
Object
100
AcDbCircle
 10
509.5062678556941
 20
46.7770557557069
 30
0.0
 40
42.22999999999998
100
AcDbArc
 50
198.4958136323836
 51
222.9839841825378
  0
LINE
  5
10DC
330
1044
100
AcDbEntity
  8
Object
100
AcDbLine
 10
511.5662678556942
 20
64.16545706232523
 30
0.0
 11
511.5662678556942
 21
66.23833269222861
 31
0.0
  0
LINE
  5
10DD
330
1044
100
AcDbEntity
  8
Object
100
AcDbLine
 10
507.4462678556941
 20
64.16545706232523
 30
0.0
 11
507.4462678556941
 21
66.23833269222905
 31
0.0
  0
ARC
  5
10DE
330
1044
100
AcDbEntity
  8
Object
100
AcDbCircle
 10
509.5062678556941
 20
46.7770557557069
 30
0.0
 40
17.51
100
AcDbArc
 50
83.24367296941122
 51
96.75632703058877
  0
LINE
  5
10DF
330
1044
100
AcDbEntity
  8
Object
100
AcDbLine
 10
495.7541714085472
 20
57.61587226436541
 30
0.0
 11
494.288426994086
 21
59.08161667882655
 31
0.0
  0
LINE
  5
10E0
330
1044
100
AcDbEntity
  8
Object
100
AcDbLine
 10
498.6674513470358
 20
60.52915220285399
 30
0.0
 11
497.2017069325743
 21
61.99489661731512
 31
0.0
  0
ARC
  5
10E1
330
1044
100
AcDbEntity
  8
Object
100
AcDbCircle
 10
509.5062678556941
 20
46.7770557557069
 30
0.0
 40
17.51
100
AcDbArc
 50
128.2436729694154
 51
141.7563270305914
  0
LINE
  5
10E2
330
1044
100
AcDbEntity
  8
Object
100
AcDbLine
 10
520.3450843643527
 20
60.52915220285399
 30
0.0
 11
521.8108287788139
 21
61.99489661731512
 31
0.0
  0
LINE
  5
10E3
330
1044
100
AcDbEntity
  8
Object
100
AcDbLine
 10
523.258364302841
 20
57.61587226436496
 30
0.0
 11
524.7241087173024
 21
59.08161667882655
 31
0.0
  0
ARC
  5
10E4
330
1044
100
AcDbEntity
  8
Object
100
AcDbCircle
 10
509.5062678556941
 20
46.7770557557069
 30
0.0
 40
17.51
100
AcDbArc
 50
38.24367296940856
 51
51.75632703058457
  0
ARC
  5
10E5
330
1044
100
AcDbEntity
  8
Object
100
AcDbCircle
 10
509.5062678556941
 20
46.7770557557069
 30
0.0
 40
17.50999999999991
100
AcDbArc
 50
338.2436729694074
 51
351.7563270305829
  0
LINE
  5
10E6
330
1044
100
AcDbEntity
  8
Object
100
AcDbLine
 10
526.8353409885462
 20
44.2664135358243
 30
0.0
 11
528.8375850941556
 21
43.72991384467582
 31
0.0
  0
LINE
  5
10E7
330
1044
100
AcDbEntity
  8
Object
100
AcDbLine
 10
525.7690065227238
 20
40.28679913151335
 30
0.0
 11
527.7712506283331
 21
39.75029944036533
 31
0.0
  0
ARC
  5
10E8
330
1044
100
AcDbEntity
  8
Object
100
AcDbCircle
 10
509.5062678556939
 20
46.7770557557069
 30
0.0
 40
17.50999999999991
100
AcDbArc
 50
188.2436729694171
 51
201.7563270305926
  0
LINE
  5
10E9
330
1044
100
AcDbEntity
  8
Object
100
AcDbLine
 10
492.1771947228418
 20
44.26641353582385
 30
0.0
 11
490.1749506172325
 21
43.72991384467582
 31
0.0
  0
LINE
  5
10EA
330
1044
100
AcDbEntity
  8
Object
100
AcDbLine
 10
493.2435291886644
 20
40.2867991315129
 30
0.0
 11
491.2412850830548
 21
39.75029944036486
 31
0.0
  0
LINE
  5
10EB
330
1044
100
AcDbEntity
  8
Object
100
AcDbLine
 10
516.9761786648954
 20
28.68879070616231
 30
0.0
 11
530.9147524409493
 21
4.546472740990111
 31
0.0
  0
LINE
  5
10EC
330
1044
100
AcDbEntity
  8
Object
100
AcDbLine
 10
521.4362094943854
 20
31.26379070616235
 30
0.0
 11
532.8119936677186
 21
11.56035454201128
 31
0.0
  0
ARC
  5
10ED
330
1044
100
AcDbEntity
  8
Object
100
AcDbCircle
 10
509.5062678556941
 20
46.7770557557069
 30
0.0
 40
17.51000000000003
100
AcDbArc
 50
293.2436729694142
 51
306.7563270305868
  0
LINE
  5
10EE
330
1044
100
AcDbEntity
  8
Object
100
AcDbLine
 10
519.984480840799
 20
32.74825849297713
 30
0.0
 11
521.0209186557512
 21
30.95309553859488
 31
0.0
  0
LINE
  5
10EF
330
1044
100
AcDbEntity
  8
Object
100
AcDbLine
 10
516.4164561772074
 20
30.68825849297719
 30
0.0
 11
517.4528939921591
 21
28.89309553859494
 31
0.0
  0
LINE
  5
10F0
330
1044
100
AcDbEntity
  8
Object
100
AcDbLine
 10
502.5960795341811
 20
30.68825849297719
 30
0.0
 11
501.5596417192291
 21
28.89309553859494
 31
0.0
  0
LINE
  5
10F1
330
1044
100
AcDbEntity
  8
Object
100
AcDbLine
 10
499.0280548705891
 20
32.74825849297713
 30
0.0
 11
497.9916170556371
 21
30.95309553859488
 31
0.0
  0
ARC
  5
10F2
330
1044
100
AcDbEntity
  8
Object
100
AcDbCircle
 10
509.5062678556941
 20
46.7770557557069
 30
0.0
 40
48.20399999999999
100
AcDbArc
 50
302.8836241215808
 51
322.041074521829
  0
ARC
  5
10F3
330
1044
100
AcDbEntity
  8
Object
100
AcDbCircle
 10
533.1447678556942
 20
5.833972740990017
 30
0.0
 40
2.574999999999961
100
AcDbArc
 50
209.9999999999997
 51
10.34861565867802
  0
ARC
  5
10F4
330
1044
100
AcDbEntity
  8
Object
100
AcDbCircle
 10
509.5062678556941
 20
46.7770557557069
 30
0.0
 40
42.22999999999998
100
AcDbArc
 50
303.495813632387
 51
309.3566989272629
  0
ARC
  5
10F5
330
1044
100
AcDbEntity
  8
Object
100
AcDbCircle
 10
509.5062678556941
 20
46.7770557557069
 30
0.0
 40
19.57
100
AcDbArc
 50
337.4391568233284
 51
202.5608431766717
  0
LINE
  5
10F6
330
1044
100
AcDbEntity
  8
Object
100
AcDbLine
 10
536.2862678556941
 20
14.1242687383633
 30
0.0
 11
527.5786273201718
 21
39.26874546731961
 31
0.0
  0
LINE
  5
10F7
330
1044
100
AcDbEntity
  8
Object
100
AcDbLine
 10
540.3993841172981
 20
17.98489939938281
 30
0.0
 11
533.5861460278961
 21
37.65903568106955
 31
0.0
  0
ARC
  5
10F8
330
1044
100
AcDbEntity
  8
Object
100
AcDbCircle
 10
509.5062678556941
 20
46.7770557557069
 30
0.0
 40
42.22999999999998
100
AcDbArc
 50
317.0160158174622
 51
341.5041863676163
  0
LINE
  5
10F9
330
1044
100
AcDbEntity
  8
Object
100
AcDbLine
 10
497.576326217003
 20
31.26379070616235
 30
0.0
 11
486.2005420436696
 21
11.56035454201128
 31
0.0
  0
LINE
  5
10FA
330
1044
100
AcDbEntity
  8
Object
100
AcDbLine
 10
502.0363570464929
 20
28.68879070616231
 30
0.0
 11
488.0977832704391
 21
4.546472740990111
 31
0.0
  0
ARC
  5
10FB
330
1044
100
AcDbEntity
  8
Object
100
AcDbCircle
 10
509.5062678556941
 20
46.7770557557069
 30
0.0
 40
19.57
100
AcDbArc
 50
232.4391568233231
 51
247.5608431766739
  0
LINE
  5
10FC
330
1044
100
AcDbEntity
  8
Object
100
AcDbLine
 10
502.5960795341811
 20
30.68825849297719
 30
0.0
 11
501.5596417192291
 21
28.89309553859494
 31
0.0
  0
LINE
  5
10FD
330
1044
100
AcDbEntity
  8
Object
100
AcDbLine
 10
499.0280548705891
 20
32.74825849297713
 30
0.0
 11
497.9916170556371
 21
30.95309553859488
 31
0.0
  0
ARC
  5
10FE
330
1044
100
AcDbEntity
  8
Object
100
AcDbCircle
 10
509.5062678556941
 20
46.7770557557069
 30
0.0
 40
17.51000000000003
100
AcDbArc
 50
233.2436729694133
 51
246.7563270305858
  0
ARC
  5
10FF
330
1044
100
AcDbEntity
  8
Object
100
AcDbCircle
 10
485.8677678556942
 20
5.833972740990017
 30
0.0
 40
2.574999999999961
100
AcDbArc
 50
169.6513843413219
 51
330.0000000000003
  0
ARC
  5
1100
330
1044
100
AcDbEntity
  8
Object
100
AcDbCircle
 10
509.5062678556941
 20
46.7770557557069
 30
0.0
 40
42.22999999999998
100
AcDbArc
 50
230.6433010727371
 51
236.504186367613
  0
LINE
  5
1101
330
1044
100
AcDbEntity
  8
Object
100
AcDbLine
 10
482.7262678556941
 20
14.1242687383633
 30
0.0
 11
491.4339083912167
 21
39.26874546731961
 31
0.0
  0
LINE
  5
1102
330
1044
100
AcDbEntity
  8
Object
100
AcDbLine
 10
478.6131515940901
 20
17.98489939938281
 30
0.0
 11
485.4263896834923
 21
37.65903568106955
 31
0.0
  0
ARC
  5
1103
330
1044
100
AcDbEntity
  8
Object
100
AcDbCircle
 10
509.5062678556941
 20
46.7770557557069
 30
0.0
 40
48.20399999999999
100
AcDbArc
 50
181.9589254781611
 51
196.0410745218322
  0
ARC
  5
1104
330
1044
100
AcDbEntity
  8
Object
100
AcDbCircle
 10
509.5062678556941
 20
46.7770557557069
 30
0.0
 40
48.20399999999999
100
AcDbArc
 50
199.9589254781644
 51
214.0410745218443
  0
ARC
  5
1105
330
1044
100
AcDbEntity
  8
Object
100
AcDbCircle
 10
509.5062678556941
 20
46.7770557557069
 30
0.0
 40
48.20399999999999
100
AcDbArc
 50
217.9589254781709
 51
237.1163758784192
  0
ARC
  5
1106
330
1044
100
AcDbEntity
  8
Object
100
AcDbCircle
 10
509.5062678556941
 20
46.7770557557069
 30
0.0
 40
48.20399999999999
100
AcDbArc
 50
1.958925478161123
 51
16.04107452183221
  0
ARC
  5
1107
330
1044
100
AcDbEntity
  8
Object
100
AcDbCircle
 10
509.5062678556941
 20
46.7770557557069
 30
0.0
 40
48.20399999999999
100
AcDbArc
 50
343.9589254781678
 51
358.0410745218389
  0
ARC
  5
1108
330
1044
100
AcDbEntity
  8
Object
100
AcDbCircle
 10
509.5062678556941
 20
46.7770557557069
 30
0.0
 40
48.20399999999999
100
AcDbArc
 50
325.9589254781557
 51
340.0410745218354
  0
ARC
  5
1109
330
1044
100
AcDbEntity
  8
Object
100
AcDbCircle
 10
509.5062678556941
 20
46.7770557557069
 30
0.0
 40
48.20399999999999
100
AcDbArc
 50
19.95892547816454
 51
34.04107452184431
  0
ARC
  5
110A
330
1044
100
AcDbEntity
  8
Object
100
AcDbCircle
 10
509.5062678556941
 20
46.7770557557069
 30
0.0
 40
48.20399999999999
100
AcDbArc
 50
73.95892547816107
 51
88.04107452183867
  0
ARC
  5
110B
330
1044
100
AcDbEntity
  8
Object
100
AcDbCircle
 10
509.5062678556941
 20
46.7770557557069
 30
0.0
 40
48.20399999999999
100
AcDbArc
 50
55.95892547816383
 51
70.0410745218349
  0
ARC
  5
110C
330
1044
100
AcDbEntity
  8
Object
100
AcDbCircle
 10
509.5062678556941
 20
46.7770557557069
 30
0.0
 40
48.20399999999999
100
AcDbArc
 50
37.95892547817093
 51
52.04107452184049
  0
ARC
  5
110D
330
1044
100
AcDbEntity
  8
Object
100
AcDbCircle
 10
509.5062678556941
 20
46.7770557557069
 30
0.0
 40
48.20399999999999
100
AcDbArc
 50
163.9589254781677
 51
178.0410745218388
  0
ARC
  5
110E
330
1044
100
AcDbEntity
  8
Object
100
AcDbCircle
 10
509.5062678556941
 20
46.7770557557069
 30
0.0
 40
48.20399999999999
100
AcDbArc
 50
145.9589254781557
 51
160.0410745218354
  0
ARC
  5
110F
330
1044
100
AcDbEntity
  8
Object
100
AcDbCircle
 10
509.5062678556941
 20
46.7770557557069
 30
0.0
 40
48.20399999999999
100
AcDbArc
 50
127.9589254781595
 51
142.0410745218291
  0
ARC
  5
1110
330
1044
100
AcDbEntity
  8
Object
100
AcDbCircle
 10
509.5062678556941
 20
46.7770557557069
 30
0.0
 40
48.20399999999999
100
AcDbArc
 50
109.9589254781651
 51
124.0410745218361
  0
LINE
  5
1111
330
1044
100
AcDbEntity
  8
Object
100
AcDbLine
 10
619.5062678556943
 20
96.62905575570697
 30
0.0
 11
619.5062678556943
 21
3.258972740990201
 31
0.0
  0
LINE
  5
1112
330
1044
100
AcDbEntity
  8
Object
100
AcDbLine
 10
650.4062678556937
 20
96.62905575570697
 30
0.0
 11
650.4062678556937
 21
3.258972740990201
 31
0.0
  0
LINE
  5
1113
330
1044
100
AcDbEntity
  8
Object
100
AcDbLine
 10
619.5062678556943
 20
96.62905575570697
 30
0.0
 11
650.4062678556937
 21
96.62905575570697
 31
0.0
  0
LINE
  5
1114
330
1044
100
AcDbEntity
  8
Object
100
AcDbLine
 10
619.5062678556943
 20
94.952884815536
 30
0.0
 11
650.4062678556937
 21
94.952884815536
 31
0.0
  0
LINE
  5
1115
330
1044
100
AcDbEntity
  8
Object
100
AcDbLine
 10
619.5062678556943
 20
94.26978406719877
 30
0.0
 11
650.4062678556937
 21
94.26978406719877
 31
0.0
  0
LINE
  5
1116
330
1044
100
AcDbEntity
  8
Object
100
AcDbLine
 10
619.5062678556943
 20
92.08580631395216
 30
0.0
 11
650.4062678556937
 21
92.08580631395216
 31
0.0
  0
LINE
  5
1117
330
1044
100
AcDbEntity
  8
Object
100
AcDbLine
 10
619.5062678556943
 20
87.422910952557
 30
0.0
 11
650.4062678556937
 21
87.422910952557
 31
0.0
  0
LINE
  5
1118
330
1044
100
AcDbEntity
  8
Object
100
AcDbLine
 10
619.5062678556943
 20
84.78359162309969
 30
0.0
 11
650.4062678556937
 21
84.78359162309969
 31
0.0
  0
LINE
  5
1119
330
1044
100
AcDbEntity
  8
Object
100
AcDbLine
 10
619.5062678556943
 20
76.7586560572131
 30
0.0
 11
650.4062678556937
 21
76.75865605721354
 31
0.0
  0
LINE
  5
111A
330
1044
100
AcDbEntity
  8
Object
100
AcDbLine
 10
619.5062678556943
 20
73.76103239443978
 30
0.0
 11
650.4062678556937
 21
73.76103239443978
 31
0.0
  0
LINE
  5
111B
330
1044
100
AcDbEntity
  8
Object
100
AcDbLine
 10
619.5062678556943
 20
63.23131778263199
 30
0.0
 11
650.4062678556937
 21
63.23131778263199
 31
0.0
  0
LINE
  5
111C
330
1044
100
AcDbEntity
  8
Object
100
AcDbLine
 10
619.5062678556943
 20
60.09709352396111
 30
0.0
 11
650.4062678556937
 21
60.09709352396111
 31
0.0
  0
LINE
  5
111D
330
1044
100
AcDbEntity
  8
Object
100
AcDbLine
 10
619.5062678556943
 20
48.42481496084907
 30
0.0
 11
650.4062678556937
 21
48.42481496084907
 31
0.0
  0
LINE
  5
111E
330
1044
100
AcDbEntity
  8
Object
100
AcDbLine
 10
619.5062678556943
 20
45.12929655056518
 30
0.0
 11
650.4062678556937
 21
45.12929655056518
 31
0.0
  0
LINE
  5
111F
330
1044
100
AcDbEntity
  8
Object
100
AcDbLine
 10
619.5062678556943
 20
33.45701798745267
 30
0.0
 11
650.4062678556937
 21
33.45701798745267
 31
0.0
  0
LINE
  5
1120
330
1044
100
AcDbEntity
  8
Object
100
AcDbLine
 10
619.5062678556943
 20
30.23320055885665
 30
0.0
 11
650.4062678556937
 21
30.23320055885665
 31
0.0
  0
LINE
  5
1121
330
1044
100
AcDbEntity
  8
Object
100
AcDbLine
 10
619.5062678556943
 20
19.79307911697378
 30
0.0
 11
650.4062678556937
 21
19.79307911697378
 31
0.0
  0
LINE
  5
1122
330
1044
100
AcDbEntity
  8
Object
100
AcDbLine
 10
619.5062678556943
 20
16.79545545420069
 30
0.0
 11
650.4062678556937
 21
16.79545545420069
 31
0.0
  0
LINE
  5
1123
330
1044
100
AcDbEntity
  8
Object
100
AcDbLine
 10
619.5062678556943
 20
6.296537965428798
 30
0.0
 11
650.4062678556937
 21
6.296537965428798
 31
0.0
  0
LINE
  5
1124
330
1044
100
AcDbEntity
  8
Object
100
AcDbLine
 10
619.5062678556937
 20
3.258972740990201
 30
0.0
 11
650.4062678556937
 21
3.258972740990201
 31
0.0
  0
DIMENSION
  5
1125
330
1044
100
AcDbEntity
  8
Object
100
AcDbDimension
  2
*D8
 10
559.358267855694
 20
156.7770557557069
 30
0.0
 11
509.5062678556941
 21
163.1350103011614
 31
0.0
 12
236.0678233452791
 22
-1445.324144199385
 32
0.0
  1
{\fＭＳ Ｐゴシック|b0|i0|c128|p50;外径（ｄ）}
 71
     5
 42
99.70400000000005
  3
JIS
100
AcDbAlignedDimension
 13
459.6542678556941
 23
46.7770557557069
 33
0.0
 14
559.358267855694
 24
46.7770557557069
 34
0.0
100
AcDbRotatedDimension
1001
ACAD
1000
DSTYLE
1002
{
1070
   147
1040
1.5
1070
   140
1040
7.5
1002
}
  0
DIMENSION
  5
1126
330
1044
100
AcDbEntity
  8
Object
100
AcDbDimension
  2
*D9
 10
650.4062678556937
 20
156.4857003626075
 30
0.0
 11
597.0460405829667
 21
156.4857003626075
 31
0.0
 12
236.0678233452791
 22
-1445.324144199385
 32
0.0
 70
   128
  1
{\fＭＳ Ｐゴシック|b0|i0|c128|p50;厚さ（ａ）}
 71
     5
 42
30.89999999999998
  3
JIS
100
AcDbAlignedDimension
 13
619.5062678556943
 23
96.62905575570697
 33
0.0
 14
650.4062678556937
 24
96.62905575570697
 34
0.0
100
AcDbRotatedDimension
1001
ACAD
1000
DSTYLE
1002
{
1070
   147
1040
1.5
1070
   140
1040
7.5
1002
}
  0
DIMENSION
  5
1127
330
1044
100
AcDbEntity
  8
Object
100
AcDbDimension
  2
*D10
 10
559.358267855694
 20
107.2924658231595
 30
0.0
 11
543.1872678556942
 21
113.8421817322505
 31
0.0
 12
236.0678233452791
 22
-1445.324144199385
 32
0.0
  1
{\fＭＳ Ｐゴシック|b0|i0|c128|p50;カブリ}
 71
     5
 42
32.34199999999993
  3
JIS
100
AcDbAlignedDimension
 13
527.0162678556943
 23
46.7770557557069
 33
0.0
 14
559.358267855694
 24
46.7770557557069
 34
0.0
 50
180.0
100
AcDbRotatedDimension
1001
ACAD
1000
DSTYLE
1002
{
1070
   147
1040
1.5
1070
   140
1040
7.5
1002
}
  0
ENDBLK
  5
112B
330
1044
100
AcDbEntity
  8
0
100
AcDbBlockEnd
  0
BLOCK
  5
2375
330
236B
100
AcDbEntity
  8
0
100
AcDbBlockBegin
  2
*D12
 70
     1
 10
0.0
 20
0.0
 30
0.0
  3
*D12
  1

  0
LINE
  5
2C47
330
236B
100
AcDbEntity
  8
0
  6
HIDDEN
 62
     0
 48
3.0
370
    -2
100
AcDbLine
 10
-469.0862529203282
 20
1709.801757337169
 30
0.0
 11
-469.0862529203282
 21
1755.629341585587
 31
0.0
  0
LINE
  5
2C48
330
236B
100
AcDbEntity
  8
0
  6
HIDDEN
 62
     0
 48
3.0
370
    -2
100
AcDbLine
 10
-432.1862529203278
 20
1744.558354445021
 30
0.0
 11
-432.1862529203278
 21
1755.629341585587
 31
0.0
  0
LINE
  5
2C49
330
236B
100
AcDbEntity
  8
0
  6
HIDDEN
 62
     0
 48
3.0
370
    -2
100
AcDbLine
 10
-461.0862529203282
 20
1754.629341585587
 30
0.0
 11
-440.1862529203278
 21
1754.629341585587
 31
0.0
  0
INSERT
  5
2C4A
330
236B
100
AcDbEntity
  8
0
  6
HIDDEN
 62
     0
 48
3.0
370
    -2
100
AcDbBlockReference
  2
_Open30
 10
-469.0862529203282
 20
1754.629341585587
 30
0.0
 41
8.0
 42
8.0
 43
8.0
 50
180.0
  0
INSERT
  5
2C4B
330
236B
100
AcDbEntity
  8
0
  6
HIDDEN
 62
     0
 48
3.0
370
    -2
100
AcDbBlockReference
  2
_Open30
 10
-432.1862529203278
 20
1754.629341585587
 30
0.0
 41
8.0
 42
8.0
 43
8.0
  0
MTEXT
  5
2C4C
330
236B
100
AcDbEntity
  8
0
  6
HIDDEN
 62
     0
 48
3.0
100
AcDbMText
 10
-450.6362529203279
 20
1761.629341585587
 30
0.0
 40
8.0
 41
0.0
 71
     5
 72
     1
  1
\A1;Ｃ
 73
     1
 44
1.0
1001
ACAD
1000
MTEXTBEGIN
1070
    73
1070
     1
1070
    44
1040
1.0
1070
    74
1070
     0
1000
MTEXTEND
  0
POINT
  5
2C4D
330
236B
100
AcDbEntity
  8
Defpoints
  6
HIDDEN
 62
     0
 48
3.0
100
AcDbPoint
 10
-469.0862529203282
 20
1708.801757337169
 30
0.0
  0
POINT
  5
2C4E
330
236B
100
AcDbEntity
  8
Defpoints
  6
HIDDEN
 62
     0
 48
3.0
100
AcDbPoint
 10
-432.1862529203278
 20
1743.558354445022
 30
0.0
  0
POINT
  5
2C4F
330
236B
100
AcDbEntity
  8
Defpoints
  6
HIDDEN
 62
     0
 48
3.0
100
AcDbPoint
 10
-432.1862529203278
 20
1754.629341585587
 30
0.0
  0
ENDBLK
  5
2376
330
236B
100
AcDbEntity
  8
0
100
AcDbBlockEnd
  0
BLOCK
  5
2381
330
2377
100
AcDbEntity
  8
0
100
AcDbBlockBegin
  2
*D13
 70
     1
 10
0.0
 20
0.0
 30
0.0
  3
*D13
  1

  0
LINE
  5
2C3E
330
2377
100
AcDbEntity
  8
0
  6
HIDDEN
 62
     0
 48
3.0
370
    -2
100
AcDbLine
 10
-432.1862529203289
 20
1744.558354445023
 30
0.0
 11
-432.1862529203289
 21
1755.629341585587
 31
0.0
  0
LINE
  5
2C3F
330
2377
100
AcDbEntity
  8
0
  6
HIDDEN
 62
     0
 48
3.0
370
    -2
100
AcDbLine
 10
-368.6362529203283
 20
1709.801757337169
 30
0.0
 11
-368.6362529203283
 21
1755.629341585587
 31
0.0
  0
LINE
  5
2C40
330
2377
100
AcDbEntity
  8
0
  6
HIDDEN
 62
     0
 48
3.0
370
    -2
100
AcDbLine
 10
-424.1862529203289
 20
1754.629341585587
 30
0.0
 11
-376.6362529203283
 21
1754.629341585587
 31
0.0
  0
INSERT
  5
2C41
330
2377
100
AcDbEntity
  8
0
  6
HIDDEN
 62
     0
 48
3.0
370
    -2
100
AcDbBlockReference
  2
_Open30
 10
-432.1862529203289
 20
1754.629341585587
 30
0.0
 41
8.0
 42
8.0
 43
8.0
 50
180.0
  0
INSERT
  5
2C42
330
2377
100
AcDbEntity
  8
0
  6
HIDDEN
 62
     0
 48
3.0
370
    -2
100
AcDbBlockReference
  2
_Open30
 10
-368.6362529203283
 20
1754.629341585587
 30
0.0
 41
8.0
 42
8.0
 43
8.0
  0
MTEXT
  5
2C43
330
2377
100
AcDbEntity
  8
0
  6
HIDDEN
 62
     0
 48
3.0
100
AcDbMText
 10
-400.4112529203285
 20
1761.629341585587
 30
0.0
 40
8.0
 41
0.0
 71
     5
 72
     1
  1
\A1;Ｂ
 73
     1
 44
1.0
1001
ACAD
1000
MTEXTBEGIN
1070
    73
1070
     1
1070
    44
1040
1.0
1070
    74
1070
     0
1000
MTEXTEND
  0
POINT
  5
2C44
330
2377
100
AcDbEntity
  8
Defpoints
  6
HIDDEN
 62
     0
 48
3.0
100
AcDbPoint
 10
-432.1862529203289
 20
1743.558354445023
 30
0.0
  0
POINT
  5
2C45
330
2377
100
AcDbEntity
  8
Defpoints
  6
HIDDEN
 62
     0
 48
3.0
100
AcDbPoint
 10
-368.6362529203283
 20
1708.801757337169
 30
0.0
  0
POINT
  5
2C46
330
2377
100
AcDbEntity
  8
Defpoints
  6
HIDDEN
 62
     0
 48
3.0
100
AcDbPoint
 10
-368.6362529203283
 20
1754.629341585587
 30
0.0
  0
ENDBLK
  5
2382
330
2377
100
AcDbEntity
  8
0
100
AcDbBlockEnd
  0
BLOCK
  5
238D
330
2383
100
AcDbEntity
  8
0
100
AcDbBlockBegin
  2
*D14
 70
     1
 10
0.0
 20
0.0
 30
0.0
  3
*D14
  1

  0
LINE
  5
2C50
330
2383
100
AcDbEntity
  8
0
  6
HIDDEN
 62
     0
 48
3.0
370
    -2
100
AcDbLine
 10
-368.6362529203283
 20
1709.801757337169
 30
0.0
 11
-368.6362529203283
 21
1768.565890136653
 31
0.0
  0
LINE
  5
2C51
330
2383
100
AcDbEntity
  8
0
  6
HIDDEN
 62
     0
 48
3.0
370
    -2
100
AcDbLine
 10
-469.0862529203282
 20
1709.801757337169
 30
0.0
 11
-469.0862529203282
 21
1768.565890136653
 31
0.0
  0
LINE
  5
2C52
330
2383
100
AcDbEntity
  8
0
  6
HIDDEN
 62
     0
 48
3.0
370
    -2
100
AcDbLine
 10
-376.6362529203283
 20
1767.565890136653
 30
0.0
 11
-461.0862529203282
 21
1767.565890136653
 31
0.0
  0
INSERT
  5
2C53
330
2383
100
AcDbEntity
  8
0
  6
HIDDEN
 62
     0
 48
3.0
370
    -2
100
AcDbBlockReference
  2
_Open30
 10
-368.6362529203283
 20
1767.565890136653
 30
0.0
 41
8.0
 42
8.0
 43
8.0
  0
INSERT
  5
2C54
330
2383
100
AcDbEntity
  8
0
  6
HIDDEN
 62
     0
 48
3.0
370
    -2
100
AcDbBlockReference
  2
_Open30
 10
-469.0862529203282
 20
1767.565890136653
 30
0.0
 41
8.0
 42
8.0
 43
8.0
 50
180.0
  0
MTEXT
  5
2C55
330
2383
100
AcDbEntity
  8
0
  6
HIDDEN
 62
     0
 48
3.0
100
AcDbMText
 10
-418.8612529203282
 20
1774.565890136653
 30
0.0
 40
8.0
 41
0.0
 71
     5
 72
     1
  1
\A1;Ａ
 73
     1
 44
1.0
1001
ACAD
1000
MTEXTBEGIN
1070
    73
1070
     1
1070
    44
1040
1.0
1070
    74
1070
     0
1000
MTEXTEND
  0
POINT
  5
2C56
330
2383
100
AcDbEntity
  8
Defpoints
  6
HIDDEN
 62
     0
 48
3.0
100
AcDbPoint
 10
-368.6362529203283
 20
1708.801757337169
 30
0.0
  0
POINT
  5
2C57
330
2383
100
AcDbEntity
  8
Defpoints
  6
HIDDEN
 62
     0
 48
3.0
100
AcDbPoint
 10
-469.0862529203282
 20
1708.801757337169
 30
0.0
  0
POINT
  5
2C58
330
2383
100
AcDbEntity
  8
Defpoints
  6
HIDDEN
 62
     0
 48
3.0
100
AcDbPoint
 10
-469.0862529203282
 20
1767.565890136653
 30
0.0
  0
ENDBLK
  5
238E
330
2383
100
AcDbEntity
  8
0
100
AcDbBlockEnd
  0
BLOCK
  5
2398
330
238F
100
AcDbEntity
  8
0
100
AcDbBlockBegin
  2
*D15
 70
     1
 10
0.0
 20
0.0
 30
0.0
  3
*D15
  1

  0
LINE
  5
2B32
330
238F
100
AcDbEntity
  8
0
  6
HIDDEN
 62
     0
 48
3.0
370
    -2
100
AcDbLine
 10
-394.5445678175057
 20
1665.10600861159
 30
0.0
 11
-402.5445678175056
 21
1665.10600861159
 31
0.0
  0
LINE
  5
2B33
330
238F
100
AcDbEntity
  8
0
  6
HIDDEN
 62
     0
 48
3.0
370
    -2
100
AcDbLine
 10
-402.5445678175056
 20
1665.10600861159
 30
0.0
 11
-420.6985433753843
 21
1702.038485847314
 31
0.0
  0
LINE
  5
2B34
330
238F
100
AcDbEntity
  8
0
  6
HIDDEN
 62
     0
 48
3.0
370
    -2
100
AcDbLine
 10
-431.373962465273
 20
1723.756575709345
 30
0.0
 11
-434.9030266272197
 21
1730.936109548033
 31
0.0
  0
MTEXT
  5
2B35
330
238F
100
AcDbEntity
  8
0
  6
HIDDEN
 62
     0
 48
3.0
370
    35
100
AcDbMText
 10
-388.7831464977086
 20
1665.10600861159
 30
0.0
 40
8.0
 41
0.0
 71
     5
 72
     1
  1
\A1;Ｆ
 11
0.9999999998476914
 21
-0.000017453292519
 31
0.0
 73
     1
 44
1.0
1001
ACAD
1000
MTEXTBEGIN
1070
    73
1070
     1
1070
    44
1040
1.0
1070
    74
1070
     0
1000
MTEXTEND
  0
LINE
  5
2B36
330
238F
100
AcDbEntity
  8
0
  6
HIDDEN
 62
     0
 48
3.0
370
    -2
100
AcDbLine
 10
-427.8448983033263
 20
1716.577041870657
 30
0.0
 11
-424.2276075373307
 21
1709.218019686002
 31
0.0
  0
INSERT
  5
2B37
330
238F
100
AcDbEntity
  8
0
  6
HIDDEN
 62
     0
 48
3.0
370
    -2
100
AcDbBlockReference
  2
_Open30
 10
-427.8448983033263
 20
1716.577041870657
 30
0.0
 41
8.0
 42
8.0
 43
8.0
 50
296.1761946509188
  0
INSERT
  5
2B38
330
238F
100
AcDbEntity
  8
0
  6
HIDDEN
 62
     0
 48
3.0
370
    -2
100
AcDbBlockReference
  2
_Open30
 10
-424.2276075373307
 20
1709.218019686002
 30
0.0
 41
8.0
 42
8.0
 43
8.0
 50
116.1761946509188
  0
POINT
  5
2B39
330
238F
100
AcDbEntity
  8
Defpoints
  6
HIDDEN
 62
     0
 48
3.0
100
AcDbPoint
 10
-424.2276075373307
 20
1709.218019686002
 30
0.0
  0
POINT
  5
2B3A
330
238F
100
AcDbEntity
  8
Defpoints
  6
HIDDEN
 62
     0
 48
3.0
100
AcDbPoint
 10
-427.8448983033263
 20
1716.577041870657
 30
0.0
  0
ENDBLK
  5
2399
330
238F
100
AcDbEntity
  8
0
100
AcDbBlockEnd
  0
BLOCK
  5
23A4
330
239A
100
AcDbEntity
  8
0
100
AcDbBlockBegin
  2
*D16
 70
     1
 10
0.0
 20
0.0
 30
0.0
  3
*D16
  1

  0
LINE
  5
2AEB
330
239A
100
AcDbEntity
  8
0
  6
HIDDEN
 62
     0
 48
3.0
370
    -2
100
AcDbLine
 10
-470.0862529203281
 20
1708.801757337169
 30
0.0
 11
-488.4801169460478
 21
1708.801757337169
 31
0.0
  0
LINE
  5
2AEC
330
239A
100
AcDbEntity
  8
0
  6
HIDDEN
 62
     0
 48
3.0
370
    -2
100
AcDbLine
 10
-433.1862529203282
 20
1647.301757337169
 30
0.0
 11
-488.4801169460478
 21
1647.301757337169
 31
0.0
  0
LINE
  5
2AED
330
239A
100
AcDbEntity
  8
0
  6
HIDDEN
 62
     0
 48
3.0
370
    -2
100
AcDbLine
 10
-487.480116946048
 20
1700.801757337168
 30
0.0
 11
-487.480116946048
 21
1655.301757337169
 31
0.0
  0
MTEXT
  5
2AEE
330
239A
100
AcDbEntity
  8
0
  6
HIDDEN
 62
     0
 48
3.0
100
AcDbMText
 10
-493.7672185944892
 20
1678.267711587103
 30
0.0
 40
8.0
 41
0.0
 71
     5
 72
     1
  1
\A1;Ｄ
 11
0.9999999998476914
 21
-0.000017453292519
 31
0.0
 73
     1
 44
1.0
1001
ACAD
1000
MTEXTBEGIN
1070
    73
1070
     1
1070
    44
1040
1.0
1070
    74
1070
     0
1000
MTEXTEND
  0
INSERT
  5
2AEF
330
239A
100
AcDbEntity
  8
0
  6
HIDDEN
 62
     0
 48
3.0
370
    -2
100
AcDbBlockReference
  2
_Open30
 10
-487.480116946048
 20
1708.801757337169
 30
0.0
 41
8.0
 42
8.0
 43
8.0
 50
90.0
  0
INSERT
  5
2AF0
330
239A
100
AcDbEntity
  8
0
  6
HIDDEN
 62
     0
 48
3.0
370
    -2
100
AcDbBlockReference
  2
_Open30
 10
-487.480116946048
 20
1647.301757337169
 30
0.0
 41
8.0
 42
8.0
 43
8.0
 50
270.0
  0
POINT
  5
2AF1
330
239A
100
AcDbEntity
  8
Defpoints
  6
HIDDEN
 62
     0
 48
3.0
100
AcDbPoint
 10
-469.0862529203282
 20
1708.801757337169
 30
0.0
  0
POINT
  5
2AF2
330
239A
100
AcDbEntity
  8
Defpoints
  6
HIDDEN
 62
     0
 48
3.0
100
AcDbPoint
 10
-432.1862529203282
 20
1647.301757337169
 30
0.0
  0
POINT
  5
2AF3
330
239A
100
AcDbEntity
  8
Defpoints
  6
HIDDEN
 62
     0
 48
3.0
100
AcDbPoint
 10
-487.480116946048
 20
1647.301757337169
 30
0.0
  0
ENDBLK
  5
23A5
330
239A
100
AcDbEntity
  8
0
100
AcDbBlockEnd
  0
BLOCK
  5
23B0
330
23A6
100
AcDbEntity
  8
0
100
AcDbBlockBegin
  2
*D17
 70
     1
 10
0.0
 20
0.0
 30
0.0
  3
*D17
  1

  0
LINE
  5
2BD3
330
23A6
100
AcDbEntity
  8
0
  6
HIDDEN
 62
     0
 48
3.0
370
    -2
100
AcDbLine
 10
-350.1862529203285
 20
1709.797530778328
 30
0.0
 11
-350.1862529203285
 21
1768.565890136653
 31
0.0
  0
LINE
  5
2BD4
330
23A6
100
AcDbEntity
  8
0
  6
HIDDEN
 62
     0
 48
3.0
370
    -2
100
AcDbLine
 10
-305.0862529203279
 20
1744.558354445021
 30
0.0
 11
-305.0862529203279
 21
1768.565890136653
 31
0.0
  0
LINE
  5
2BD5
330
23A6
100
AcDbEntity
  8
0
  6
HIDDEN
 62
     0
 48
3.0
370
    -2
100
AcDbLine
 10
-342.1862529203285
 20
1767.565890136653
 30
0.0
 11
-313.0862529203279
 21
1767.565890136653
 31
0.0
  0
INSERT
  5
2BD6
330
23A6
100
AcDbEntity
  8
0
  6
HIDDEN
 62
     0
 48
3.0
370
    -2
100
AcDbBlockReference
  2
_Open30
 10
-350.1862529203285
 20
1767.565890136653
 30
0.0
 41
8.0
 42
8.0
 43
8.0
 50
180.0
  0
INSERT
  5
2BD7
330
23A6
100
AcDbEntity
  8
0
  6
HIDDEN
 62
     0
 48
3.0
370
    -2
100
AcDbBlockReference
  2
_Open30
 10
-305.0862529203279
 20
1767.565890136653
 30
0.0
 41
8.0
 42
8.0
 43
8.0
  0
MTEXT
  5
2BD8
330
23A6
100
AcDbEntity
  8
0
  6
HIDDEN
 62
     0
 48
3.0
100
AcDbMText
 10
-327.6362529203282
 20
1774.565890136653
 30
0.0
 40
8.0
 41
0.0
 71
     5
 72
     1
  1
\A1;Ｇ
 73
     1
 44
1.0
1001
ACAD
1000
MTEXTBEGIN
1070
    73
1070
     1
1070
    44
1040
1.0
1070
    74
1070
     0
1000
MTEXTEND
  0
POINT
  5
2BD9
330
23A6
100
AcDbEntity
  8
Defpoints
  6
HIDDEN
 62
     0
 48
3.0
100
AcDbPoint
 10
-350.1862529203285
 20
1708.797530778328
 30
0.0
  0
POINT
  5
2BDA
330
23A6
100
AcDbEntity
  8
Defpoints
  6
HIDDEN
 62
     0
 48
3.0
100
AcDbPoint
 10
-305.0862529203279
 20
1743.558354445022
 30
0.0
  0
POINT
  5
2BDB
330
23A6
100
AcDbEntity
  8
Defpoints
  6
HIDDEN
 62
     0
 48
3.0
100
AcDbPoint
 10
-305.0862529203279
 20
1767.565890136653
 30
0.0
  0
ENDBLK
  5
23B1
330
23A6
100
AcDbEntity
  8
0
100
AcDbBlockEnd
  0
BLOCK
  5
23BC
330
23B2
100
AcDbEntity
  8
0
100
AcDbBlockBegin
  2
*D18
 70
     1
 10
0.0
 20
0.0
 30
0.0
  3
*D18
  1

  0
LINE
  5
2BC1
330
23B2
100
AcDbEntity
  8
0
  6
HIDDEN
 62
     0
 48
3.0
370
    -2
100
AcDbLine
 10
-305.086252920329
 20
1744.558354445023
 30
0.0
 11
-305.086252920329
 21
1768.567398773016
 31
0.0
  0
LINE
  5
2BC2
330
23B2
100
AcDbEntity
  8
0
  6
HIDDEN
 62
     0
 48
3.0
370
    -2
100
AcDbLine
 10
-259.9862529203286
 20
1709.797530778328
 30
0.0
 11
-259.9862529203286
 21
1768.567398773016
 31
0.0
  0
LINE
  5
2BC3
330
23B2
100
AcDbEntity
  8
0
  6
HIDDEN
 62
     0
 48
3.0
370
    -2
100
AcDbLine
 10
-297.086252920329
 20
1767.567398773016
 30
0.0
 11
-267.9862529203286
 21
1767.567398773016
 31
0.0
  0
INSERT
  5
2BC4
330
23B2
100
AcDbEntity
  8
0
  6
HIDDEN
 62
     0
 48
3.0
370
    -2
100
AcDbBlockReference
  2
_Open30
 10
-305.086252920329
 20
1767.567398773016
 30
0.0
 41
8.0
 42
8.0
 43
8.0
 50
180.0
  0
INSERT
  5
2BC5
330
23B2
100
AcDbEntity
  8
0
  6
HIDDEN
 62
     0
 48
3.0
370
    -2
100
AcDbBlockReference
  2
_Open30
 10
-259.9862529203286
 20
1767.567398773016
 30
0.0
 41
8.0
 42
8.0
 43
8.0
  0
MTEXT
  5
2BC6
330
23B2
100
AcDbEntity
  8
0
  6
HIDDEN
 62
     0
 48
3.0
100
AcDbMText
 10
-282.5362529203288
 20
1774.567398773015
 30
0.0
 40
8.0
 41
0.0
 71
     5
 72
     1
  1
\A1;Ｇ
 73
     1
 44
1.0
1001
ACAD
1000
MTEXTBEGIN
1070
    73
1070
     1
1070
    44
1040
1.0
1070
    74
1070
     0
1000
MTEXTEND
  0
POINT
  5
2BC7
330
23B2
100
AcDbEntity
  8
Defpoints
  6
HIDDEN
 62
     0
 48
3.0
100
AcDbPoint
 10
-305.086252920329
 20
1743.558354445023
 30
0.0
  0
POINT
  5
2BC8
330
23B2
100
AcDbEntity
  8
Defpoints
  6
HIDDEN
 62
     0
 48
3.0
100
AcDbPoint
 10
-259.9862529203286
 20
1708.797530778328
 30
0.0
  0
POINT
  5
2BC9
330
23B2
100
AcDbEntity
  8
Defpoints
  6
HIDDEN
 62
     0
 48
3.0
100
AcDbPoint
 10
-259.9862529203286
 20
1767.567398773016
 30
0.0
  0
ENDBLK
  5
23BD
330
23B2
100
AcDbEntity
  8
0
100
AcDbBlockEnd
  0
BLOCK
  5
23CA
330
23BE
100
AcDbEntity
  8
0
100
AcDbBlockBegin
  2
*D19
 70
     1
 10
0.0
 20
0.0
 30
0.0
  3
*D19
  1

  0
LINE
  5
2BB6
330
23BE
100
AcDbEntity
  8
0
  6
HIDDEN
 62
     0
 48
3.0
370
    -2
100
AcDbLine
 10
-309.1862529203283
 20
1747.03832281814
 30
0.0
 11
-309.1862529203283
 21
1755.629341585587
 31
0.0
  0
LINE
  5
2BB7
330
23BE
100
AcDbEntity
  8
0
  6
HIDDEN
 62
     0
 48
3.0
370
    -2
100
AcDbLine
 10
-300.9862529203285
 20
1742.078386071906
 30
0.0
 11
-300.9862529203285
 21
1755.629341585587
 31
0.0
  0
LINE
  5
2BB8
330
23BE
100
AcDbEntity
  8
0
  6
HIDDEN
 62
     0
 48
3.0
370
    -2
100
AcDbLine
 10
-317.1862529203283
 20
1754.629341585587
 30
0.0
 11
-325.1862529203283
 21
1754.629341585587
 31
0.0
  0
LINE
  5
2BB9
330
23BE
100
AcDbEntity
  8
0
  6
HIDDEN
 62
     0
 48
3.0
370
    -2
100
AcDbLine
 10
-292.9862529203285
 20
1754.629341585587
 30
0.0
 11
-225.6851493982252
 21
1754.629341585587
 31
0.0
  0
LINE
  5
2BBA
330
23BE
100
AcDbEntity
  8
0
  6
HIDDEN
 62
     0
 48
3.0
370
    -2
100
AcDbLine
 10
-309.1862529203283
 20
1754.629341585587
 30
0.0
 11
-300.9862529203285
 21
1754.629341585587
 31
0.0
  0
INSERT
  5
2BBB
330
23BE
100
AcDbEntity
  8
0
  6
HIDDEN
 62
     0
 48
3.0
370
    -2
100
AcDbBlockReference
  2
_Open30
 10
-309.1862529203283
 20
1754.629341585587
 30
0.0
 41
8.0
 42
8.0
 43
8.0
  0
INSERT
  5
2BBC
330
23BE
100
AcDbEntity
  8
0
  6
HIDDEN
 62
     0
 48
3.0
370
    -2
100
AcDbBlockReference
  2
_Open30
 10
-300.9862529203285
 20
1754.629341585587
 30
0.0
 41
8.0
 42
8.0
 43
8.0
 50
180.0
  0
MTEXT
  5
2BBD
330
23BE
100
AcDbEntity
  8
0
  6
HIDDEN
 62
     0
 48
3.0
100
AcDbMText
 10
-231.730834677413
 20
1761.629341585587
 30
0.0
 40
8.0
 41
0.0
 71
     5
 72
     1
  1
\A1;Ｅ
 73
     1
 44
1.0
1001
ACAD
1000
MTEXTBEGIN
1070
    73
1070
     1
1070
    44
1040
1.0
1070
    74
1070
     0
1000
MTEXTEND
  0
POINT
  5
2BBE
330
23BE
100
AcDbEntity
  8
Defpoints
  6
HIDDEN
 62
     0
 48
3.0
100
AcDbPoint
 10
-309.1862529203283
 20
1746.03832281814
 30
0.0
  0
POINT
  5
2BBF
330
23BE
100
AcDbEntity
  8
Defpoints
  6
HIDDEN
 62
     0
 48
3.0
100
AcDbPoint
 10
-300.9862529203285
 20
1741.078386071906
 30
0.0
  0
POINT
  5
2BC0
330
23BE
100
AcDbEntity
  8
Defpoints
  6
HIDDEN
 62
     0
 48
3.0
100
AcDbPoint
 10
-300.9862529203285
 20
1754.629341585587
 30
0.0
  0
ENDBLK
  5
23CB
330
23BE
100
AcDbEntity
  8
0
100
AcDbBlockEnd
  0
BLOCK
  5
2416
330
240A
100
AcDbEntity
  8
0
100
AcDbBlockBegin
  2
*D20
 70
     1
 10
0.0
 20
0.0
 30
0.0
  3
*D20
  1

  0
LINE
  5
2B95
330
240A
100
AcDbEntity
  8
0
  6
HIDDEN
 62
     0
 48
3.0
370
    -2
100
AcDbLine
 10
-436.2862529203281
 20
1745.03832281814
 30
0.0
 11
-436.2862529203281
 21
1735.136566182477
 31
0.0
  0
LINE
  5
2B96
330
240A
100
AcDbEntity
  8
0
  6
HIDDEN
 62
     0
 48
3.0
370
    -2
100
AcDbLine
 10
-428.0862529203282
 20
1740.078386071906
 30
0.0
 11
-428.0862529203282
 21
1735.136566182477
 31
0.0
  0
LINE
  5
2B97
330
240A
100
AcDbEntity
  8
0
  6
HIDDEN
 62
     0
 48
3.0
370
    -2
100
AcDbLine
 10
-420.0862529203281
 20
1736.136566182477
 30
0.0
 11
-412.0862529203283
 21
1736.136566182477
 31
0.0
  0
LINE
  5
2B98
330
240A
100
AcDbEntity
  8
0
  6
HIDDEN
 62
     0
 48
3.0
370
    -2
100
AcDbLine
 10
-444.2862529203281
 20
1736.136566182477
 30
0.0
 11
-507.0475475110248
 21
1736.136566182477
 31
0.0
  0
LINE
  5
2B99
330
240A
100
AcDbEntity
  8
0
  6
HIDDEN
 62
     0
 48
3.0
370
    -2
100
AcDbLine
 10
-428.0862529203282
 20
1736.136566182477
 30
0.0
 11
-436.2862529203281
 21
1736.136566182477
 31
0.0
  0
INSERT
  5
2B9A
330
240A
100
AcDbEntity
  8
0
  6
HIDDEN
 62
     0
 48
3.0
370
    -2
100
AcDbBlockReference
  2
_Open30
 10
-428.0862529203282
 20
1736.136566182477
 30
0.0
 41
8.0
 42
8.0
 43
8.0
 50
180.0
  0
INSERT
  5
2B9B
330
240A
100
AcDbEntity
  8
0
  6
HIDDEN
 62
     0
 48
3.0
370
    -2
100
AcDbBlockReference
  2
_Open30
 10
-436.2862529203281
 20
1736.136566182477
 30
0.0
 41
8.0
 42
8.0
 43
8.0
  0
MTEXT
  5
2B9C
330
240A
100
AcDbEntity
  8
0
  6
HIDDEN
 62
     0
 48
3.0
100
AcDbMText
 10
-501.0018622318368
 20
1743.136566182477
 30
0.0
 40
8.0
 41
0.0
 71
     5
 72
     1
  1
\A1;Ｅ
 73
     1
 44
1.0
1001
ACAD
1000
MTEXTBEGIN
1070
    73
1070
     1
1070
    44
1040
1.0
1070
    74
1070
     0
1000
MTEXTEND
  0
POINT
  5
2B9D
330
240A
100
AcDbEntity
  8
Defpoints
  6
HIDDEN
 62
     0
 48
3.0
100
AcDbPoint
 10
-436.2862529203281
 20
1746.03832281814
 30
0.0
  0
POINT
  5
2B9E
330
240A
100
AcDbEntity
  8
Defpoints
  6
HIDDEN
 62
     0
 48
3.0
100
AcDbPoint
 10
-428.0862529203282
 20
1741.078386071906
 30
0.0
  0
POINT
  5
2B9F
330
240A
100
AcDbEntity
  8
Defpoints
  6
HIDDEN
 62
     0
 48
3.0
100
AcDbPoint
 10
-428.0862529203282
 20
1736.136566182477
 30
0.0
  0
ENDBLK
  5
2417
330
240A
100
AcDbEntity
  8
0
100
AcDbBlockEnd
  0
BLOCK
  5
242F
330
2423
100
AcDbEntity
  8
0
100
AcDbBlockBegin
  2
*D21
 70
     1
 10
0.0
 20
0.0
 30
0.0
  3
*D21
  1

  0
LINE
  5
2B46
330
2423
100
AcDbEntity
  8
0
  6
HIDDEN
 62
     0
 48
3.0
370
    -2
100
AcDbLine
 10
-237.6486743472579
 20
1716.997530778329
 30
0.0
 11
-224.5287580167508
 21
1716.997530778329
 31
0.0
  0
LINE
  5
2B47
330
2423
100
AcDbEntity
  8
0
  6
HIDDEN
 62
     0
 48
3.0
370
    -2
100
AcDbLine
 10
-242.6079245685537
 20
1708.801757337169
 30
0.0
 11
-224.5287580167508
 21
1708.801757337169
 31
0.0
  0
LINE
  5
2B48
330
2423
100
AcDbEntity
  8
0
  6
HIDDEN
 62
     0
 48
3.0
370
    -2
100
AcDbLine
 10
-225.5287580167509
 20
1724.997530778329
 30
0.0
 11
-225.5287580167508
 21
1732.997530778329
 31
0.0
  0
LINE
  5
2B49
330
2423
100
AcDbEntity
  8
0
  6
HIDDEN
 62
     0
 48
3.0
370
    -2
100
AcDbLine
 10
-225.5287580167509
 20
1700.801757337169
 30
0.0
 11
-225.5287580167509
 21
1692.801757337169
 31
0.0
  0
LINE
  5
2B4A
330
2423
100
AcDbEntity
  8
0
  6
HIDDEN
 62
     0
 48
3.0
370
    -2
100
AcDbLine
 10
-233.5287580167509
 20
1665.861277737215
 30
0.0
 11
-225.5287580167509
 21
1665.861277737215
 31
0.0
  0
LINE
  5
2B4B
330
2423
100
AcDbEntity
  8
0
  6
HIDDEN
 62
     0
 48
3.0
370
    -2
100
AcDbLine
 10
-225.5287580167509
 20
1665.861277737215
 30
0.0
 11
-225.5287580167509
 21
1692.801757337169
 31
0.0
  0
MTEXT
  5
2B4C
330
2423
100
AcDbEntity
  8
0
  6
HIDDEN
 62
     0
 48
3.0
100
AcDbMText
 10
-239.2901793365481
 20
1665.861277737215
 30
0.0
 40
8.0
 41
0.0
 71
     5
 72
     1
  1
\A1;Ｆ
 11
0.9999999998476914
 21
-0.000017453292519
 31
0.0
 73
     1
 44
1.0
1001
ACAD
1000
MTEXTBEGIN
1070
    73
1070
     1
1070
    44
1040
1.0
1070
    74
1070
     0
1000
MTEXTEND
  0
LINE
  5
2B4D
330
2423
100
AcDbEntity
  8
0
  6
HIDDEN
 62
     0
 48
3.0
370
    -2
100
AcDbLine
 10
-225.5287580167509
 20
1716.997530778329
 30
0.0
 11
-225.5287580167509
 21
1708.801757337169
 31
0.0
  0
INSERT
  5
2B4E
330
2423
100
AcDbEntity
  8
0
  6
HIDDEN
 62
     0
 48
3.0
370
    -2
100
AcDbBlockReference
  2
_Open30
 10
-225.5287580167509
 20
1716.997530778329
 30
0.0
 41
8.0
 42
8.0
 43
8.0
 50
270.0
  0
INSERT
  5
2B4F
330
2423
100
AcDbEntity
  8
0
  6
HIDDEN
 62
     0
 48
3.0
370
    -2
100
AcDbBlockReference
  2
_Open30
 10
-225.5287580167509
 20
1708.801757337169
 30
0.0
 41
8.0
 42
8.0
 43
8.0
 50
90.0
  0
POINT
  5
2B50
330
2423
100
AcDbEntity
  8
Defpoints
  6
HIDDEN
 62
     0
 48
3.0
100
AcDbPoint
 10
-238.6486743472579
 20
1716.997530778329
 30
0.0
  0
POINT
  5
2B51
330
2423
100
AcDbEntity
  8
Defpoints
  6
HIDDEN
 62
     0
 48
3.0
100
AcDbPoint
 10
-243.6079245685537
 20
1708.801757337169
 30
0.0
  0
POINT
  5
2B52
330
2423
100
AcDbEntity
  8
Defpoints
  6
HIDDEN
 62
     0
 48
3.0
100
AcDbPoint
 10
-225.5287580167509
 20
1708.801757337169
 30
0.0
  0
ENDBLK
  5
2430
330
2423
100
AcDbEntity
  8
0
100
AcDbBlockEnd
  0
BLOCK
  5
26B2
330
26A8
100
AcDbEntity
  8
0
100
AcDbBlockBegin
  2
*D22
 70
     1
 10
0.0
 20
0.0
 30
0.0
  3
*D22
  1

  0
LINE
  5
2709
330
26A8
100
AcDbEntity
  8
Dims
 62
     0
370
    -2
100
AcDbLine
 10
-426.6227771898493
 20
1239.808988624515
 30
0.0
 11
-426.6227771898493
 21
1277.261019703377
 31
0.0
  0
LINE
  5
270A
330
26A8
100
AcDbEntity
  8
Dims
 62
     0
370
    -2
100
AcDbLine
 10
-408.6227771898493
 20
1267.986614380361
 30
0.0
 11
-408.6227771898493
 21
1277.261019703377
 31
0.0
  0
LINE
  5
270B
330
26A8
100
AcDbEntity
  8
Dims
 62
     0
370
    -2
100
AcDbLine
 10
-422.6227771898493
 20
1276.261019703377
 30
0.0
 11
-412.6227771898493
 21
1276.261019703377
 31
0.0
  0
INSERT
  5
270C
330
26A8
100
AcDbEntity
  8
Dims
 62
     0
370
    -2
100
AcDbBlockReference
  2
_Open30
 10
-426.6227771898493
 20
1276.261019703377
 30
0.0
 41
4.0
 42
4.0
 43
4.0
 50
180.0
  0
INSERT
  5
270D
330
26A8
100
AcDbEntity
  8
Dims
 62
     0
370
    -2
100
AcDbBlockReference
  2
_Open30
 10
-408.6227771898493
 20
1276.261019703377
 30
0.0
 41
4.0
 42
4.0
 43
4.0
  0
MTEXT
  5
270E
330
26A8
100
AcDbEntity
  8
Dims
 62
     0
100
AcDbMText
 10
-417.6227771898494
 20
1281.511019703377
 30
0.0
 40
7.5
 41
0.0
 71
     5
 72
     1
  1
\A1;{\fＭＳ Ｐゴシック|b0|i0|c128|p50;C}
 73
     1
 44
1.0
1001
ACAD
1000
MTEXTBEGIN
1070
    73
1070
     1
1070
    44
1040
1.0
1070
    74
1070
     0
1000
MTEXTEND
  0
POINT
  5
270F
330
26A8
100
AcDbEntity
  8
Defpoints
 62
     0
100
AcDbPoint
 10
-426.6227771898493
 20
1238.808988624515
 30
0.0
  0
POINT
  5
2710
330
26A8
100
AcDbEntity
  8
Defpoints
 62
     0
100
AcDbPoint
 10
-408.6227771898493
 20
1266.986614380361
 30
0.0
  0
POINT
  5
2711
330
26A8
100
AcDbEntity
  8
Defpoints
 62
     0
100
AcDbPoint
 10
-408.6227771898493
 20
1276.261019703377
 30
0.0
  0
ENDBLK
  5
26B3
330
26A8
100
AcDbEntity
  8
0
100
AcDbBlockEnd
  0
BLOCK
  5
26BE
330
26B4
100
AcDbEntity
  8
0
100
AcDbBlockBegin
  2
*D23
 70
     1
 10
0.0
 20
0.0
 30
0.0
  3
*D23
  1

  0
LINE
  5
2712
330
26B4
100
AcDbEntity
  8
Dims
 62
     0
370
    -2
100
AcDbLine
 10
-408.6227771898493
 20
1267.986614380361
 30
0.0
 11
-408.6227771898493
 21
1277.261019703377
 31
0.0
  0
LINE
  5
2713
330
26B4
100
AcDbEntity
  8
Dims
 62
     0
370
    -2
100
AcDbLine
 10
-377.6227771898494
 20
1239.808988624515
 30
0.0
 11
-377.6227771898494
 21
1277.261019703377
 31
0.0
  0
LINE
  5
2714
330
26B4
100
AcDbEntity
  8
Dims
 62
     0
370
    -2
100
AcDbLine
 10
-404.6227771898493
 20
1276.261019703377
 30
0.0
 11
-381.6227771898493
 21
1276.261019703377
 31
0.0
  0
INSERT
  5
2715
330
26B4
100
AcDbEntity
  8
Dims
 62
     0
370
    -2
100
AcDbBlockReference
  2
_Open30
 10
-408.6227771898493
 20
1276.261019703377
 30
0.0
 41
4.0
 42
4.0
 43
4.0
 50
180.0
  0
INSERT
  5
2716
330
26B4
100
AcDbEntity
  8
Dims
 62
     0
370
    -2
100
AcDbBlockReference
  2
_Open30
 10
-377.6227771898494
 20
1276.261019703377
 30
0.0
 41
4.0
 42
4.0
 43
4.0
  0
MTEXT
  5
2717
330
26B4
100
AcDbEntity
  8
Dims
 62
     0
100
AcDbMText
 10
-393.1227771898494
 20
1281.511019703377
 30
0.0
 40
7.5
 41
0.0
 71
     5
 72
     1
  1
\A1;{\fＭＳ Ｐゴシック|b0|i0|c128|p50;B}
 73
     1
 44
1.0
1001
ACAD
1000
MTEXTBEGIN
1070
    73
1070
     1
1070
    44
1040
1.0
1070
    74
1070
     0
1000
MTEXTEND
  0
POINT
  5
2718
330
26B4
100
AcDbEntity
  8
Defpoints
 62
     0
100
AcDbPoint
 10
-408.6227771898493
 20
1266.986614380361
 30
0.0
  0
POINT
  5
2719
330
26B4
100
AcDbEntity
  8
Defpoints
 62
     0
100
AcDbPoint
 10
-377.6227771898494
 20
1238.808988624515
 30
0.0
  0
POINT
  5
271A
330
26B4
100
AcDbEntity
  8
Defpoints
 62
     0
100
AcDbPoint
 10
-377.6227771898494
 20
1276.261019703377
 30
0.0
  0
ENDBLK
  5
26BF
330
26B4
100
AcDbEntity
  8
0
100
AcDbBlockEnd
  0
BLOCK
  5
26CA
330
26C0
100
AcDbEntity
  8
0
100
AcDbBlockBegin
  2
*D24
 70
     1
 10
0.0
 20
0.0
 30
0.0
  3
*D24
  1

  0
LINE
  5
271B
330
26C0
100
AcDbEntity
  8
Dims
 62
     0
370
    -2
100
AcDbLine
 10
-377.6227771898494
 20
1239.808988624515
 30
0.0
 11
-377.6227771898494
 21
1289.231961801223
 31
0.0
  0
LINE
  5
271C
330
26C0
100
AcDbEntity
  8
Dims
 62
     0
370
    -2
100
AcDbLine
 10
-426.6227771898493
 20
1239.808988624515
 30
0.0
 11
-426.6227771898493
 21
1289.231961801223
 31
0.0
  0
LINE
  5
271D
330
26C0
100
AcDbEntity
  8
Dims
 62
     0
370
    -2
100
AcDbLine
 10
-381.6227771898493
 20
1288.231961801223
 30
0.0
 11
-422.6227771898493
 21
1288.231961801223
 31
0.0
  0
INSERT
  5
271E
330
26C0
100
AcDbEntity
  8
Dims
 62
     0
370
    -2
100
AcDbBlockReference
  2
_Open30
 10
-377.6227771898494
 20
1288.231961801223
 30
0.0
 41
4.0
 42
4.0
 43
4.0
  0
INSERT
  5
271F
330
26C0
100
AcDbEntity
  8
Dims
 62
     0
370
    -2
100
AcDbBlockReference
  2
_Open30
 10
-426.6227771898493
 20
1288.231961801223
 30
0.0
 41
4.0
 42
4.0
 43
4.0
 50
180.0
  0
MTEXT
  5
2720
330
26C0
100
AcDbEntity
  8
Dims
 62
     0
100
AcDbMText
 10
-402.1227771898493
 20
1293.481961801223
 30
0.0
 40
7.5
 41
0.0
 71
     5
 72
     1
  1
\A1;{\fＭＳ Ｐゴシック|b0|i0|c128|p50;A}
 73
     1
 44
1.0
1001
ACAD
1000
MTEXTBEGIN
1070
    73
1070
     1
1070
    44
1040
1.0
1070
    74
1070
     0
1000
MTEXTEND
  0
POINT
  5
2721
330
26C0
100
AcDbEntity
  8
Defpoints
 62
     0
100
AcDbPoint
 10
-377.6227771898494
 20
1238.808988624515
 30
0.0
  0
POINT
  5
2722
330
26C0
100
AcDbEntity
  8
Defpoints
 62
     0
100
AcDbPoint
 10
-426.6227771898493
 20
1238.808988624515
 30
0.0
  0
POINT
  5
2723
330
26C0
100
AcDbEntity
  8
Defpoints
 62
     0
100
AcDbPoint
 10
-426.6227771898493
 20
1288.231961801223
 30
0.0
  0
ENDBLK
  5
26CB
330
26C0
100
AcDbEntity
  8
0
100
AcDbBlockEnd
  0
BLOCK
  5
26D5
330
26CC
100
AcDbEntity
  8
0
100
AcDbBlockBegin
  2
*D25
 70
     1
 10
0.0
 20
0.0
 30
0.0
  3
*D25
  1

  0
LINE
  5
2724
330
26CC
100
AcDbEntity
  8
Dims
 62
     0
370
    -2
100
AcDbLine
 10
-382.2175395927009
 20
1218.28316488491
 30
0.0
 11
-401.2995073060197
 21
1236.646477692607
 31
0.0
  0
LINE
  5
2725
330
26CC
100
AcDbEntity
  8
Dims
 62
     0
370
    -2
100
AcDbLine
 10
-409.9460470736792
 20
1244.967376084386
 30
0.0
 11
-412.8282269962321
 21
1247.741008881645
 31
0.0
  0
MTEXT
  5
2726
330
26CC
100
AcDbEntity
  8
Dims
 62
     0
370
    35
100
AcDbMText
 10
-381.4235039200978
 20
1224.80518541152
 30
0.0
 40
7.5
 41
0.0
 71
     5
 72
     1
  1
\A1;{\fＭＳ Ｐゴシック|b0|i0|c128|p50;F}
 11
0.7205449806382508
 21
-0.6934081993148214
 31
0.0
 73
     1
 44
1.0
1001
ACAD
1000
MTEXTBEGIN
1070
    73
1070
     1
1070
    44
1040
1.0
1070
    74
1070
     0
1000
MTEXTEND
  0
LINE
  5
2727
330
26CC
100
AcDbEntity
  8
Dims
 62
     0
370
    -2
100
AcDbLine
 10
-407.063867151126
 20
1242.193743287126
 30
0.0
 11
-404.1816872285727
 21
1239.420110489866
 31
0.0
  0
INSERT
  5
2728
330
26CC
100
AcDbEntity
  8
Dims
 62
     0
370
    -2
100
AcDbBlockReference
  2
_Open30
 10
-407.063867151126
 20
1242.193743287126
 30
0.0
 41
4.0
 42
4.0
 43
4.0
 50
316.0994933944402
  0
INSERT
  5
2729
330
26CC
100
AcDbEntity
  8
Dims
 62
     0
370
    -2
100
AcDbBlockReference
  2
_Open30
 10
-404.1816872285727
 20
1239.420110489866
 30
0.0
 41
4.0
 42
4.0
 43
4.0
 50
136.0994933944402
  0
POINT
  5
272A
330
26CC
100
AcDbEntity
  8
Defpoints
 62
     0
100
AcDbPoint
 10
-404.1816872285727
 20
1239.420110489866
 30
0.0
  0
POINT
  5
272B
330
26CC
100
AcDbEntity
  8
Defpoints
 62
     0
100
AcDbPoint
 10
-407.063867151126
 20
1242.193743287126
 30
0.0
  0
ENDBLK
  5
26D6
330
26CC
100
AcDbEntity
  8
0
100
AcDbBlockEnd
  0
BLOCK
  5
26E1
330
26D7
100
AcDbEntity
  8
0
100
AcDbBlockBegin
  2
*D26
 70
     1
 10
0.0
 20
0.0
 30
0.0
  3
*D26
  1

  0
LINE
  5
272C
330
26D7
100
AcDbEntity
  8
Dims
 62
     0
370
    -2
100
AcDbLine
 10
-427.6227771898493
 20
1238.808988624515
 30
0.0
 11
-436.5953937877613
 21
1238.808988624515
 31
0.0
  0
LINE
  5
272D
330
26D7
100
AcDbEntity
  8
Dims
 62
     0
370
    -2
100
AcDbLine
 10
-409.6227771898493
 20
1208.808988624515
 30
0.0
 11
-436.5953937877613
 21
1208.808988624515
 31
0.0
  0
LINE
  5
272E
330
26D7
100
AcDbEntity
  8
Dims
 62
     0
370
    -2
100
AcDbLine
 10
-435.5953937877614
 20
1234.808988624515
 30
0.0
 11
-435.5953937877614
 21
1212.808988624515
 31
0.0
  0
MTEXT
  5
272F
330
26D7
100
AcDbEntity
  8
Dims
 62
     0
100
AcDbMText
 10
-440.8173874795116
 20
1223.955009881394
 30
0.0
 40
7.5
 41
0.0
 71
     5
 72
     1
  1
\A1;{\fＭＳ Ｐゴシック|b0|i0|c128|p50;D}
 11
0.9999999998476914
 21
-0.000017453292519
 31
0.0
 73
     1
 44
1.0
1001
ACAD
1000
MTEXTBEGIN
1070
    73
1070
     1
1070
    44
1040
1.0
1070
    74
1070
     0
1000
MTEXTEND
  0
INSERT
  5
2730
330
26D7
100
AcDbEntity
  8
Dims
 62
     0
370
    -2
100
AcDbBlockReference
  2
_Open30
 10
-435.5953937877614
 20
1238.808988624515
 30
0.0
 41
4.0
 42
4.0
 43
4.0
 50
90.0
  0
INSERT
  5
2731
330
26D7
100
AcDbEntity
  8
Dims
 62
     0
370
    -2
100
AcDbBlockReference
  2
_Open30
 10
-435.5953937877614
 20
1208.808988624515
 30
0.0
 41
4.0
 42
4.0
 43
4.0
 50
270.0
  0
POINT
  5
2732
330
26D7
100
AcDbEntity
  8
Defpoints
 62
     0
100
AcDbPoint
 10
-426.6227771898493
 20
1238.808988624515
 30
0.0
  0
POINT
  5
2733
330
26D7
100
AcDbEntity
  8
Defpoints
 62
     0
100
AcDbPoint
 10
-408.6227771898493
 20
1208.808988624515
 30
0.0
  0
POINT
  5
2734
330
26D7
100
AcDbEntity
  8
Defpoints
 62
     0
100
AcDbPoint
 10
-435.5953937877614
 20
1208.808988624515
 30
0.0
  0
ENDBLK
  5
26E2
330
26D7
100
AcDbEntity
  8
0
100
AcDbBlockEnd
  0
BLOCK
  5
26ED
330
26E3
100
AcDbEntity
  8
0
100
AcDbBlockBegin
  2
*D27
 70
     1
 10
0.0
 20
0.0
 30
0.0
  3
*D27
  1

  0
LINE
  5
2735
330
26E3
100
AcDbEntity
  8
Dims
 62
     0
370
    -2
100
AcDbLine
 10
-368.6227771898494
 20
1239.806926888496
 30
0.0
 11
-368.6227771898494
 21
1277.261019703377
 31
0.0
  0
LINE
  5
2736
330
26E3
100
AcDbEntity
  8
Dims
 62
     0
370
    -2
100
AcDbLine
 10
-346.6227771898496
 20
1267.986614380361
 30
0.0
 11
-346.6227771898496
 21
1277.261019703377
 31
0.0
  0
LINE
  5
2737
330
26E3
100
AcDbEntity
  8
Dims
 62
     0
370
    -2
100
AcDbLine
 10
-364.6227771898494
 20
1276.261019703377
 30
0.0
 11
-350.6227771898496
 21
1276.261019703377
 31
0.0
  0
INSERT
  5
2738
330
26E3
100
AcDbEntity
  8
Dims
 62
     0
370
    -2
100
AcDbBlockReference
  2
_Open30
 10
-368.6227771898494
 20
1276.261019703377
 30
0.0
 41
4.0
 42
4.0
 43
4.0
 50
180.0
  0
INSERT
  5
2739
330
26E3
100
AcDbEntity
  8
Dims
 62
     0
370
    -2
100
AcDbBlockReference
  2
_Open30
 10
-346.6227771898496
 20
1276.261019703377
 30
0.0
 41
4.0
 42
4.0
 43
4.0
  0
MTEXT
  5
273A
330
26E3
100
AcDbEntity
  8
Dims
 62
     0
100
AcDbMText
 10
-357.6227771898495
 20
1281.511019703377
 30
0.0
 40
7.5
 41
0.0
 71
     5
 72
     1
  1
\A1;{\fＭＳ Ｐゴシック|b0|i0|c128|p50;G}
 73
     1
 44
1.0
1001
ACAD
1000
MTEXTBEGIN
1070
    73
1070
     1
1070
    44
1040
1.0
1070
    74
1070
     0
1000
MTEXTEND
  0
POINT
  5
273B
330
26E3
100
AcDbEntity
  8
Defpoints
 62
     0
100
AcDbPoint
 10
-368.6227771898494
 20
1238.806926888496
 30
0.0
  0
POINT
  5
273C
330
26E3
100
AcDbEntity
  8
Defpoints
 62
     0
100
AcDbPoint
 10
-346.6227771898496
 20
1266.986614380361
 30
0.0
  0
POINT
  5
273D
330
26E3
100
AcDbEntity
  8
Defpoints
 62
     0
100
AcDbPoint
 10
-346.6227771898496
 20
1276.261019703377
 30
0.0
  0
ENDBLK
  5
26EE
330
26E3
100
AcDbEntity
  8
0
100
AcDbBlockEnd
  0
BLOCK
  5
26F9
330
26EF
100
AcDbEntity
  8
0
100
AcDbBlockBegin
  2
*D28
 70
     1
 10
0.0
 20
0.0
 30
0.0
  3
*D28
  1

  0
LINE
  5
273E
330
26EF
100
AcDbEntity
  8
Dims
 62
     0
370
    -2
100
AcDbLine
 10
-346.6227771898496
 20
1267.986614380361
 30
0.0
 11
-346.6227771898496
 21
1277.261019703377
 31
0.0
  0
LINE
  5
273F
330
26EF
100
AcDbEntity
  8
Dims
 62
     0
370
    -2
100
AcDbLine
 10
-324.6227771898495
 20
1239.806926888496
 30
0.0
 11
-324.6227771898495
 21
1277.261019703377
 31
0.0
  0
LINE
  5
2740
330
26EF
100
AcDbEntity
  8
Dims
 62
     0
370
    -2
100
AcDbLine
 10
-342.6227771898496
 20
1276.261019703377
 30
0.0
 11
-328.6227771898495
 21
1276.261019703377
 31
0.0
  0
INSERT
  5
2741
330
26EF
100
AcDbEntity
  8
Dims
 62
     0
370
    -2
100
AcDbBlockReference
  2
_Open30
 10
-346.6227771898496
 20
1276.261019703377
 30
0.0
 41
4.0
 42
4.0
 43
4.0
 50
180.0
  0
INSERT
  5
2742
330
26EF
100
AcDbEntity
  8
Dims
 62
     0
370
    -2
100
AcDbBlockReference
  2
_Open30
 10
-324.6227771898495
 20
1276.261019703377
 30
0.0
 41
4.0
 42
4.0
 43
4.0
  0
MTEXT
  5
2743
330
26EF
100
AcDbEntity
  8
Dims
 62
     0
100
AcDbMText
 10
-335.6227771898496
 20
1281.511019703377
 30
0.0
 40
7.5
 41
0.0
 71
     5
 72
     1
  1
\A1;{\fＭＳ Ｐゴシック|b0|i0|c128|p50;G}
 73
     1
 44
1.0
1001
ACAD
1000
MTEXTBEGIN
1070
    73
1070
     1
1070
    44
1040
1.0
1070
    74
1070
     0
1000
MTEXTEND
  0
POINT
  5
2744
330
26EF
100
AcDbEntity
  8
Defpoints
 62
     0
100
AcDbPoint
 10
-346.6227771898496
 20
1266.986614380361
 30
0.0
  0
POINT
  5
2745
330
26EF
100
AcDbEntity
  8
Defpoints
 62
     0
100
AcDbPoint
 10
-324.6227771898495
 20
1238.806926888496
 30
0.0
  0
POINT
  5
2746
330
26EF
100
AcDbEntity
  8
Defpoints
 62
     0
100
AcDbPoint
 10
-324.6227771898495
 20
1276.261019703377
 30
0.0
  0
ENDBLK
  5
26FA
330
26EF
100
AcDbEntity
  8
0
100
AcDbBlockEnd
  0
BLOCK
  5
2707
330
26FB
100
AcDbEntity
  8
0
100
AcDbBlockBegin
  2
*D29
 70
     1
 10
0.0
 20
0.0
 30
0.0
  3
*D29
  1

  0
LINE
  5
2755
330
26FB
100
AcDbEntity
  8
Object
 62
     0
370
    -2
100
AcDbLine
 10
-348.6227771898492
 20
1267.196355050174
 30
0.0
 11
-348.6227771898492
 21
1259.04495643241
 31
0.0
  0
LINE
  5
2756
330
26FB
100
AcDbEntity
  8
Object
 62
     0
370
    -2
100
AcDbLine
 10
-344.6227771898492
 20
1264.776873710547
 30
0.0
 11
-344.6227771898492
 21
1259.04495643241
 31
0.0
  0
LINE
  5
2757
330
26FB
100
AcDbEntity
  8
Object
 62
     0
370
    -2
100
AcDbLine
 10
-352.6227771898492
 20
1260.04495643241
 30
0.0
 11
-356.6227771898492
 21
1260.04495643241
 31
0.0
  0
LINE
  5
2758
330
26FB
100
AcDbEntity
  8
Object
 62
     0
370
    -2
100
AcDbLine
 10
-340.6227771898492
 20
1260.04495643241
 30
0.0
 11
-304.0921163857522
 21
1260.04495643241
 31
0.0
  0
LINE
  5
2759
330
26FB
100
AcDbEntity
  8
Object
 62
     0
370
    -2
100
AcDbLine
 10
-348.6227771898492
 20
1260.04495643241
 30
0.0
 11
-344.6227771898492
 21
1260.04495643241
 31
0.0
  0
INSERT
  5
275A
330
26FB
100
AcDbEntity
  8
Object
 62
     0
370
    -2
100
AcDbBlockReference
  2
_Open30
 10
-348.6227771898492
 20
1260.04495643241
 30
0.0
 41
4.0
 42
4.0
 43
4.0
  0
INSERT
  5
275B
330
26FB
100
AcDbEntity
  8
Object
 62
     0
370
    -2
100
AcDbBlockReference
  2
_Open30
 10
-344.6227771898492
 20
1260.04495643241
 30
0.0
 41
4.0
 42
4.0
 43
4.0
 50
180.0
  0
MTEXT
  5
275C
330
26FB
100
AcDbEntity
  8
Object
 62
     0
100
AcDbMText
 10
-308.4474463349907
 20
1265.29495643241
 30
0.0
 40
7.5
 41
0.0
 71
     5
 72
     1
  1
\A1;Ｅ
 73
     1
 44
1.0
1001
ACAD
1000
MTEXTBEGIN
1070
    73
1070
     1
1070
    44
1040
1.0
1070
    74
1070
     0
1000
MTEXTEND
  0
POINT
  5
275D
330
26FB
100
AcDbEntity
  8
Defpoints
 62
     0
100
AcDbPoint
 10
-348.6227771898492
 20
1268.196355050174
 30
0.0
  0
POINT
  5
275E
330
26FB
100
AcDbEntity
  8
Defpoints
 62
     0
100
AcDbPoint
 10
-344.6227771898492
 20
1265.776873710547
 30
0.0
  0
POINT
  5
275F
330
26FB
100
AcDbEntity
  8
Defpoints
 62
     0
100
AcDbPoint
 10
-344.6227771898492
 20
1260.04495643241
 30
0.0
  0
ENDBLK
  5
2708
330
26FB
100
AcDbEntity
  8
0
100
AcDbBlockEnd
  0
BLOCK
  5
2753
330
2747
100
AcDbEntity
  8
0
100
AcDbBlockBegin
  2
*D30
 70
     1
 10
0.0
 20
0.0
 30
0.0
  3
*D30
  1

  0
LINE
  5
2748
330
2747
100
AcDbEntity
  8
Object
 62
     0
370
    -2
100
AcDbLine
 10
-410.6227771898494
 20
1267.196355050174
 30
0.0
 11
-410.6227771898494
 21
1258.85474380313
 31
0.0
  0
LINE
  5
2749
330
2747
100
AcDbEntity
  8
Object
 62
     0
370
    -2
100
AcDbLine
 10
-406.6227771898493
 20
1264.776873710548
 30
0.0
 11
-406.6227771898493
 21
1258.85474380313
 31
0.0
  0
LINE
  5
274A
330
2747
100
AcDbEntity
  8
Object
 62
     0
370
    -2
100
AcDbLine
 10
-414.6227771898494
 20
1259.85474380313
 30
0.0
 11
-418.6227771898494
 21
1259.85474380313
 31
0.0
  0
LINE
  5
274B
330
2747
100
AcDbEntity
  8
Object
 62
     0
370
    -2
100
AcDbLine
 10
-402.6227771898493
 20
1259.85474380313
 30
0.0
 11
-385.4131912769834
 21
1259.85474380313
 31
0.0
  0
LINE
  5
274C
330
2747
100
AcDbEntity
  8
Object
 62
     0
370
    -2
100
AcDbLine
 10
-410.6227771898494
 20
1259.85474380313
 30
0.0
 11
-406.6227771898493
 21
1259.85474380313
 31
0.0
  0
INSERT
  5
274D
330
2747
100
AcDbEntity
  8
Object
 62
     0
370
    -2
100
AcDbBlockReference
  2
_Open30
 10
-410.6227771898494
 20
1259.85474380313
 30
0.0
 41
4.0
 42
4.0
 43
4.0
  0
INSERT
  5
274E
330
2747
100
AcDbEntity
  8
Object
 62
     0
370
    -2
100
AcDbBlockReference
  2
_Open30
 10
-406.6227771898493
 20
1259.85474380313
 30
0.0
 41
4.0
 42
4.0
 43
4.0
 50
180.0
  0
MTEXT
  5
274F
330
2747
100
AcDbEntity
  8
Object
 62
     0
100
AcDbMText
 10
-389.768521226222
 20
1265.10474380313
 30
0.0
 40
7.5
 41
0.0
 71
     5
 72
     1
  1
\A1;Ｅ
 73
     1
 44
1.0
1001
ACAD
1000
MTEXTBEGIN
1070
    73
1070
     1
1070
    44
1040
1.0
1070
    74
1070
     0
1000
MTEXTEND
  0
POINT
  5
2750
330
2747
100
AcDbEntity
  8
Defpoints
 62
     0
100
AcDbPoint
 10
-410.6227771898494
 20
1268.196355050174
 30
0.0
  0
POINT
  5
2751
330
2747
100
AcDbEntity
  8
Defpoints
 62
     0
100
AcDbPoint
 10
-406.6227771898493
 20
1265.776873710548
 30
0.0
  0
POINT
  5
2752
330
2747
100
AcDbEntity
  8
Defpoints
 62
     0
100
AcDbPoint
 10
-406.6227771898493
 20
1259.85474380313
 30
0.0
  0
ENDBLK
  5
2754
330
2747
100
AcDbEntity
  8
0
100
AcDbBlockEnd
  0
BLOCK
  5
276C
330
2760
100
AcDbEntity
  8
0
100
AcDbBlockBegin
  2
*D31
 70
     1
 10
0.0
 20
0.0
 30
0.0
  3
*D31
  1

  0
LINE
  5
276E
330
2760
100
AcDbEntity
  8
Object
 62
     0
370
    -2
100
AcDbLine
 10
-313.2142022761564
 20
1242.806926888496
 30
0.0
 11
-305.2978520351899
 21
1242.806926888496
 31
0.0
  0
LINE
  5
276F
330
2760
100
AcDbEntity
  8
Object
 62
     0
370
    -2
100
AcDbLine
 10
-315.633348725569
 20
1238.808988624515
 30
0.0
 11
-305.2978520351899
 21
1238.808988624515
 31
0.0
  0
LINE
  5
2770
330
2760
100
AcDbEntity
  8
Object
 62
     0
370
    -2
100
AcDbLine
 10
-306.2978520351899
 20
1246.806926888496
 30
0.0
 11
-306.2978520351899
 21
1250.806926888496
 31
0.0
  0
LINE
  5
2771
330
2760
100
AcDbEntity
  8
Object
 62
     0
370
    -2
100
AcDbLine
 10
-306.2978520351899
 20
1234.808988624515
 30
0.0
 11
-306.2978520351899
 21
1224.564402917858
 31
0.0
  0
LINE
  5
2772
330
2760
100
AcDbEntity
  8
Object
 62
     0
370
    -2
100
AcDbLine
 10
-306.2978520351899
 20
1242.806926888496
 30
0.0
 11
-306.2978520351899
 21
1238.808988624515
 31
0.0
  0
INSERT
  5
2773
330
2760
100
AcDbEntity
  8
Object
 62
     0
370
    -2
100
AcDbBlockReference
  2
_Open30
 10
-306.2978520351899
 20
1242.806926888496
 30
0.0
 41
4.0
 42
4.0
 43
4.0
 50
270.0
  0
INSERT
  5
2774
330
2760
100
AcDbEntity
  8
Object
 62
     0
370
    -2
100
AcDbBlockReference
  2
_Open30
 10
-306.2978520351899
 20
1238.808988624515
 30
0.0
 41
4.0
 42
4.0
 43
4.0
 50
90.0
  0
MTEXT
  5
2775
330
2760
100
AcDbEntity
  8
Object
 62
     0
100
AcDbMText
 10
-311.5478520359897
 20
1224.564402917858
 30
0.0
 40
7.5
 41
0.0
 71
     5
 72
     1
  1
\A1;Ｆ
 11
0.9999999998476914
 21
-0.000017453292519
 31
0.0
 73
     1
 44
1.0
1001
ACAD
1000
MTEXTBEGIN
1070
    73
1070
     1
1070
    44
1040
1.0
1070
    74
1070
     0
1000
MTEXTEND
  0
POINT
  5
2776
330
2760
100
AcDbEntity
  8
Defpoints
 62
     0
100
AcDbPoint
 10
-314.2142022761563
 20
1242.806926888496
 30
0.0
  0
POINT
  5
2777
330
2760
100
AcDbEntity
  8
Defpoints
 62
     0
100
AcDbPoint
 10
-316.633348725569
 20
1238.808988624515
 30
0.0
  0
POINT
  5
2778
330
2760
100
AcDbEntity
  8
Defpoints
 62
     0
100
AcDbPoint
 10
-306.2978520351899
 20
1238.808988624515
 30
0.0
  0
ENDBLK
  5
276D
330
2760
100
AcDbEntity
  8
0
100
AcDbBlockEnd
  0
ENDSEC
  0
SECTION
  2
ENTITIES
  0
LINE
  5
1141
330
1F
100
AcDbEntity
  8
作図線
100
AcDbLine
 10
-470.6257750308004
 20
1751.980605902074
 30
0.0
 11
279.3742249691996
 21
1751.980605902073
 31
0.0
  0
LINE
  5
1142
330
1F
100
AcDbEntity
  8
一時線
100
AcDbLine
 10
-470.6257750308004
 20
1801.980605902073
 30
0.0
 11
279.3742249691996
 21
1801.980605902073
 31
0.0
  0
LINE
  5
1143
330
1F
100
AcDbEntity
  8
一時線
100
AcDbLine
 10
-470.6257750308004
 20
1831.980605902074
 30
0.0
 11
279.3742249691996
 21
1831.980605902073
 31
0.0
  0
LINE
  5
1144
330
1F
100
AcDbEntity
  8
一時線
100
AcDbLine
 10
-470.6257750308004
 20
1861.980605902073
 30
0.0
 11
279.3742249691996
 21
1861.980605902073
 31
0.0
  0
LINE
  5
1145
330
1F
100
AcDbEntity
  8
作図線
100
AcDbLine
 10
-470.6257750308004
 20
1501.980605902074
 30
0.0
 11
279.3742249691995
 21
1501.980605902073
 31
0.0
  0
LINE
  5
1146
330
1F
100
AcDbEntity
  8
一時線
100
AcDbLine
 10
-470.6257750308004
 20
1551.980605902073
 30
0.0
 11
279.3742249691995
 21
1551.980605902073
 31
0.0
  0
LINE
  5
1147
330
1F
100
AcDbEntity
  8
一時線
100
AcDbLine
 10
-470.6257750308004
 20
1581.980605902074
 30
0.0
 11
279.3742249691995
 21
1581.980605902073
 31
0.0
  0
LINE
  5
1148
330
1F
100
AcDbEntity
  8
一時線
100
AcDbLine
 10
-470.6257750308004
 20
1611.980605902073
 30
0.0
 11
279.3742249691995
 21
1611.980605902073
 31
0.0
  0
LINE
  5
1149
330
1F
100
AcDbEntity
  8
中心線
100
AcDbLine
 10
-470.6257750308004
 20
1861.980605902073
 30
0.0
 11
-470.6257750308004
 21
1401.980605902074
 31
0.0
  0
LINE
  5
114B
330
1F
100
AcDbEntity
  8
中心線
100
AcDbLine
 10
-240.6257750308005
 20
1861.980605902073
 30
0.0
 11
-240.6257750308005
 21
1401.980605902074
 31
0.0
  0
LINE
  5
114D
330
1F
100
AcDbEntity
  8
中心線
100
AcDbLine
 10
-10.62577503080041
 20
1861.980605902073
 30
0.0
 11
-10.62577503080041
 21
1401.980605902074
 31
0.0
  0
LINE
  5
114F
330
1F
100
AcDbEntity
  8
作図線
100
AcDbLine
 10
279.3742249691996
 20
1861.980605902073
 30
0.0
 11
279.3742249691996
 21
1401.980605902073
 31
0.0
  0
LINE
  5
1CC6
330
1F
100
AcDbEntity
  8
一時線
100
AcDbLine
 10
-470.6257750308004
 20
1661.980605902073
 30
0.0
 11
279.3742249691995
 21
1661.980605902073
 31
0.0
  0
LINE
  5
1CC7
330
1F
100
AcDbEntity
  8
一時線
100
AcDbLine
 10
-470.6257750308004
 20
1691.980605902073
 30
0.0
 11
279.3742249691995
 21
1691.980605902073
 31
0.0
  0
LINE
  5
1CC8
330
1F
100
AcDbEntity
  8
一時線
100
AcDbLine
 10
-470.6257750308004
 20
1721.980605902073
 30
0.0
 11
279.3742249691995
 21
1721.980605902073
 31
0.0
  0
LINE
  5
1E05
330
1F
100
AcDbEntity
  8
一時線
100
AcDbLine
 10
-470.6257750308004
 20
1651.980605902074
 30
0.0
 11
279.3742249691995
 21
1651.980605902073
 31
0.0
  0
LINE
  5
22FB
330
1F
100
AcDbEntity
  8
Object
100
AcDbLine
 39
8.199999999999999
 10
-349.1612529203286
 20
1704.697530778328
 30
0.0
 11
-261.0112529203286
 21
1704.697530778328
 31
0.0
  0
LINE
  5
22FD
330
1F
100
AcDbEntity
  8
Object
100
AcDbLine
 39
8.199999999999999
 10
-350.1862529203285
 20
1708.797530778328
 30
0.0
 11
-287.6612529203267
 21
1708.797530778328
 31
0.0
  0
LINE
  5
22FE
330
1F
100
AcDbEntity
  8
Object
100
AcDbLine
 39
8.199999999999999
 10
-436.2862529203281
 20
1650.542015715535
 30
0.0
 11
-436.2862529203278
 21
1704.701757337168
 31
0.0
  0
LINE
  5
22FF
330
1F
100
AcDbEntity
  8
Object
100
AcDbLine
 39
8.199999999999999
 10
-428.0862529203282
 20
1650.542015715536
 30
0.0
 11
-428.0862529203279
 21
1704.701757337168
 31
0.0
  0
LINE
  5
2300
330
1F
100
AcDbEntity
  8
Object
100
AcDbLine
 39
8.199999999999999
 10
-439.3612529203282
 20
1657.551757337169
 30
0.0
 11
-439.3612529203282
 21
1704.701757337168
 31
0.0
  0
LINE
  5
2301
330
1F
100
AcDbEntity
  8
Object
100
AcDbLine
 39
8.199999999999999
 10
-425.0112529203282
 20
1657.551757337169
 30
0.0
 11
-425.0112529203282
 21
1704.701757337168
 31
0.0
  0
LINE
  5
2302
330
1F
100
AcDbEntity
  8
Object
100
AcDbLine
 39
8.199999999999999
 10
-439.3612529203282
 20
1657.551757337169
 30
0.0
 11
-435.9408758265376
 21
1649.754697279925
 31
0.0
  0
LINE
  5
2303
330
1F
100
AcDbEntity
  8
Object
100
AcDbLine
 39
8.199999999999999
 10
-425.0112529203282
 20
1657.551757337169
 30
0.0
 11
-428.4316300141191
 21
1649.754697279925
 31
0.0
  0
ARC
  5
2304
330
1F
100
AcDbEntity
  8
Object
100
AcDbCircle
 39
8.199999999999999
 10
-432.1862529203282
 20
1651.401757337169
 30
0.0
 40
4.099999999999996
100
AcDbArc
 50
203.6858710572444
 51
336.3141289427556
  0
LINE
  5
2305
330
1F
100
AcDbEntity
  8
Object
100
AcDbLine
 39
8.199999999999999
 10
-436.2862529203281
 20
1663.701757337169
 30
0.0
 11
-428.0862529203282
 21
1663.701757337169
 31
0.0
  0
ARC
  5
2306
330
1F
100
AcDbEntity
  8
Object
100
AcDbCircle
 39
8.199999999999999
 10
-416.7138651714932
 20
1728.276757337168
 30
0.0
 40
1.024999999999999
100
AcDbArc
 50
5.71059313750147
 51
90.0
  0
LINE
  5
2307
330
1F
100
AcDbEntity
  8
Object
100
AcDbLine
 39
8.199999999999999
 10
-415.6939520515281
 20
1728.378748649166
 30
0.0
 11
-413.7362529203282
 21
1708.801757337169
 31
0.0
  0
LINE
  5
2308
102
{ACAD_REACTORS
330
2B94
102
}
330
1F
100
AcDbEntity
  8
Object
100
AcDbLine
 39
8.199999999999999
 10
-469.0862529203283
 20
1708.801757337169
 30
0.0
 11
-368.6362529203283
 21
1708.801757337169
 31
0.0
  0
LINE
  5
2309
330
1F
100
AcDbEntity
  8
Object
100
AcDbLine
 39
8.199999999999999
 10
-416.8112529203282
 20
1704.701757337168
 30
0.0
 11
-370.2192706631898
 21
1704.701757337168
 31
0.0
  0
LINE
  5
230A
330
1F
100
AcDbEntity
  8
Object
100
AcDbLine
 39
8.199999999999999
 10
-425.0112529203282
 20
1694.451757337169
 30
0.0
 11
-373.1920417523121
 21
1700.513110947409
 31
0.0
  0
LINE
  5
230C
102
{ACAD_REACTORS
330
2C1E
102
}
330
1F
100
AcDbEntity
  8
Object
 62
     0
370
    35
100
AcDbLine
 39
8.199999999999999
 10
-428.0862529203282
 20
1716.448234933845
 30
0.0
 11
-428.0862529203282
 21
1741.078386071906
 31
0.0
  0
LINE
  5
230D
102
{ACAD_REACTORS
330
2362
330
2C1E
102
}
330
1F
100
AcDbEntity
  8
Object
100
AcDbLine
 39
8.199999999999999
 10
-436.2862529203281
 20
1728.712831311959
 30
0.0
 11
-436.2862529203281
 21
1746.03832281814
 31
0.0
  0
LINE
  5
230E
330
1F
100
AcDbEntity
  8
Object
100
AcDbLine
 39
8.199999999999999
 10
-467.5032351774667
 20
1704.701757337168
 30
0.0
 11
-416.8112529203282
 21
1704.701757337168
 31
0.0
  0
LINE
  5
230F
330
1F
100
AcDbEntity
  8
Object
100
AcDbLine
 39
8.199999999999999
 10
-464.6324954302578
 20
1700.446195008005
 30
0.0
 11
-439.3612529203282
 21
1694.451757337169
 31
0.0
  0
LINE
  5
2310
330
1F
100
AcDbEntity
  8
Object
100
AcDbLine
 39
8.199999999999999
 10
-469.0862529203282
 20
1708.801757337169
 30
0.0
 11
-468.5126631243043
 21
1705.54876795506
 31
0.0
  0
ARC
  5
2311
330
1F
100
AcDbEntity
  8
Object
100
AcDbCircle
 39
8.199999999999999
 10
-467.5032351774667
 20
1705.726757337168
 30
0.0
 40
1.024999999999999
100
AcDbArc
 50
190.0000000000034
 51
270.0
  0
POINT
  5
2312
330
1F
100
AcDbEntity
  8
Object
100
AcDbPoint
 10
-464.6324954302578
 20
1700.446195008005
 30
0.0
 39
8.199999999999999
  0
LINE
  5
2313
330
1F
100
AcDbEntity
  8
Object
100
AcDbLine
 39
8.199999999999999
 10
-466.0112529203281
 20
1704.701757337168
 30
0.0
 11
-465.4053536707682
 21
1701.26553193862
 31
0.0
  0
ARC
  5
2314
330
1F
100
AcDbEntity
  8
Object
100
AcDbCircle
 39
8.199999999999999
 10
-464.3959257239306
 20
1701.443521320729
 30
0.0
 40
1.024999999999999
100
AcDbArc
 50
190.0000000000034
 51
256.6558412158018
  0
LINE
  5
2315
330
1F
100
AcDbEntity
  8
Object
100
AcDbLine
 39
8.199999999999999
 10
-415.7862529203281
 20
1708.801757337169
 30
0.0
 11
-415.7862529203281
 21
1705.726757337168
 31
0.0
  0
LINE
  5
2316
330
1F
100
AcDbEntity
  8
Object
100
AcDbLine
 39
8.199999999999999
 10
-436.2862529203281
 20
1708.801757337169
 30
0.0
 11
-436.2862529203281
 21
1705.726757337168
 31
0.0
  0
ARC
  5
2317
330
1F
100
AcDbEntity
  8
Object
100
AcDbCircle
 39
8.199999999999999
 10
-435.2612529203282
 20
1705.726757337168
 30
0.0
 40
1.024999999999999
100
AcDbArc
 50
180.0
 51
270.0
  0
ARC
  5
2318
330
1F
100
AcDbEntity
  8
Object
100
AcDbCircle
 39
8.199999999999999
 10
-416.8112529203282
 20
1705.726757337168
 30
0.0
 40
1.024999999999999
100
AcDbArc
 50
270.0
 51
0.0
  0
LINE
  5
2319
102
{ACAD_REACTORS
330
2C1E
102
}
330
1F
100
AcDbEntity
  8
Object
100
AcDbLine
 39
8.199999999999999
 10
-435.3586406691634
 20
1729.301757337168
 30
0.0
 11
-430.4437529203282
 21
1729.301757337168
 31
0.0
  0
ARC
  5
231A
102
{ACAD_REACTORS
330
2C1E
102
}
330
1F
100
AcDbEntity
  8
Object
100
AcDbCircle
 39
8.199999999999999
 10
-435.3586406691634
 20
1728.276757337168
 30
0.0
 40
1.024999999999999
100
AcDbArc
 50
90.0
 51
174.2894068624985
  0
LINE
  5
231B
330
1F
100
AcDbEntity
  8
Object
100
AcDbLine
 39
8.199999999999999
 10
-436.3785537891287
 20
1728.378748649166
 30
0.0
 11
-438.3362529203282
 21
1708.801757337169
 31
0.0
  0
ARC
  5
231C
330
1F
100
AcDbEntity
  8
Object
100
AcDbCircle
 39
8.199999999999999
 10
-430.4437529203282
 20
1717.190864907515
 30
0.0
 40
2.049999999999998
100
AcDbArc
 50
315.7799555723225
 51
0.0
  0
CIRCLE
  5
231D
102
{ACAD_REACTORS
330
2B94
102
}
330
1F
100
AcDbEntity
  8
Object
100
AcDbCircle
 39
8.199999999999999
 10
-426.0362529203281
 20
1712.897530778329
 30
0.0
 40
4.099999999999996
  0
LINE
  5
231E
330
1F
100
AcDbEntity
  8
Object
100
AcDbLine
 39
8.199999999999999
 10
-428.3937529203281
 20
1727.251757337168
 30
0.0
 11
-428.3937529203281
 21
1717.190864907515
 31
0.0
  0
LINE
  5
231F
330
1F
100
AcDbEntity
  8
Object
100
AcDbLine
 39
8.199999999999999
 10
-423.6787529203282
 20
1727.251757337168
 30
0.0
 11
-423.6787529203282
 21
1717.190864907515
 31
0.0
  0
LINE
  5
2320
330
1F
100
AcDbEntity
  8
Object
100
AcDbLine
 39
8.199999999999999
 10
-421.6287529203284
 20
1729.301757337168
 30
0.0
 11
-416.7138651714932
 21
1729.301757337168
 31
0.0
  0
ARC
  5
2321
102
{ACAD_REACTORS
330
2C1E
102
}
330
1F
100
AcDbEntity
  8
Object
100
AcDbCircle
 39
8.199999999999999
 10
-430.4437529203282
 20
1727.251757337168
 30
0.0
 40
2.049999999999998
100
AcDbArc
 50
0.0
 51
90.0
  0
ARC
  5
2322
330
1F
100
AcDbEntity
  8
Object
100
AcDbCircle
 39
8.199999999999999
 10
-421.6287529203284
 20
1727.251757337168
 30
0.0
 40
2.049999999999998
100
AcDbArc
 50
90.0
 51
180.0
  0
ARC
  5
2323
330
1F
100
AcDbEntity
  8
Object
100
AcDbCircle
 39
8.199999999999999
 10
-421.6287529203284
 20
1717.190864907515
 30
0.0
 40
2.049999999999998
100
AcDbArc
 50
180.0
 51
224.2200444276772
  0
LINE
  5
2324
330
1F
100
AcDbEntity
  8
Object
100
AcDbLine
 39
8.199999999999999
 10
-350.1862529203287
 20
1708.797530778328
 30
0.0
 11
-350.1862529203287
 21
1705.722530778329
 31
0.0
  0
LINE
  5
2325
330
1F
100
AcDbEntity
  8
Object
100
AcDbLine
 39
8.199999999999999
 10
-368.6362529203283
 20
1708.801757337169
 30
0.0
 11
-369.2098427163524
 21
1705.54876795506
 31
0.0
  0
ARC
  5
2326
330
1F
100
AcDbEntity
  8
Object
100
AcDbCircle
 39
8.199999999999999
 10
-370.2192706631898
 20
1705.726757337168
 30
0.0
 40
1.024999999999999
100
AcDbArc
 50
270.0
 51
349.9999999999965
  0
ARC
  5
2327
330
1F
100
AcDbEntity
  8
Object
100
AcDbCircle
 39
8.199999999999999
 10
-373.3111253006627
 20
1701.531169938094
 30
0.0
 40
1.024999999999999
100
AcDbArc
 50
276.6716367551362
 51
349.9999999999965
  0
LINE
  5
2328
330
1F
100
AcDbEntity
  8
Object
100
AcDbLine
 39
8.199999999999999
 10
-371.7112529203283
 20
1704.701757337168
 30
0.0
 11
-372.3016973538253
 21
1701.353180555984
 31
0.0
  0
ARC
  5
2329
330
1F
100
AcDbEntity
  8
Object
100
AcDbCircle
 39
8.199999999999999
 10
-349.1612529203286
 20
1705.722530778329
 30
0.0
 40
1.024999999999999
100
AcDbArc
 50
180.0
 51
270.0
  0
LINE
  5
232A
330
1F
100
AcDbEntity
  8
Object
100
AcDbLine
 39
8.199999999999999
 10
-312.2612529203286
 20
1647.297530778329
 30
0.0
 11
-312.2612529203286
 21
1704.697530778328
 31
0.0
  0
LINE
  5
232B
330
1F
100
AcDbEntity
  8
Object
100
AcDbLine
 39
8.199999999999999
 10
-297.9112529203284
 20
1647.297530778329
 30
0.0
 11
-297.9112529203285
 21
1704.697530778328
 31
0.0
  0
ELLIPSE
  5
232C
330
1F
100
AcDbEntity
  8
Object
100
AcDbEllipse
 10
-305.0862529203284
 20
1647.297530778329
 30
0.0
 11
0.0
 21
10.25
 31
0.0
210
0.0
220
0.0
230
1.0
 40
0.7000000000000055
 41
4.712388980384688
 42
7.853981633974482
  0
LINE
  5
232D
330
1F
100
AcDbEntity
  8
Object
100
AcDbLine
 39
8.199999999999999
 10
-300.9862529203283
 20
1647.297530778329
 30
0.0
 11
-297.9112529203285
 21
1647.297530778329
 31
0.0
  0
LINE
  5
232E
330
1F
100
AcDbEntity
  8
Object
100
AcDbLine
 39
8.199999999999999
 10
-309.1862529203287
 20
1647.297530778329
 30
0.0
 11
-312.2612529203286
 21
1647.297530778329
 31
0.0
  0
ARC
  5
232F
330
1F
100
AcDbEntity
  8
Object
100
AcDbCircle
 39
8.199999999999999
 10
-305.0862529203286
 20
1646.323731021563
 30
0.0
 40
4.214058135132698
100
AcDbArc
 50
13.36087664611322
 51
166.6391233538867
  0
LINE
  5
2330
102
{ACAD_REACTORS
330
2B94
102
}
330
1F
100
AcDbEntity
  8
Object
100
AcDbLine
 39
8.199999999999999
 10
-281.511252920328
 20
1708.801757337169
 30
0.0
 11
-277.7285027472599
 21
1708.801757337169
 31
0.0
  0
LINE
  5
2331
102
{ACAD_REACTORS
330
2368
330
2B94
102
}
330
1F
100
AcDbEntity
  8
Object
100
AcDbLine
 39
8.199999999999999
 10
-281.511252920328
 20
1716.997530778329
 30
0.0
 11
-238.6486743472578
 21
1716.997530778329
 31
0.0
  0
LINE
  5
2332
102
{ACAD_REACTORS
330
2C1E
102
}
330
1F
100
AcDbEntity
  8
Object
100
AcDbLine
 39
8.199999999999999
 10
-309.1862529203285
 20
1716.997530778329
 30
0.0
 11
-309.1862529203283
 21
1746.03832281814
 31
0.0
  0
LINE
  5
2333
102
{ACAD_REACTORS
330
2C1E
102
}
330
1F
100
AcDbEntity
  8
Object
100
AcDbLine
 39
8.199999999999999
 10
-300.9862529203285
 20
1716.997530778329
 30
0.0
 11
-300.9862529203285
 21
1741.078386071906
 31
0.0
  0
LINE
  5
2334
330
1F
100
AcDbEntity
  8
Object
100
AcDbLine
 39
8.199999999999999
 10
-326.6043720051915
 20
1708.801757337169
 30
0.0
 11
-287.6612529203271
 21
1708.801757337169
 31
0.0
  0
LINE
  5
2335
102
{ACAD_REACTORS
330
2C1E
102
}
330
1F
100
AcDbEntity
  8
Object
100
AcDbLine
 39
8.199999999999999
 10
-322.5112529203286
 20
1716.997530778329
 30
0.0
 11
-287.6612529203271
 21
1716.997530778329
 31
0.0
  0
LINE
  5
2336
330
1F
100
AcDbEntity
  8
Object
100
AcDbLine
 39
8.199999999999999
 10
-327.8539933057677
 20
1702.472039557772
 30
0.0
 11
-312.2612529203287
 21
1699.082313387024
 31
0.0
  0
LINE
  5
2337
330
1F
100
AcDbEntity
  8
Object
100
AcDbLine
 39
8.199999999999999
 10
-322.5112529203287
 20
1704.697530778328
 30
0.0
 11
-322.5112529203286
 21
1729.297530778328
 31
0.0
  0
ARC
  5
2338
330
1F
100
AcDbEntity
  8
Object
100
AcDbCircle
 39
8.199999999999999
 10
-327.6362529203283
 20
1703.473645330793
 30
0.0
 40
1.024999999999999
100
AcDbArc
 50
180.0
 51
257.7352262721076
  0
LINE
  5
2339
330
1F
100
AcDbEntity
  8
Object
100
AcDbLine
 39
8.199999999999999
 10
-328.6612529203284
 20
1704.697530778328
 30
0.0
 11
-328.6612529203284
 21
1703.473645330793
 31
0.0
  0
LINE
  5
233A
330
1F
100
AcDbEntity
  8
Object
100
AcDbLine
 39
8.199999999999999
 10
-343.0112529203283
 20
1717.001757337168
 30
0.0
 11
-328.6612529203284
 21
1717.001757337168
 31
0.0
  0
LINE
  5
233B
330
1F
100
AcDbEntity
  8
Object
100
AcDbLine
 39
8.199999999999999
 10
-343.0112529203283
 20
1708.797530778328
 30
0.0
 11
-343.0112529203285
 21
1717.001757337168
 31
0.0
  0
LINE
  5
233C
330
1F
100
AcDbEntity
  8
Object
100
AcDbLine
 39
8.199999999999999
 10
-328.6612529203285
 20
1729.297530778328
 30
0.0
 11
-322.5112529203287
 21
1729.297530778328
 31
0.0
  0
LINE
  5
233D
330
1F
100
AcDbEntity
  8
Object
100
AcDbLine
 39
8.199999999999999
 10
-328.6612529203284
 20
1708.797530778328
 30
0.0
 11
-328.6612529203285
 21
1729.297530778328
 31
0.0
  0
LINE
  5
233E
330
1F
100
AcDbEntity
  8
Object
100
AcDbLine
 39
8.199999999999999
 10
-302.0112529203286
 20
1708.797530778328
 30
0.0
 11
-302.0112529203286
 21
1704.697530778328
 31
0.0
  0
LINE
  5
233F
330
1F
100
AcDbEntity
  8
Object
100
AcDbLine
 39
8.199999999999999
 10
-308.1612529203285
 20
1708.797530778328
 30
0.0
 11
-308.1612529203284
 21
1704.697530778328
 31
0.0
  0
LINE
  5
2340
330
1F
100
AcDbEntity
  8
Object
100
AcDbLine
 39
8.199999999999999
 10
-287.6612529203272
 20
1729.297530778328
 30
0.0
 11
-287.6612529203267
 21
1704.697530778328
 31
0.0
  0
LINE
  5
2341
102
{ACAD_REACTORS
330
2B94
102
}
330
1F
100
AcDbEntity
  8
Object
100
AcDbLine
 39
8.199999999999999
 10
-281.511252920328
 20
1729.297530778328
 30
0.0
 11
-281.511252920328
 21
1704.697530778328
 31
0.0
  0
LINE
  5
2342
330
1F
100
AcDbEntity
  8
Object
100
AcDbLine
 39
8.199999999999999
 10
-282.3185125348886
 20
1702.472039557772
 30
0.0
 11
-297.9112529203284
 21
1699.082313387024
 31
0.0
  0
ARC
  5
2343
330
1F
100
AcDbEntity
  8
Object
100
AcDbCircle
 39
8.199999999999999
 10
-305.5987529203286
 20
1695.472530778329
 30
0.0
 40
1.024999999999999
100
AcDbArc
 50
180.0
 51
270.0
  0
ARC
  5
2344
330
1F
100
AcDbEntity
  8
Object
100
AcDbCircle
 39
8.199999999999999
 10
-304.5737529203286
 20
1695.472530778329
 30
0.0
 40
1.024999999999999
100
AcDbArc
 50
270.0
 51
0.0
  0
LINE
  5
2345
330
1F
100
AcDbEntity
  8
Object
100
AcDbLine
 39
8.199999999999999
 10
-305.5987529203286
 20
1694.447530778328
 30
0.0
 11
-304.5737529203286
 21
1694.447530778328
 31
0.0
  0
ARC
  5
2346
330
1F
100
AcDbEntity
  8
Object
100
AcDbCircle
 39
8.199999999999999
 10
-305.5987529203286
 20
1701.622530778329
 30
0.0
 40
1.024999999999999
100
AcDbArc
 50
180.0
 51
270.0
  0
ARC
  5
2347
330
1F
100
AcDbEntity
  8
Object
100
AcDbCircle
 39
8.199999999999999
 10
-304.5737529203285
 20
1701.622530778329
 30
0.0
 40
1.024999999999999
100
AcDbArc
 50
270.0
 51
0.0
  0
LINE
  5
2348
330
1F
100
AcDbEntity
  8
Object
100
AcDbLine
 39
8.199999999999999
 10
-305.5987529203286
 20
1700.597530778329
 30
0.0
 11
-304.5737529203285
 21
1700.597530778329
 31
0.0
  0
LINE
  5
2349
330
1F
100
AcDbEntity
  8
Object
100
AcDbLine
 39
8.199999999999999
 10
-306.6237529203285
 20
1704.697530778328
 30
0.0
 11
-306.6237529203285
 21
1695.472530778329
 31
0.0
  0
LINE
  5
234A
330
1F
100
AcDbEntity
  8
Object
100
AcDbLine
 39
8.199999999999999
 10
-303.5487529203286
 20
1704.697530778328
 30
0.0
 11
-303.5487529203284
 21
1695.472530778329
 31
0.0
  0
ARC
  5
234B
330
1F
100
AcDbEntity
  8
Object
100
AcDbCircle
 39
8.199999999999999
 10
-282.536252920328
 20
1703.473645330793
 30
0.0
 40
1.024999999999999
100
AcDbArc
 50
282.2647737278924
 51
0.0
  0
LINE
  5
234C
330
1F
100
AcDbEntity
  8
Object
100
AcDbLine
 39
8.199999999999999
 10
-281.511252920328
 20
1704.697530778328
 30
0.0
 11
-281.511252920328
 21
1703.473645330793
 31
0.0
  0
LINE
  5
234D
330
1F
100
AcDbEntity
  8
Object
100
AcDbLine
 39
8.199999999999999
 10
-281.5112529203284
 20
1729.297530778328
 30
0.0
 11
-287.6612529203283
 21
1729.297530778328
 31
0.0
  0
LINE
  5
234E
102
{ACAD_REACTORS
330
2368
330
2B94
102
}
330
1F
100
AcDbEntity
  8
Object
100
AcDbLine
 39
8.199999999999999
 10
-273.454186962645
 20
1708.801757337169
 30
0.0
 11
-243.6079245685538
 21
1708.801757337169
 31
0.0
  0
LINE
  5
234F
330
1F
100
AcDbEntity
  8
Object
100
AcDbLine
 39
8.199999999999999
 10
-259.9862529203286
 20
1708.797530778328
 30
0.0
 11
-259.9862529203286
 21
1705.722530778329
 31
0.0
  0
ARC
  5
2350
330
1F
100
AcDbEntity
  8
Object
100
AcDbCircle
 39
8.199999999999999
 10
-261.0112529203286
 20
1705.722530778329
 30
0.0
 40
1.024999999999999
100
AcDbArc
 50
270.0
 51
0.0
  0
LINE
  5
2351
102
{ACAD_REACTORS
330
2B94
102
}
330
1F
100
AcDbEntity
  8
Object
100
AcDbLine
 39
8.199999999999999
 10
-277.7285027472599
 20
1708.797530778328
 30
0.0
 11
-259.9862529203286
 21
1708.797530778328
 31
0.0
  0
DIMENSION
  5
2352
330
1F
100
AcDbEntity
  8
0
  6
HIDDEN
 62
     0
 48
3.0
100
AcDbDimension
  2
*D12
 10
-432.1862529203278
 20
1754.629341585587
 30
0.0
 11
-450.6362529203279
 21
1761.629341585587
 31
0.0
 70
    32
  1
Ｃ
 71
     5
 42
36.90000000000026
  3
JIS
100
AcDbAlignedDimension
 13
-469.0862529203282
 23
1708.801757337169
 33
0.0
 14
-432.1862529203278
 24
1743.558354445022
 34
0.0
100
AcDbRotatedDimension
1001
ACAD
1000
DSTYLE
1002
{
1070
    41
1040
8.0
1070
   147
1040
3.0
1070
   140
1040
8.0
1002
}
  0
DIMENSION
  5
2353
330
1F
100
AcDbEntity
  8
0
  6
HIDDEN
 62
     0
 48
3.0
100
AcDbDimension
  2
*D13
 10
-368.6362529203283
 20
1754.629341585587
 30
0.0
 11
-400.4112529203285
 21
1761.629341585587
 31
0.0
 70
    32
  1
Ｂ
 71
     5
 42
63.55000000000064
  3
JIS
100
AcDbAlignedDimension
 13
-432.1862529203289
 23
1743.558354445023
 33
0.0
 14
-368.6362529203283
 24
1708.801757337169
 34
0.0
100
AcDbRotatedDimension
1001
ACAD
1000
DSTYLE
1002
{
1070
    41
1040
8.0
1070
   147
1040
3.0
1070
   140
1040
8.0
1070
   279
1070
     1
1002
}
  0
DIMENSION
  5
2354
330
1F
100
AcDbEntity
  8
0
  6
HIDDEN
 62
     0
 48
3.0
100
AcDbDimension
  2
*D14
 10
-469.0862529203282
 20
1767.565890136653
 30
0.0
 11
-418.8612529203282
 21
1774.565890136653
 31
0.0
 70
    32
  1
Ａ
 71
     5
 42
100.4499999999999
  3
JIS
100
AcDbAlignedDimension
 13
-368.6362529203283
 23
1708.801757337169
 33
0.0
 14
-469.0862529203282
 24
1708.801757337169
 34
0.0
100
AcDbRotatedDimension
1001
ACAD
1000
DSTYLE
1002
{
1070
    41
1040
8.0
1070
   147
1040
3.0
1070
   140
1040
8.0
1002
}
  0
DIMENSION
  5
2355
330
1F
100
AcDbEntity
  8
0
  6
HIDDEN
 62
     0
 48
3.0
370
    35
100
AcDbDimension
  2
*D15
 10
-427.8448983033263
 20
1716.577041870657
 30
0.0
 11
-388.7831464977086
 21
1665.10600861159
 31
0.0
 70
   163
  1
Ｆ
 71
     5
 42
8.2000000000005
 53
359.999
  3
JIS
100
AcDbDiametricDimension
 15
-424.2276075373307
 25
1709.218019686002
 35
0.0
 40
0.0
1001
ACAD
1000
DSTYLE
1002
{
1070
    41
1040
8.0
1070
   147
1040
3.0
1070
   140
1040
8.0
1070
   288
1070
     1
1002
}
  0
DIMENSION
  5
2356
330
1F
100
AcDbEntity
  8
0
  6
HIDDEN
 62
     0
 48
3.0
100
AcDbDimension
  2
*D16
 10
-487.480116946048
 20
1647.301757337169
 30
0.0
 11
-493.7672185944892
 21
1678.267711587103
 31
0.0
 70
   160
  1
Ｄ
 71
     5
 42
61.49999999999909
 53
359.999
  3
JIS
100
AcDbAlignedDimension
 13
-469.0862529203282
 23
1708.801757337169
 33
0.0
 14
-432.1862529203282
 24
1647.301757337169
 34
0.0
 50
90.0
100
AcDbRotatedDimension
1001
ACAD
1000
DSTYLE
1002
{
1070
    41
1040
8.0
1070
   147
1040
3.0
1070
   140
1040
8.0
1070
   279
1070
     2
1002
}
  0
DIMENSION
  5
2357
330
1F
100
AcDbEntity
  8
0
  6
HIDDEN
 62
     0
 48
3.0
100
AcDbDimension
  2
*D17
 10
-305.0862529203279
 20
1767.565890136653
 30
0.0
 11
-327.6362529203282
 21
1774.565890136653
 31
0.0
 70
    32
  1
Ｇ
 71
     5
 42
45.10000000000059
  3
JIS
100
AcDbAlignedDimension
 13
-350.1862529203285
 23
1708.797530778328
 33
0.0
 14
-305.0862529203279
 24
1743.558354445022
 34
0.0
100
AcDbRotatedDimension
1001
ACAD
1000
DSTYLE
1002
{
1070
    41
1040
8.0
1070
   147
1040
3.0
1070
   140
1040
8.0
1002
}
  0
DIMENSION
  5
2358
330
1F
100
AcDbEntity
  8
0
  6
HIDDEN
 62
     0
 48
3.0
100
AcDbDimension
  2
*D18
 10
-259.9862529203286
 20
1767.567398773016
 30
0.0
 11
-282.5362529203288
 21
1774.567398773015
 31
0.0
 70
    32
  1
Ｇ
 71
     5
 42
45.10000000000042
  3
JIS
100
AcDbAlignedDimension
 13
-305.086252920329
 23
1743.558354445023
 33
0.0
 14
-259.9862529203286
 24
1708.797530778328
 34
0.0
100
AcDbRotatedDimension
1001
ACAD
1000
DSTYLE
1002
{
1070
    41
1040
8.0
1070
   147
1040
3.0
1070
   140
1040
8.0
1070
   279
1070
     1
1002
}
  0
LINE
  5
2359
102
{ACAD_REACTORS
330
2C1E
102
}
330
1F
100
AcDbEntity
  8
Object
100
AcDbLine
 10
-428.3937529203281
 20
1727.251757337168
 30
0.0
 11
-428.0862529203282
 21
1727.251757337168
 31
0.0
  0
ARC
  5
235A
102
{ACAD_REACTORS
330
2C1E
102
}
330
1F
100
AcDbEntity
  8
Object
100
AcDbCircle
 10
-427.0612529203289
 20
1747.402104445023
 30
0.0
 40
6.406250000000325
100
AcDbArc
 50
216.8698976458557
 51
323.1301023541444
  0
ARC
  5
235B
102
{ACAD_REACTORS
330
2C1E
102
}
330
1F
100
AcDbEntity
  8
Object
100
AcDbCircle
 10
-437.3112529203289
 20
1739.714604445023
 30
0.0
 40
6.406250000000046
100
AcDbArc
 50
36.86989764583141
 51
143.1301023541443
  0
ARC
  5
235C
102
{ACAD_REACTORS
330
2C1E
102
}
330
1F
100
AcDbEntity
  8
Object
100
AcDbCircle
 10
-299.9612529203288
 20
1747.402104445023
 30
0.0
 40
6.406250000000325
100
AcDbArc
 50
216.8698976458557
 51
323.1301023541444
  0
ARC
  5
235D
102
{ACAD_REACTORS
330
2C1E
102
}
330
1F
100
AcDbEntity
  8
Object
100
AcDbCircle
 10
-310.2112529203288
 20
1739.714604445023
 30
0.0
 40
6.406250000000046
100
AcDbArc
 50
36.86989764583141
 51
143.1301023541443
  0
ARC
  5
235E
102
{ACAD_REACTORS
330
2368
330
2B94
102
}
330
1F
100
AcDbEntity
  8
Object
100
AcDbCircle
 10
-237.2848927203751
 20
1707.772530778328
 30
0.0
 40
6.406250000000325
100
AcDbArc
 50
126.8698976458488
 51
233.1301023541548
  0
ARC
  5
235F
102
{ACAD_REACTORS
330
2368
330
2B94
102
}
330
1F
100
AcDbEntity
  8
Object
100
AcDbCircle
 10
-244.9723927203751
 20
1718.022530778329
 30
0.0
 40
6.406250000000046
100
AcDbArc
 50
306.8698976458453
 51
53.13010235415479
  0
DIMENSION
  5
2360
102
{ACAD_XDICTIONARY
360
2361
102
}
102
{ACAD_REACTORS
330
2362
102
}
330
1F
100
AcDbEntity
  8
0
  6
HIDDEN
 48
3.0
100
AcDbDimension
  2
*D20
 10
-428.0862529203282
 20
1736.136566182477
 30
0.0
 11
-501.0018622318368
 21
1736.136566182477
 31
0.0
 70
   160
  1
Ｅ
 71
     5
 42
8.199999999999931
  3
JIS
100
AcDbAlignedDimension
 13
-436.2862529203281
 23
1746.03832281814
 33
0.0
 14
-428.0862529203282
 24
1741.078386071906
 34
0.0
100
AcDbRotatedDimension
1001
ACAD
1000
DSTYLE
1002
{
1070
    41
1040
8.0
1070
   147
1040
3.0
1070
   140
1040
8.0
1002
}
  0
DIMENSION
  5
2363
330
1F
100
AcDbEntity
  8
0
  6
HIDDEN
 48
3.0
100
AcDbDimension
  2
*D19
 10
-300.9862529203285
 20
1754.629341585587
 30
0.0
 11
-231.730834677413
 21
1754.629341585587
 31
0.0
 70
   160
  1
Ｅ
 71
     5
 42
8.199999999999873
  3
JIS
100
AcDbAlignedDimension
 13
-309.1862529203283
 23
1746.03832281814
 33
0.0
 14
-300.9862529203285
 24
1741.078386071906
 34
0.0
100
AcDbRotatedDimension
1001
ACAD
1000
DSTYLE
1002
{
1070
    41
1040
8.0
1070
   147
1040
3.0
1070
   140
1040
8.0
1002
}
  0
MTEXT
  5
2364
330
1F
100
AcDbEntity
  8
Object
100
AcDbMText
 10
-512.8436295697805
 20
1734.327494289139
 30
0.0
 40
8.0
 41
76.08268013859259
 71
     1
 72
     5
  1
（横鉄筋）
 73
     1
 44
1.0
1001
ACAD
1000
MTEXTBEGIN
1070
    73
1070
     1
1070
    44
1040
1.0
1070
    74
1070
     0
1000
MTEXTEND
  0
MTEXT
  5
2365
330
1F
100
AcDbEntity
  8
Object
100
AcDbMText
 10
-251.8989598349491
 20
1753.634449190687
 30
0.0
 40
8.0
 41
76.08268013859259
 71
     1
 72
     5
  1
（横鉄筋）
 73
     1
 44
1.0
1001
ACAD
1000
MTEXTBEGIN
1070
    73
1070
     1
1070
    44
1040
1.0
1070
    74
1070
     0
1000
MTEXTEND
  0
DIMENSION
  5
2366
102
{ACAD_XDICTIONARY
360
2367
102
}
102
{ACAD_REACTORS
330
2368
102
}
330
1F
100
AcDbEntity
  8
0
  6
HIDDEN
 48
3.0
100
AcDbDimension
  2
*D21
 10
-225.5287580167509
 20
1708.801757337169
 30
0.0
 11
-227.1482144664278
 21
1665.861277737215
 31
0.0
 70
   160
  1
Ｆ
 71
     5
 42
8.195773441159872
 53
359.999
  3
JIS
100
AcDbAlignedDimension
 13
-238.6486743472579
 23
1716.997530778329
 33
0.0
 14
-243.6079245685537
 24
1708.801757337169
 34
0.0
 50
90.0
100
AcDbRotatedDimension
1001
ACAD
1000
DSTYLE
1002
{
1070
    41
1040
8.0
1070
   140
1040
8.0
1070
   147
1040
3.0
1070
   279
1070
     1
1002
}
  0
MTEXT
  5
2369
330
1F
100
AcDbEntity
  8
Object
100
AcDbMText
 10
-259.0536066444532
 20
1658.064560270779
 30
0.0
 40
8.0
 41
76.08268013859259
 71
     1
 72
     5
  1
（縦鉄筋）
 73
     1
 44
1.0
1001
ACAD
1000
MTEXTBEGIN
1070
    73
1070
     1
1070
    44
1040
1.0
1070
    74
1070
     0
1000
MTEXTEND
  0
MTEXT
  5
24C7
330
1F
100
AcDbEntity
  8
Object
100
AcDbMText
 10
-407.7547536736546
 20
1658.634015544554
 30
0.0
 40
8.0
 41
76.08268013859259
 71
     1
 72
     5
  1
（縦鉄筋）
 73
     1
 44
1.0
1001
ACAD
1000
MTEXTBEGIN
1070
    73
1070
     1
1070
    44
1040
1.0
1070
    74
1070
     0
1000
MTEXTEND
  0
LINE
  5
251A
330
1F
100
AcDbEntity
  8
中心線
100
AcDbLine
 10
-370.6257750308005
 20
1861.980605902073
 30
0.0
 11
-370.6257750308004
 21
1401.980605902074
 31
0.0
  0
HATCH
  5
2B94
330
1F
100
AcDbEntity
  8
塗潰し
100
AcDbHatch
 10
0.0
 20
0.0
 30
0.0
210
0.0
220
0.0
230
1.0
  2
ANSI31
 70
     0
 71
     1
 91
        2
 92
        7
 72
     1
 73
     1
 93
        9
 10
-241.1286427203757
 20
1712.897530778328
 42
0.1940325948853579
 10
-238.6486743472576
 20
1716.997530778329
 42
0.0
 10
-281.511252920328
 20
1716.997530778329
 42
0.0
 10
-281.511252920328
 20
1708.801757337169
 42
0.0
 10
-277.7285027472599
 20
1708.801757337169
 42
0.0
 10
-277.7285027472599
 20
1708.797530778328
 42
0.0
 10
-273.454186962645
 20
1708.797530778328
 42
0.0
 10
-273.454186962645
 20
1708.801757337169
 42
0.0
 10
-243.6079245685538
 20
1708.801757337169
 42
-0.1938592088108039
 97
        7
330
235F
330
2331
330
2341
330
2330
330
2351
330
234E
330
235E
 92
        7
 72
     1
 73
     1
 93
        4
 10
-430.1362529203282
 20
1712.897530778329
 42
0.4009748941339408
 10
-426.2223709438742
 20
1708.801757337169
 42
0.0
 10
-425.8501348967821
 20
1708.801757337169
 42
0.4009748941339408
 10
-421.9362529203281
 20
1712.897530778329
 42
1.0
 97
        2
330
231D
330
2308
 75
     0
 76
     1
 52
0.0
 41
0.5
 77
     0
 78
     1
 53
45.0
 43
0.0
 44
0.0
 45
-1.122532015133643
 46
1.122532015133643
 79
     0
 47
0.4063937077133902
 98
        2
 10
-247.6703464735156
 20
1712.664752639672
 10
-423.309262362246
 20
1713.47754018028
1001
ACAD
1010
0.0
1020
0.0
1030
0.0
  0
HATCH
  5
2C1E
330
1F
100
AcDbEntity
  8
塗潰し
100
AcDbHatch
 10
0.0
 20
0.0
 30
0.0
210
0.0
220
0.0
230
1.0
  2
ANSI37
 70
     0
 71
     1
 91
        2
 92
        7
 72
     1
 73
     1
 93
        8
 10
-428.0862529203282
 20
1741.078386071905
 42
-0.1940325948852827
 10
-432.1862529203283
 20
1743.558354445022
 42
0.1940325948853252
 10
-436.2862529203281
 20
1746.038322818139
 42
0.0
 10
-436.2862529203281
 20
1728.712831311957
 42
-0.2906290999328191
 10
-435.3586406691634
 20
1729.301757337168
 42
0.0
 10
-430.4437529203282
 20
1729.301757337168
 42
-0.4142135623731277
 10
-428.3937529203281
 20
1727.251757337168
 42
0.0
 10
-428.0862529203282
 20
1727.251757337167
 42
0.0
 97
        8
330
235A
330
235B
330
230D
330
231A
330
2319
330
2321
330
2359
330
230C
 92
        7
 72
     1
 73
     1
 93
        5
 10
-300.9862529203285
 20
1741.078386071905
 42
-0.1940325948852762
 10
-305.0862529203283
 20
1743.558354445022
 42
0.1940325948853273
 10
-309.1862529203283
 20
1746.038322818139
 42
0.0
 10
-309.1862529203285
 20
1716.997530778329
 42
0.0
 10
-300.9862529203285
 20
1716.997530778329
 42
0.0
 97
        5
330
235C
330
235D
330
2332
330
2335
330
2333
 75
     0
 76
     1
 52
0.0
 41
0.5
 77
     0
 78
     2
 53
45.0
 43
0.0
 44
0.0
 45
-1.122532015133643
 46
1.122532015133643
 79
     0
 53
135.0
 43
0.0
 44
0.0
 45
-1.122532015133643
 46
-1.122532015133643
 79
     0
 47
0.1472375598775208
 98
        2
 10
-430.2877627664536
 20
1733.005416270157
 10
-303.7935564259947
 20
1735.116658183467
1001
ACAD
1010
0.0
1020
0.0
1030
0.0
  0
VIEWPORT
  5
2CAA
102
{ACAD_XDICTIONARY
360
2D14
102
}
330
2CA9
100
AcDbEntity
 67
     1
  8
0
100
AcDbViewport
 10
198.0935331219903
 20
102.1669635307226
 30
0.0
 40
362.9143196955185
 41
233.5274752823337
 68
     1
 69
     1
 12
198.0935331219903
 22
102.1669635307226
 13
0.0
 23
0.0
 14
10.0
 24
10.0
 15
10.0
 25
10.0
 16
0.0
 26
0.0
 36
1.0
 17
0.0
 27
0.0
 37
0.0
 42
50.0
 43
0.0
 44
0.0
 45
233.5274752823337
 50
0.0
 51
0.0
 72
  1000
 90
   557152
  1

281
     0
 71
     1
 74
     0
110
0.0
120
0.0
130
0.0
111
1.0
121
0.0
131
0.0
112
0.0
122
1.0
132
0.0
 79
     0
146
0.0
  0
LWPOLYLINE
  5
2CAB
102
{ACAD_REACTORS
330
2CAC
102
}
330
2CA9
100
AcDbEntity
 67
     1
  8
Viewport
100
AcDbPolyline
 90
        8
 70
     1
 43
0.0
 10
12.5
 20
202.0
 10
284.5
 20
202.0
 10
284.4978723404242
 20
34.0
 10
167.4978723404242
 20
34.0
 10
167.4978723404242
 20
7.0
 10
129.5
 20
7.0
 10
12.5
 20
7.0
 10
12.5
 20
31.0
  0
VIEWPORT
  5
2CAC
102
{ACAD_XDICTIONARY
360
2D16
102
}
330
2CA9
100
AcDbEntity
 67
     1
  8
Viewport
100
AcDbViewport
 10
148.5
 20
104.5
 30
0.0
 40
272.0000000000001
 41
195.0
 68
     2
 69
     2
 12
-361.864908644528
 22
1712.969273651743
 13
0.0
 23
0.0
 14
10.0
 24
10.0
 15
10.0
 25
10.0
 16
0.0
 26
0.0
 36
1.0
 17
0.0
 27
0.0
 37
0.0
 42
50.0
 43
0.0
 44
0.0
 45
390.0000006862207
 50
0.0
 51
0.0
 72
   100
 90
    98368
340
2CAB
  1

281
     0
 71
     1
 74
     0
110
0.0
120
0.0
130
0.0
111
1.0
121
0.0
131
0.0
112
0.0
122
1.0
132
0.0
 79
     0
146
0.0
  0
LINE
  5
2CAE
330
2CA9
100
AcDbEntity
 67
     1
  8
0
100
AcDbLine
 10
12.5
 20
7.0
 30
0.0
 11
12.5
 21
202.0
 31
0.0
1001
AcDbBlockRepETag
1070
     1
1071
        2
1005
2CAE
  0
LINE
  5
2CAF
330
2CA9
100
AcDbEntity
 67
     1
  8
0
100
AcDbLine
 10
25.0
 20
0.0
 30
0.0
 11
0.0
 21
0.0
 31
0.0
1001
AcDbBlockRepETag
1070
     1
1071
        3
1005
2CAF
  0
LINE
  5
2CB0
330
2CA9
100
AcDbEntity
 67
     1
  8
0
100
AcDbLine
 10
0.0
 20
0.0
 30
0.0
 11
0.0
 21
10.0
 31
0.0
1001
AcDbBlockRepETag
1070
     1
1071
        4
1005
2CB0
  0
LINE
  5
2CB1
330
2CA9
100
AcDbEntity
 67
     1
  8
0
100
AcDbLine
 10
148.5
 20
6.0
 30
0.0
 11
148.5
 21
5.0
 31
0.0
1001
AcDbBlockRepETag
1070
     1
1071
       20
1005
2CB1
  0
LINE
  5
2CB2
330
2CA9
100
AcDbEntity
 67
     1
  8
0
100
AcDbLine
 10
0.0
 20
210.0
 30
0.0
 11
25.0
 21
210.0
 31
0.0
1001
AcDbBlockRepETag
1070
     1
1071
       23
1005
2CB2
  0
LINE
  5
2CB3
330
2CA9
100
AcDbEntity
 67
     1
  8
0
100
AcDbLine
 10
0.0
 20
200.0
 30
0.0
 11
0.0
 21
210.0
 31
0.0
1001
AcDbBlockRepETag
1070
     1
1071
       24
1005
2CB3
  0
LINE
  5
2CB4
330
2CA9
100
AcDbEntity
 67
     1
  8
0
100
AcDbLine
 10
284.5
 20
202.0
 30
0.0
 11
284.5
 21
7.0
 31
0.0
1001
AcDbBlockRepETag
1070
     1
1071
       36
1005
2CB4
  0
LINE
  5
2CB5
330
2CA9
100
AcDbEntity
 67
     1
  8
0
100
AcDbLine
 10
297.0
 20
10.0
 30
0.0
 11
297.0
 21
0.0
 31
0.0
1001
AcDbBlockRepETag
1070
     1
1071
       40
1005
2CB5
  0
LINE
  5
2CB6
330
2CA9
100
AcDbEntity
 67
     1
  8
0
100
AcDbLine
 10
297.0
 20
210.0
 30
0.0
 11
297.0
 21
200.0
 31
0.0
1001
AcDbBlockRepETag
1070
     1
1071
       54
1005
2CB6
  0
LINE
  5
2CB7
330
2CA9
100
AcDbEntity
 67
     1
  8
0
100
AcDbLine
 10
272.0
 20
210.0
 30
0.0
 11
297.0
 21
210.0
 31
0.0
1001
AcDbBlockRepETag
1070
     1
1071
       55
1005
2CB7
  0
LINE
  5
2CB8
330
2CA9
100
AcDbEntity
 67
     1
  8
0
100
AcDbLine
 10
272.0
 20
0.0
 30
0.0
 11
297.0
 21
0.0
 31
0.0
1001
AcDbBlockRepETag
1070
     1
1071
       56
1005
2CB8
  0
LINE
  5
2CB9
330
2CA9
100
AcDbEntity
 67
     1
  8
0
100
AcDbLine
 10
284.5
 20
7.0
 30
0.0
 11
12.5
 21
7.0
 31
0.0
1001
AcDbBlockRepETag
1070
     1
1071
       57
1005
0
  0
LINE
  5
2CBA
330
2CA9
100
AcDbEntity
 67
     1
  8
0
100
AcDbLine
 10
12.5
 20
202.0
 30
0.0
 11
284.5
 21
202.0
 31
0.0
1001
AcDbBlockRepETag
1070
     1
1071
       58
1005
0
  0
LINE
  5
2CBB
330
2CA9
100
AcDbEntity
 67
     1
  8
0
 62
     0
380
     1
100
AcDbLine
 10
284.5
 20
7.0
 30
0.0
 11
284.5
 21
43.0
 31
0.0
1001
AcDbBlockRepETag
1070
     1
1071
       49
1005
2CBB
  0
LINE
  5
2CBC
330
2CA9
100
AcDbEntity
 67
     1
  8
0
100
AcDbLine
 10
284.4978723404242
 20
16.0
 30
0.0
 11
167.4978723404242
 21
16.0
 31
0.0
1001
AcDbBlockRepETag
1070
     1
1071
      166
1005
2CBC
  0
LINE
  5
2CBD
330
2CA9
100
AcDbEntity
 67
     1
  8
0
100
AcDbLine
 10
218.4978723404242
 20
7.0
 30
0.0
 11
218.4978723404242
 21
16.0
 31
0.0
1001
AcDbBlockRepETag
1070
     1
1071
      167
1005
2CBD
  0
LINE
  5
2CBE
330
2CA9
100
AcDbEntity
 67
     1
  8
0
100
AcDbLine
 10
284.4978723404242
 20
34.0
 30
0.0
 11
167.4978723404242
 21
34.0
 31
0.0
1001
AcDbBlockRepETag
1070
     1
1071
      169
1005
2CBE
  0
MTEXT
  5
2CBF
330
2CA9
100
AcDbEntity
 67
     1
  8
0
100
AcDbMText
 10
192.9978723404241
 20
11.5
 30
0.0
 40
4.0
 41
51.0
 71
     5
 72
     5
  1
富国石油株式会社
 73
     1
 44
1.0
1001
AcDbBlockRepETag
1070
     1
1071
      171
1005
2CBF
1001
ACAD
1000
MTEXTBEGIN
1070
    73
1070
     1
1070
    44
1040
1.0
1070
    74
1070
     0
1000
MTEXTEND
  0
LINE
  5
2CC0
330
2CA9
100
AcDbEntity
 67
     1
  8
0
  6
HIDDEN2
 48
0.5
100
AcDbLine
 10
284.4978723404242
 20
29.5
 30
0.0
 11
167.4978723404242
 21
29.5
 31
0.0
1001
AcDbBlockRepETag
1070
     1
1071
      180
1005
2CC0
  0
MTEXT
  5
2CD1
330
2CA9
100
AcDbEntity
 67
     1
  8
Object
370
    -3
100
AcDbMText
 10
228.2928583521302
 20
22.75
 30
0.0
 40
5.0
 41
77.0
 71
     5
 72
     5
  1
９７ＥＳＤ蓋側溝２５ｔ用
 73
     1
 44
1.0
1001
AcDbBlockRepETag
1070
     1
1071
       68
1005
2CD1
1001
ACAD
1000
MTEXTBEGIN
1070
    73
1070
     1
1070
    44
1040
1.0
1070
    74
1070
     0
1000
MTEXTEND
  0
ENDSEC
  0
SECTION
  2
OBJECTS
  0
DICTIONARY
  5
C
330
0
100
AcDbDictionary
281
     1
  3
ACAD_COLOR
350
14D
  3
ACAD_GROUP
350
D
  3
ACAD_LAYOUT
350
1A
  3
ACAD_MATERIAL
350
14C
  3
ACAD_MLINESTYLE
350
17
  3
ACAD_PLOTSETTINGS
350
19
  3
ACAD_PLOTSTYLENAME
350
E
  3
ACAD_TABLESTYLE
350
17B
  3
ACAD_VISUALSTYLE
350
1D3
  3
AcDbVariableDictionary
350
148
  3
DWGPROPS
350
2D05
  0
DICTIONARY
  5
18A
330
2
100
AcDbDictionary
280
     1
281
     1
  3
ACAD_LAYERFILTERS
360
463
  3
ACAD_LAYERSTATES
360
18B
  3
ACLYDICTIONARY
360
462
  0
DICTIONARY
  5
B52
330
1F
100
AcDbDictionary
280
     1
281
     1
  3
ACAD_SORTENTS
360
B53
  0
DICTIONARY
  5
28E
330
AB
100
AcDbDictionary
280
     1
281
     1
  0
DICTIONARY
  5
4E8
330
4E7
100
AcDbDictionary
280
     1
281
     1
  3
ACAD_SORTENTS
360
6DE
  0
DICTIONARY
  5
930
330
6ED
100
AcDbDictionary
280
     1
281
     1
  3
ACAD_SORTENTS
360
931
  0
DICTIONARY
  5
1128
330
1044
100
AcDbDictionary
280
     1
281
     1
  3
ACAD_SORTENTS
360
1129
  0
DICTIONARY
  5
2D0C
330
316
100
AcDbDictionary
280
     1
281
     1
  3
ACAD_MTEXT_RT
360
2D0D
  0
DICTIONARY
  5
2D0E
330
539
100
AcDbDictionary
280
     1
281
     1
  3
ACAD_MTEXT_RT
360
2D0F
  0
DICTIONARY
  5
2D10
330
9C6
100
AcDbDictionary
280
     1
281
     1
  3
ACAD_MTEXT_RT
360
2D11
  0
DICTIONARY
  5
2361
330
2360
100
AcDbDictionary
280
     1
281
     1
  3
ACAD_DIMASSOC
360
2362
  0
DICTIONARY
  5
2367
330
2366
100
AcDbDictionary
280
     1
281
     1
  3
ACAD_DIMASSOC
360
2368
  0
DICTIONARY
  5
2D14
330
2CAA
100
AcDbDictionary
280
     1
281
     1
  3
ACAD_XREC_ROUNDTRIP
360
2D15
  0
DICTIONARY
  5
2D16
330
2CAC
100
AcDbDictionary
280
     1
281
     1
  3
ACAD_XREC_ROUNDTRIP
360
2D17
  0
DICTIONARY
  5
14D
102
{ACAD_REACTORS
330
C
102
}
330
C
100
AcDbDictionary
281
     1
  0
DICTIONARY
  5
D
102
{ACAD_REACTORS
330
C
102
}
330
C
100
AcDbDictionary
281
     1
  0
DICTIONARY
  5
1A
102
{ACAD_REACTORS
330
C
102
}
330
C
100
AcDbDictionary
281
     1
  3
A4横
350
2CA6
  3
Model
350
22
  0
DICTIONARY
  5
14C
102
{ACAD_REACTORS
330
C
102
}
330
C
100
AcDbDictionary
281
     1
  3
ByBlock
350
1D1
  3
ByLayer
350
1D0
  3
Global
350
1D2
  0
DICTIONARY
  5
17
102
{ACAD_REACTORS
330
C
102
}
330
C
100
AcDbDictionary
281
     1
  3
Standard
350
18
  0
DICTIONARY
  5
19
102
{ACAD_REACTORS
330
C
102
}
330
C
100
AcDbDictionary
281
     1
  3
JIS A4 title block (portrait) - no output device
350
11F
  0
ACDBDICTIONARYWDFLT
  5
E
102
{ACAD_REACTORS
330
C
102
}
330
C
100
AcDbDictionary
281
     1
  3
Normal
350
F
100
AcDbDictionaryWithDefault
340
F
  0
DICTIONARY
  5
17B
102
{ACAD_REACTORS
330
C
102
}
330
C
100
AcDbDictionary
281
     1
  3
Standard
350
17C
  0
DICTIONARY
  5
1D3
102
{ACAD_REACTORS
330
C
102
}
330
C
100
AcDbDictionary
281
     1
  3
2dWireframe
350
1D9
  3
3D Hidden
350
1DB
  3
3dWireframe
350
1DA
  3
Basic
350
1D8
  3
Brighten
350
1DF
  3
ColorChange
350
1E3
  3
Conceptual
350
1DC
  3
Dim
350
1DE
  3
Facepattern
350
1E2
  3
Flat
350
1D4
  3
FlatWithEdges
350
1D5
  3
Gouraud
350
1D6
  3
GouraudWithEdges
350
1D7
  3
Linepattern
350
1E1
  3
Realistic
350
1DD
  3
Thicken
350
1E0
  0
DICTIONARY
  5
148
102
{ACAD_REACTORS
330
C
102
}
330
C
100
AcDbDictionary
281
     1
  3
CTABLESTYLE
350
190
  3
DIMASSOC
350
14A
  3
HIDETEXT
350
149
  3
INDEXCTL
350
2A2C
  3
PSOLHEIGHT
350
2D04
  3
PSOLWIDTH
350
2D03
  3
SORTENTS
350
2A2B
  0
XRECORD
  5
2D05
102
{ACAD_REACTORS
330
C
102
}
330
C
100
AcDbXrecord
280
     1
  1
DWGPROPS COOKIE
  2

  3

  4

  6

  7

  8
k-uehara
  9

300
=
301
=
302
=
303
=
304
=
305
=
306
=
307
=
308
=
309
=
 40
0.1906921064814815
 41
2454379.577641921
 42
2454937.414554271
  1

 90
        0
  0
DICTIONARY
  5
463
102
{ACAD_REACTORS
330
18A
102
}
330
18A
100
AcDbDictionary
281
     1
  0
DICTIONARY
  5
18B
102
{ACAD_REACTORS
330
18A
102
}
330
18A
100
AcDbDictionary
281
     1
  3
ACAD_VIEWS_元図１
350
6AC
  0
DICTIONARY
  5
462
102
{ACAD_REACTORS
330
18A
102
}
330
18A
100
AcDbDictionary
281
     1
1001
ACAD
1000
<All
  0
SORTENTSTABLE
  5
B53
102
{ACAD_REACTORS
330
B52
102
}
330
B52
100
AcDbSortentsTable
330
1F
331
230D
  5
2312
331
2353
  5
2359
331
2364
  5
251A
331
234B
  5
2351
331
2337
  5
233D
331
231B
  5
2320
331
2307
  5
2309
331
235E
  5
2366
331
2345
  5
234B
331
2331
  5
2337
331
2315
  5
231A
331
1144
  5
1144
331
2326
  5
232B
331
2301
  5
2303
331
2358
  5
235E
331
232B
  5
2330
331
233C
  5
2342
331
2320
  5
2325
331
22FB
  5
22FD
331
230C
  5
2311
331
114F
  5
22FC
331
2352
  5
2358
331
234A
  5
2350
331
2363
  5
2519
331
2336
  5
233C
331
231A
  5
231F
331
1E05
  5
114B
331
2306
  5
2308
331
1149
  5
11F1
331
235D
  5
2365
331
2344
  5
234A
331
2330
  5
2335
331
2314
  5
2319
331
2325
  5
232A
331
2300
  5
2302
331
1143
  5
1143
331
2357
  5
235D
331
234F
  5
2355
331
232A
  5
232F
331
2C1E
  5
2310
331
233B
  5
2341
331
231F
  5
2324
331
2351
  5
2357
331
2349
  5
234F
331
251A
  5
11FB
331
2335
  5
233B
331
2319
  5
231E
331
2305
  5
2307
331
1148
  5
1148
331
2343
  5
2349
331
235C
  5
2364
331
232F
  5
2334
331
2313
  5
2318
331
1142
  5
1142
331
2324
  5
2329
331
22FF
  5
2301
331
2356
  5
235C
331
234E
  5
2354
331
2329
  5
232E
331
233A
  5
2340
331
231E
  5
2323
331
230A
  5
230F
331
114D
  5
22FB
331
2350
  5
2356
331
2348
  5
234E
331
2334
  5
233A
331
2318
  5
231D
331
2304
  5
2306
331
1147
  5
1147
331
1CC8
  5
114F
331
235B
  5
2363
331
2342
  5
2348
331
232E
  5
2333
331
233F
  5
2345
331
2312
  5
2317
331
2323
  5
2328
331
22FE
  5
2300
331
1141
  5
1141
331
230F
  5
2314
331
2355
  5
235B
331
2366
  5
2B7E
331
234D
  5
2353
331
2328
  5
232D
331
2339
  5
233F
331
231D
  5
2322
331
2309
  5
230E
331
2360
  5
24C7
331
2B94
  5
230B
331
2347
  5
234D
331
2333
  5
2339
331
2317
  5
231C
331
2303
  5
2305
331
1146
  5
1146
331
1CC7
  5
114E
331
2341
  5
2347
331
235A
  5
2360
331
232D
  5
2332
331
233E
  5
2344
331
2311
  5
2316
331
2322
  5
2327
331
22FD
  5
22FF
331
230E
  5
2313
331
2354
  5
235A
331
234C
  5
2352
331
2365
  5
2B7D
331
2369
  5
2C06
331
2338
  5
233E
331
231C
  5
2321
331
2308
  5
230C
331
114B
  5
1805
331
235F
  5
2369
331
2346
  5
234C
331
2332
  5
2338
331
24C7
  5
2C07
331
2316
  5
231B
331
2327
  5
232C
331
2302
  5
2304
331
1145
  5
1145
331
1CC6
  5
1149
331
2359
  5
235F
331
2340
  5
2346
331
232C
  5
2331
331
2310
  5
2315
331
233D
  5
2343
331
2321
  5
2326
  0
SORTENTSTABLE
  5
6DE
102
{ACAD_REACTORS
330
4E8
102
}
330
4E8
100
AcDbSortentsTable
330
4E7
  0
SORTENTSTABLE
  5
931
102
{ACAD_REACTORS
330
930
102
}
330
930
100
AcDbSortentsTable
330
6ED
  0
SORTENTSTABLE
  5
1129
102
{ACAD_REACTORS
330
1128
102
}
330
1128
100
AcDbSortentsTable
330
1044
  0
XRECORD
  5
2D0D
102
{ACAD_REACTORS
330
2D0C
102
}
330
2D0C
100
AcDbXrecord
280
     1
 40
476.0
  1
検^J図
  0
XRECORD
  5
2D0F
102
{ACAD_REACTORS
330
2D0E
102
}
330
2D0E
100
AcDbXrecord
280
     1
 40
476.0
  1
検^J図
  0
XRECORD
  5
2D11
102
{ACAD_REACTORS
330
2D10
102
}
330
2D10
100
AcDbXrecord
280
     1
 40
476.0
  1
検^J図
  0
DIMASSOC
  5
2362
102
{ACAD_REACTORS
330
2361
102
}
330
2361
100
AcDbDimAssoc
330
2360
 90
        1
 70
     0
 71
     0
  1
AcDbOsnapPointRef
 72
     1
331
230D
 73
     2
 91
        0
 40
1.0
 10
0.0
 20
0.0
 30
2.000000000000000E+50
 75
     0
  0
DIMASSOC
  5
2368
102
{ACAD_REACTORS
330
2367
102
}
330
2367
100
AcDbDimAssoc
330
2366
 90
        3
 70
     0
 71
     0
  1
AcDbOsnapPointRef
 72
     6
331
2331
 73
     2
 91
        0
 40
0.9999999999999978
 10
0.0
 20
0.0
 30
0.0
332
235F
 74
     2
 92
        0
 75
     0
  1
AcDbOsnapPointRef
 72
     6
331
234E
 73
     2
 91
        0
 40
1.0
 10
0.0
 20
0.0
 30
0.0
332
235E
 74
     2
 92
        0
 75
     0
  0
XRECORD
  5
2D15
102
{ACAD_REACTORS
330
2D14
102
}
330
2D14
100
AcDbXrecord
280
     1
102
SHADEPLOT
 70
     0
  0
XRECORD
  5
2D17
102
{ACAD_REACTORS
330
2D16
102
}
330
2D16
100
AcDbXrecord
280
     1
102
SHADEPLOT
 70
     0
  0
LAYOUT
  5
2CA6
102
{ACAD_XDICTIONARY
360
2CA7
102
}
102
{ACAD_REACTORS
330
1A
102
}
330
1A
100
AcDbPlotSettings
  1

  2
Canon iR C3200 LIPS
  4
A4
  6

 40
5.873749732971191
 41
5.873747825622557
 42
5.873748779296875
 43
5.873748779296875
 44
209.9733276367186
 45
296.9259948730469
 46
-5.893494129188382
 47
-5.919814586649977
 48
0.0
 49
0.0
140
0.0
141
0.0
142
1.0
143
1.0
 70
   692
 72
     1
 73
     1
 74
     1
  7
monochrome.ctb
 75
    16
147
1.0
148
0.0090630292066862
149
0.0064082024693448
100
AcDbLayout
  1
A4横
 70
     1
 71
     1
 10
0.037002778146416
 20
0.0133361937478469
 11
296.9629976511933
 21
209.9866638304666
 12
0.0
 22
0.0
 32
0.0
 14
0.0
 24
0.0
 34
0.0
 15
297.0
 25
210.0
 35
0.0
146
0.0
 13
0.0
 23
0.0
 33
0.0
 16
1.0
 26
0.0
 36
0.0
 17
0.0
 27
1.0
 37
0.0
 76
     0
330
2CA9
331
2CAA
1001
ACAD_PSEXT
1000
Canon iR C3200 LIPS
1000
Canon iR C3200 LIPS
1000
IP_128.1.1.200
1000

1070
     0
  0
LAYOUT
  5
22
102
{ACAD_XDICTIONARY
360
2D06
102
}
102
{ACAD_REACTORS
330
1A
102
}
330
1A
100
AcDbPlotSettings
  1

  2
none_device
  4
ISO_A4_(210.00_x_297.00_MM)
  6

 40
7.5
 41
20.0
 42
7.5
 43
20.0
 44
210.0
 45
297.0
 46
0.0
 47
73.36421725239617
 48
0.0
 49
0.0
140
0.0
141
0.0
142
1.0
143
2.869813509774056
 70
 11956
 72
     1
 73
     0
 74
     0
  7

 75
     0
147
0.3484546980471668
148
1.967705816488884
149
9.729414201041008
100
AcDbLayout
  1
Model
 70
     1
 71
     0
 10
0.0
 20
0.0
 11
12.0
 21
9.0
 12
0.0
 22
0.0
 32
0.0
 14
0.0
 24
0.0
 34
0.0
 15
0.0
 25
0.0
 35
0.0
146
0.0
 13
0.0
 23
0.0
 33
0.0
 16
1.0
 26
0.0
 36
0.0
 17
0.0
 27
1.0
 37
0.0
 76
     0
330
1F
331
1B5
1001
ACAD_PSEXT
1000
None
1000
None
1000
Not applicable
1000
The layout will not be plotted unless a new plotter configuration name is selected.
1070
     0
  0
MATERIAL
  5
1D1
102
{ACAD_XDICTIONARY
360
2A3B
102
}
102
{ACAD_REACTORS
330
14C
102
}
330
14C
100
AcDbMaterial
  1
ByBlock
  0
MATERIAL
  5
1D0
102
{ACAD_XDICTIONARY
360
2A39
102
}
102
{ACAD_REACTORS
330
14C
102
}
330
14C
100
AcDbMaterial
  1
ByLayer
  0
MATERIAL
  5
1D2
102
{ACAD_XDICTIONARY
360
2A3D
102
}
102
{ACAD_REACTORS
330
14C
102
}
330
14C
100
AcDbMaterial
  1
Global
  0
MLINESTYLE
  5
18
102
{ACAD_REACTORS
330
17
102
}
330
17
100
AcDbMlineStyle
  2
STANDARD
 70
     0
  3

 62
   256
 51
90.0
 52
90.0
 71
     2
 49
0.5
 62
   256
  6
BYLAYER
 49
-0.5
 62
   256
  6
BYLAYER
  0
PLOTSETTINGS
  5
11F
102
{ACAD_XDICTIONARY
360
2D08
102
}
102
{ACAD_REACTORS
330
19
102
}
330
19
100
AcDbPlotSettings
  1
JIS A4 title block (portrait) - no output device
  2
None
  4
ISO_A4_(210.00_x_297.00_MM)
  6

 40
7.549999999999998
 41
20.05
 42
7.549999999999998
 43
20.05
 44
210.0
 45
297.0
 46
-7.559999999999997
 47
-20.06
 48
0.0
 49
0.0
140
0.0
141
0.0
142
1.0
143
1.0
 70
   692
 72
     1
 73
     0
 74
     1
  7

 75
    16
147
1.0
148
0.0128164049386896
149
0.0090630292066862
  0
ACDBPLACEHOLDER
  5
F
102
{ACAD_REACTORS
330
E
102
}
330
E
  0
TABLESTYLE
  5
17C
102
{ACAD_XDICTIONARY
360
2D0A
102
}
102
{ACAD_REACTORS
330
17B
102
}
330
17B
100
AcDbTableStyle
  3
Standard
 70
     0
 71
     0
 40
1.5
 41
1.5
280
     0
281
     0
  7
Standard
140
4.5
170
     2
 62
     0
 63
     7
283
     0
274
    -2
284
     1
 64
     0
275
    -2
285
     1
 65
     0
276
    -2
286
     1
 66
     0
277
    -2
287
     1
 67
     0
278
    -2
288
     1
 68
     0
279
    -2
289
     1
 69
     0
  7
Standard
140
6.0
170
     5
 62
     0
 63
     7
283
     0
274
    -2
284
     1
 64
     0
275
    -2
285
     1
 65
     0
276
    -2
286
     1
 66
     0
277
    -2
287
     1
 67
     0
278
    -2
288
     1
 68
     0
279
    -2
289
     1
 69
     0
  7
Standard
140
4.5
170
     5
 62
     0
 63
     7
283
     0
274
    -2
284
     1
 64
     0
275
    -2
285
     1
 65
     0
276
    -2
286
     1
 66
     0
277
    -2
287
     1
 67
     0
278
    -2
288
     1
 68
     0
279
    -2
289
     1
 69
     0
  0
VISUALSTYLE
  5
1D9
102
{ACAD_REACTORS
330
1D3
102
}
330
1D3
100
AcDbVisualStyle
  2
2dWireframe
 70
     4
 71
     0
 72
     2
 73
     1
 90
        0
 40
-0.6
 41
-30.0
 62
     5
 63
     7
 74
     1
 91
        4
 64
     7
 65
   257
 75
     1
175
     1
 42
1.0
 92
        0
 66
   257
 43
1.0
 76
     1
 77
     6
 78
     2
 67
     7
 79
     5
170
     0
171
     0
290
     0
174
     0
 93
        1
 44
0.0
173
     0
291
     0
 45
0.0
1001
ACAD
1000
AcDbSavedByObjectVersion
1070
     0
1000
AcDbSavedByObjectVersion
1070
     0
1000
AcDbSavedByObjectVersion
1070
     0
1000
AcDbSavedByObjectVersion
1070
     0
1000
AcDbSavedByObjectVersion
1070
     0
  0
VISUALSTYLE
  5
1DB
102
{ACAD_REACTORS
330
1D3
102
}
330
1D3
100
AcDbVisualStyle
  2
3D Hidden
 70
     6
 71
     1
 72
     2
 73
     2
 90
        0
 40
-0.6
 41
-30.0
 62
     5
 63
     7
 74
     2
 91
        2
 64
     7
 65
   257
 75
     2
175
     1
 42
40.0
 92
        0
 66
   257
 43
1.0
 76
     1
 77
     6
 78
     2
 67
     7
 79
     3
170
     0
171
     0
290
     0
174
     0
 93
        1
 44
0.0
173
     0
291
     0
 45
0.0
1001
ACAD
1000
AcDbSavedByObjectVersion
1070
     0
1000
AcDbSavedByObjectVersion
1070
     0
1000
AcDbSavedByObjectVersion
1070
     0
1000
AcDbSavedByObjectVersion
1070
     0
1000
AcDbSavedByObjectVersion
1070
     0
  0
VISUALSTYLE
  5
1DA
102
{ACAD_REACTORS
330
1D3
102
}
330
1D3
100
AcDbVisualStyle
  2
3dWireframe
 70
     5
 71
     0
 72
     2
 73
     1
 90
        0
 40
-0.6
 41
-30.0
 62
     5
 63
     7
 74
     1
 91
        4
 64
     7
 65
   257
 75
     1
175
     1
 42
1.0
 92
        0
 66
   257
 43
1.0
 76
     1
 77
     6
 78
     2
 67
     7
 79
     5
170
     0
171
     0
290
     0
174
     0
 93
        1
 44
0.0
173
     0
291
     0
 45
0.0
1001
ACAD
1000
AcDbSavedByObjectVersion
1070
     0
1000
AcDbSavedByObjectVersion
1070
     0
1000
AcDbSavedByObjectVersion
1070
     0
1000
AcDbSavedByObjectVersion
1070
     0
1000
AcDbSavedByObjectVersion
1070
     0
  0
VISUALSTYLE
  5
1D8
102
{ACAD_REACTORS
330
1D3
102
}
330
1D3
100
AcDbVisualStyle
  2
Basic
 70
     7
 71
     1
 72
     0
 73
     1
 90
        0
 40
-0.6
 41
-30.0
 62
     5
 63
     7
 74
     0
 91
        4
 64
     7
 65
   257
 75
     1
175
     1
 42
1.0
 92
        8
 66
     7
 43
1.0
 76
     1
 77
     6
 78
     2
 67
     7
 79
     5
170
     0
171
     0
290
     0
174
     0
 93
        1
 44
0.0
173
     0
291
     1
 45
0.0
1001
ACAD
1000
AcDbSavedByObjectVersion
1070
     0
1000
AcDbSavedByObjectVersion
1070
     0
1000
AcDbSavedByObjectVersion
1070
     0
1000
AcDbSavedByObjectVersion
1070
     0
1000
AcDbSavedByObjectVersion
1070
     0
  0
VISUALSTYLE
  5
1DF
102
{ACAD_REACTORS
330
1D3
102
}
330
1D3
100
AcDbVisualStyle
  2
Brighten
 70
    12
 71
     2
 72
     2
 73
     1
 90
        0
 40
-0.6
 41
-30.0
 62
     5
 63
     7
 74
     1
 91
        4
 64
     7
 65
   257
 75
     1
175
     1
 42
1.0
 92
        8
 66
     7
 43
1.0
 76
     1
 77
     6
 78
     2
 67
     7
 79
     5
170
     0
171
     0
290
     0
174
     0
 93
        1
 44
50.0
173
     0
291
     1
 45
0.0
1001
ACAD
1000
AcDbSavedByObjectVersion
1070
     0
1000
AcDbSavedByObjectVersion
1070
     0
1000
AcDbSavedByObjectVersion
1070
     0
1000
AcDbSavedByObjectVersion
1070
     0
1000
AcDbSavedByObjectVersion
1070
     0
  0
VISUALSTYLE
  5
1E3
102
{ACAD_REACTORS
330
1D3
102
}
330
1D3
100
AcDbVisualStyle
  2
ColorChange
 70
    16
 71
     2
 72
     2
 73
     3
 90
        0
 40
-0.6
 41
-30.0
 62
     5
 63
     8
 74
     1
 91
        4
 64
     7
 65
   257
 75
     1
175
     1
 42
1.0
 92
        8
 66
     8
 43
1.0
 76
     1
 77
     6
 78
     2
 67
     7
 79
     5
170
     0
171
     0
290
     0
174
     0
 93
        1
 44
0.0
173
     0
291
     1
 45
0.0
1001
ACAD
1000
AcDbSavedByObjectVersion
1070
     0
1000
AcDbSavedByObjectVersion
1070
     0
1000
AcDbSavedByObjectVersion
1070
     0
1000
AcDbSavedByObjectVersion
1070
     0
1000
AcDbSavedByObjectVersion
1070
     0
  0
VISUALSTYLE
  5
1DC
102
{ACAD_REACTORS
330
1D3
102
}
330
1D3
100
AcDbVisualStyle
  2
Conceptual
 70
     9
 71
     3
 72
     2
 73
     1
 90
        0
 40
-0.6
 41
-30.0
 62
     5
 63
     7
 74
     2
 91
        2
 64
     7
 65
   257
 75
     1
175
     1
 42
40.0
 92
        8
 66
     7
 43
1.0
 76
     1
 77
     6
 78
     2
 67
     7
 79
     3
170
     0
171
     0
290
     0
174
     0
 93
        1
 44
0.0
173
     0
291
     0
 45
0.0
1001
ACAD
1000
AcDbSavedByObjectVersion
1070
     0
1000
AcDbSavedByObjectVersion
1070
     0
1000
AcDbSavedByObjectVersion
1070
     0
1000
AcDbSavedByObjectVersion
1070
     0
1000
AcDbSavedByObjectVersion
1070
     0
  0
VISUALSTYLE
  5
1DE
102
{ACAD_REACTORS
330
1D3
102
}
330
1D3
100
AcDbVisualStyle
  2
Dim
 70
    11
 71
     2
 72
     2
 73
     1
 90
        0
 40
-0.6
 41
-30.0
 62
     5
 63
     7
 74
     1
 91
        4
 64
     7
 65
   257
 75
     1
175
     1
 42
1.0
 92
        8
 66
     7
 43
1.0
 76
     1
 77
     6
 78
     2
 67
     7
 79
     5
170
     0
171
     0
290
     0
174
     0
 93
        1
 44
-50.0
173
     0
291
     1
 45
0.0
1001
ACAD
1000
AcDbSavedByObjectVersion
1070
     0
1000
AcDbSavedByObjectVersion
1070
     0
1000
AcDbSavedByObjectVersion
1070
     0
1000
AcDbSavedByObjectVersion
1070
     0
1000
AcDbSavedByObjectVersion
1070
     0
  0
VISUALSTYLE
  5
1E2
102
{ACAD_REACTORS
330
1D3
102
}
330
1D3
100
AcDbVisualStyle
  2
Facepattern
 70
    15
 71
     2
 72
     2
 73
     1
 90
        0
 40
-0.6
 41
-30.0
 62
     5
 63
     7
 74
     1
 91
        4
 64
     7
 65
   257
 75
     1
175
     1
 42
1.0
 92
        8
 66
     7
 43
1.0
 76
     1
 77
     6
 78
     2
 67
     7
 79
     5
170
     0
171
     0
290
     0
174
     0
 93
        1
 44
0.0
173
     0
291
     1
 45
0.0
1001
ACAD
1000
AcDbSavedByObjectVersion
1070
     0
1000
AcDbSavedByObjectVersion
1070
     0
1000
AcDbSavedByObjectVersion
1070
     0
1000
AcDbSavedByObjectVersion
1070
     0
1000
AcDbSavedByObjectVersion
1070
     0
  0
VISUALSTYLE
  5
1D4
102
{ACAD_REACTORS
330
1D3
102
}
330
1D3
100
AcDbVisualStyle
  2
Flat
 70
     0
 71
     2
 72
     1
 73
     1
 90
        2
 40
-0.6
 41
30.0
 62
     5
 63
     7
 74
     0
 91
        4
 64
     7
 65
   257
 75
     1
175
     1
 42
1.0
 92
        8
 66
     7
 43
1.0
 76
     1
 77
     6
 78
     2
 67
     7
 79
     5
170
     0
171
     0
290
     0
174
     0
 93
       13
 44
0.0
173
     0
291
     1
 45
0.0
1001
ACAD
1000
AcDbSavedByObjectVersion
1070
     0
1000
AcDbSavedByObjectVersion
1070
     0
1000
AcDbSavedByObjectVersion
1070
     0
1000
AcDbSavedByObjectVersion
1070
     0
1000
AcDbSavedByObjectVersion
1070
     0
  0
VISUALSTYLE
  5
1D5
102
{ACAD_REACTORS
330
1D3
102
}
330
1D3
100
AcDbVisualStyle
  2
FlatWithEdges
 70
     1
 71
     2
 72
     1
 73
     1
 90
        2
 40
-0.6
 41
30.0
 62
     5
 63
     7
 74
     1
 91
        4
 64
     7
 65
   257
 75
     1
175
     1
 42
1.0
 92
        0
 66
   257
 43
1.0
 76
     1
 77
     6
 78
     2
 67
     7
 79
     5
170
     0
171
     0
290
     0
174
     0
 93
       13
 44
0.0
173
     0
291
     1
 45
0.0
1001
ACAD
1000
AcDbSavedByObjectVersion
1070
     0
1000
AcDbSavedByObjectVersion
1070
     0
1000
AcDbSavedByObjectVersion
1070
     0
1000
AcDbSavedByObjectVersion
1070
     0
1000
AcDbSavedByObjectVersion
1070
     0
  0
VISUALSTYLE
  5
1D6
102
{ACAD_REACTORS
330
1D3
102
}
330
1D3
100
AcDbVisualStyle
  2
Gouraud
 70
     2
 71
     2
 72
     2
 73
     1
 90
        2
 40
-0.6
 41
30.0
 62
     5
 63
     7
 74
     0
 91
        4
 64
     7
 65
   257
 75
     1
175
     1
 42
1.0
 92
        0
 66
     7
 43
1.0
 76
     1
 77
     6
 78
     2
 67
     7
 79
     5
170
     0
171
     0
290
     0
174
     0
 93
       13
 44
0.0
173
     0
291
     1
 45
0.0
1001
ACAD
1000
AcDbSavedByObjectVersion
1070
     0
1000
AcDbSavedByObjectVersion
1070
     0
1000
AcDbSavedByObjectVersion
1070
     0
1000
AcDbSavedByObjectVersion
1070
     0
1000
AcDbSavedByObjectVersion
1070
     0
  0
VISUALSTYLE
  5
1D7
102
{ACAD_REACTORS
330
1D3
102
}
330
1D3
100
AcDbVisualStyle
  2
GouraudWithEdges
 70
     3
 71
     2
 72
     2
 73
     1
 90
        2
 40
-0.6
 41
30.0
 62
     5
 63
     7
 74
     1
 91
        4
 64
     7
 65
   257
 75
     1
175
     1
 42
1.0
 92
        0
 66
   257
 43
1.0
 76
     1
 77
     6
 78
     2
 67
     7
 79
     5
170
     0
171
     0
290
     0
174
     0
 93
       13
 44
0.0
173
     0
291
     1
 45
0.0
1001
ACAD
1000
AcDbSavedByObjectVersion
1070
     0
1000
AcDbSavedByObjectVersion
1070
     0
1000
AcDbSavedByObjectVersion
1070
     0
1000
AcDbSavedByObjectVersion
1070
     0
1000
AcDbSavedByObjectVersion
1070
     0
  0
VISUALSTYLE
  5
1E1
102
{ACAD_REACTORS
330
1D3
102
}
330
1D3
100
AcDbVisualStyle
  2
Linepattern
 70
    14
 71
     2
 72
     2
 73
     1
 90
        0
 40
-0.6
 41
-30.0
 62
     5
 63
     7
 74
     1
 91
        4
 64
     7
 65
   257
 75
     7
175
     7
 42
1.0
 92
        8
 66
     7
 43
1.0
 76
     1
 77
     6
 78
     2
 67
     7
 79
     5
170
     0
171
     0
290
     0
174
     0
 93
        1
 44
0.0
173
     0
291
     1
 45
0.0
1001
ACAD
1000
AcDbSavedByObjectVersion
1070
     0
1000
AcDbSavedByObjectVersion
1070
     0
1000
AcDbSavedByObjectVersion
1070
     0
1000
AcDbSavedByObjectVersion
1070
     0
1000
AcDbSavedByObjectVersion
1070
     0
  0
VISUALSTYLE
  5
1DD
102
{ACAD_REACTORS
330
1D3
102
}
330
1D3
100
AcDbVisualStyle
  2
Realistic
 70
     8
 71
     2
 72
     2
 73
     1
 90
        0
 40
-0.6
 41
-30.0
 62
     5
 63
     7
 74
     1
 91
        0
 64
     7
 65
   257
 75
     1
175
     1
 42
1.0
 92
        8
 66
     8
 43
1.0
 76
     1
 77
     6
 78
     2
 67
     7
 79
     5
170
     0
171
     0
290
     0
174
     0
 93
       13
 44
0.0
173
     0
291
     0
 45
0.0
1001
ACAD
1000
AcDbSavedByObjectVersion
1070
     0
1000
AcDbSavedByObjectVersion
1070
     0
1000
AcDbSavedByObjectVersion
1070
     0
1000
AcDbSavedByObjectVersion
1070
     0
1000
AcDbSavedByObjectVersion
1070
     0
  0
VISUALSTYLE
  5
1E0
102
{ACAD_REACTORS
330
1D3
102
}
330
1D3
100
AcDbVisualStyle
  2
Thicken
 70
    13
 71
     2
 72
     2
 73
     1
 90
        0
 40
-0.6
 41
-30.0
 62
     5
 63
     7
 74
     1
 91
        4
 64
     7
 65
   257
 75
     1
175
     1
 42
1.0
 92
       12
 66
     7
 43
1.0
 76
     1
 77
     6
 78
     2
 67
     7
 79
     5
170
     0
171
     0
290
     0
174
     0
 93
        1
 44
0.0
173
     0
291
     1
 45
0.0
1001
ACAD
1000
AcDbSavedByObjectVersion
1070
     0
1000
AcDbSavedByObjectVersion
1070
     0
1000
AcDbSavedByObjectVersion
1070
     0
1000
AcDbSavedByObjectVersion
1070
     0
1000
AcDbSavedByObjectVersion
1070
     0
  0
DICTIONARYVAR
  5
190
102
{ACAD_REACTORS
330
148
102
}
330
148
100
DictionaryVariables
280
     0
  1
STANDARD
  0
DICTIONARYVAR
  5
14A
102
{ACAD_REACTORS
330
148
102
}
330
148
100
DictionaryVariables
280
     0
  1
2
  0
DICTIONARYVAR
  5
149
102
{ACAD_REACTORS
330
148
102
}
330
148
100
DictionaryVariables
280
     0
  1
1
  0
DICTIONARYVAR
  5
2A2C
102
{ACAD_REACTORS
330
148
102
}
330
148
100
DictionaryVariables
280
     0
  1
0
  0
DICTIONARYVAR
  5
2D04
102
{ACAD_REACTORS
330
148
102
}
330
148
100
DictionaryVariables
280
     0
  1
80.000000
  0
DICTIONARYVAR
  5
2D03
102
{ACAD_REACTORS
330
148
102
}
330
148
100
DictionaryVariables
280
     0
  1
5.000000
  0
DICTIONARYVAR
  5
2A2B
102
{ACAD_REACTORS
330
148
102
}
330
148
100
DictionaryVariables
280
     0
  1
127
  0
XRECORD
  5
6AC
102
{ACAD_REACTORS
330
18B
102
}
330
18B
100
AcDbXrecord
280
     1
 91
    33280
301

290
     0
302
Viewport
330
4CB
 90
        8
 62
     8
370
    25
331
16
  1
色_8
330
0
 90
        8
 62
     8
370
    18
331
16
  1
色_8
330
4CA
 90
        8
 62
     2
370
    18
331
16
  1
色_2
330
0
 90
        8
 62
     3
370
    -3
331
16
  1
色_3
330
0
 90
        8
 62
     3
370
    -3
331
16
  1
色_3
330
4C9
 90
        8
 62
     5
370
    18
331
4C4
  1
色_5
330
4C8
 90
        8
 62
     8
370
    50
331
16
  1
色_8
330
4C7
 90
        8
 62
     1
370
    18
331
4C3
  1
色_1
330
4C6
 90
        8
 62
     5
370
    18
331
291
  1
色_5
330
3DC
 90
        8
 62
     4
370
    -3
331
16
  1
色_4
330
345
 90
        0
 62
     6
370
    18
331
16
  1
色_6
330
4C5
 90
        8
 62
     3
370
    18
331
16
  1
色_3
330
3DB
 90
        0
 62
     7
370
    -3
331
16
  1
色_7
330
0
 90
        8
 62
     4
370
    -3
331
16
  1
色_4
330
0
 90
        8
 62
     5
370
    40
331
16
  1
色_5
330
12D
 90
        8
 62
     7
370
    -3
331
16
  1
色_7
330
12C
 90
        8
 62
     7
370
    -3
331
16
  1
色_7
330
E4
 90
        8
 62
     7
370
    25
331
16
  1
色_7
330
10
 90
        8
 62
     7
370
    -3
331
16
  1
色_7
  0
DICTIONARY
  5
2CA7
330
2CA6
100
AcDbDictionary
280
     1
281
     1
  3
ACAD_XREC_ROUNDTRIP
360
2D13
  3
ADSK_XREC_LAYOUTTHUMBNAIL
360
2CA8
  0
DICTIONARY
  5
2D06
330
22
100
AcDbDictionary
280
     1
281
     1
  3
ACAD_XREC_ROUNDTRIP
360
2D07
  0
DICTIONARY
  5
2A3B
330
1D1
100
AcDbDictionary
280
     1
281
     1
  3
ACAD_XREC_ROUNDTRIP
360
2A3C
  0
DICTIONARY
  5
2A39
330
1D0
100
AcDbDictionary
280
     1
281
     1
  3
ACAD_XREC_ROUNDTRIP
360
2A3A
  0
DICTIONARY
  5
2A3D
330
1D2
100
AcDbDictionary
280
     1
281
     1
  3
ACAD_XREC_ROUNDTRIP
360
2A3E
  0
DICTIONARY
  5
2D08
330
11F
100
AcDbDictionary
280
     1
281
     1
  3
ACAD_XREC_ROUNDTRIP
360
2D09
  0
DICTIONARY
  5
2D0A
330
17C
100
AcDbDictionary
280
     1
281
     1
  3
ACAD_XREC_ROUNDTRIP
360
2D0B
  0
XRECORD
  5
2D13
102
{ACAD_REACTORS
330
2CA7
102
}
330
2CA7
100
AcDbXrecord
280
     1
102
SHADEPLOT
 70
     0
102
SHADEPLOTRESLEVEL
 70
     2
102
SHADEPLOTCUSTOMDPI
 70
   300
  0
XRECORD
  5
2CA8
102
{ACAD_REACTORS
330
2CA7
102
}
330
2CA7
100
AcDbXrecord
280
     1
310
28000000B40000007F00000001000800000000004C59000000000000000000000001000000000000FFFFFF0000000000FFFFFF000000000000000000000000000000000000000000000000000000000000000000330000006600000099000000CC000000FF00000000330000333300006633000099330000CC330000FF3300
310
0000660000336600006666000099660000CC660000FF66000000990000339900006699000099990000CC990000FF99000000CC000033CC000066CC000099CC0000CCCC0000FFCC000000FF000033FF000066FF000099FF0000CCFF0000FFFF000000003300330033006600330099003300CC003300FF003300003333003333
310
33006633330099333300CC333300FF33330000663300336633006666330099663300CC663300FF66330000993300339933006699330099993300CC993300FF99330000CC330033CC330066CC330099CC3300CCCC3300FFCC330000FF330033FF330066FF330099FF3300CCFF3300FFFF330000006600330066006600660099
310
006600CC006600FF00660000336600333366006633660099336600CC336600FF33660000666600336666006666660099666600CC666600FF66660000996600339966006699660099996600CC996600FF99660000CC660033CC660066CC660099CC6600CCCC6600FFCC660000FF660033FF660066FF660099FF6600CCFF6600
310
FFFF660000009900330099006600990099009900CC009900FF00990000339900333399006633990099339900CC339900FF33990000669900336699006666990099669900CC669900FF66990000999900339999006699990099999900CC999900FF99990000CC990033CC990066CC990099CC9900CCCC9900FFCC990000FF99
310
0033FF990066FF990099FF9900CCFF9900FFFF99000000CC003300CC006600CC009900CC00CC00CC00FF00CC000033CC003333CC006633CC009933CC00CC33CC00FF33CC000066CC003366CC006666CC009966CC00CC66CC00FF66CC000099CC003399CC006699CC009999CC00CC99CC00FF99CC0000CCCC0033CCCC0066CC
310
CC0099CCCC00CCCCCC00FFCCCC0000FFCC0033FFCC0066FFCC0099FFCC00CCFFCC00FFFFCC000000FF003300FF006600FF009900FF00CC00FF00FF00FF000033FF003333FF006633FF009933FF00CC33FF00FF33FF000066FF003366FF006666FF009966FF00CC66FF00FF66FF000099FF003399FF006699FF009999FF00CC
310
99FF00FF99FF0000CCFF0033CCFF0066CCFF0099CCFF00CCCCFF00FFCCFF0000FFFF0033FFFF0066FFFF0099FFFF00CCFFFF00FFFFFF00000000000D0D0D001A1A1A00282828003535350043434300505050005D5D5D006B6B6B00787878008686860093939300A1A1A100AEAEAE00BBBBBB00C9C9C900D6D6D600E4E4E400
310
F1F1F100FFFFFF0000000000000000000000000000000000000000000000000000000000000000000000000000000000E2E2E2E2E2E2E2E2E2E2E2E2E2E2E2E2E2E2E2E2E2E2E2E2E2E2E2E2E2E2E2E2E2E2E2E2E2E2E2E2E2E2E2E2E2E2E2E2E2E2E2E2E2E2E2E2E2E2E2E2E2E2E2E2E2E2E2E2E2E2E2E2E2E2E2E2E2E2E2
310
E2E2E2E2E2E2E2E2E2E2E2E2E2E2E2E2E2E2E2E2E2E2E2E2E2E2E2E2E2E2E2E2E2E2E2E2E2E2E2E2E2E2E2E2E2E2E2E2E2E2E2E2E2E2E2E2E2E2E2E2E2E2E2E2E2E2E2E2E2E2E2E2E2E2E2E2E2E2E2E2E2E2E2E2E2E2E2E2E2E2E2E2E2E2E2E2E2E2E2E2E2E2F5F5F5F5F5F5F5F5F5F5F5F5F5F5F5F5F5F5F5F5F5F5F5F5F5
310
F5F5F5F5F5F5F5F5F5F5F5F5F5F5F5F5F5F5F5F5F5F5F5F5F5F5F5F5F5F5F5F5F5F5F5F5F5F5F5F5F5F5F5F5F5F5F5F5F5F5F5F5F5F5F5F5F5F5F5F5F5F5F5F5F5F5F5F5F5F5F5F5F5F5F5F5F5F5F5F5F5F5F5F5F5F5F5F5F5F5F5F5F5F5F5F5F5F5F5F5F5F5F5F5F5F5F5F5F5F5F5F5F5F5F5F5F5F5F5F5F5F5F5F5F5F5F5
310
F5F5F5F5F5F5F5F5F5F5F5F5F5F5F5F5F5F5F5F5F5F5F5F5F5E2E2E2F5F5F5F5F5F5F5F5F5F5F5F5F5F5F5F5F5F5F5F5F5F5F5F5F5F5F5F5F5F5F5F5F5F5F5F5F5F5F5F5F5F5F5F5F5F5F5F5F5F5F5F5F5F5F5F5F5F5F5F5F5F5F5F5F5F5F5F5F5F5F5F5F5F5F5F5F5F5F5F5F5F5F5F5F5F5F5F5F5F5F5F5F5F5F5F5F5F5F5
310
F5F5F5F5F5F5F5F5F5F5F5F5F5F5F5F5F5F5F5F5F5F5F5F5F5F5F5F5F5F5F5F5F5F5F5F5F5F5F5F5F5F5F5F5F5F5F5F5F5F5F5F5F5F5F5F5F5F5F5F5F5F5F5F5F5F5F5F5F5F5F5F5F5F5F5F5F5F5E2E2E2F5F5F5F5F5F5F5F5F5F5F5F5F5F5F5F5F5F5F5F5F5F5F5F5F5F5F5F5F5F5F5F5F5F5F5F5F5F5F5F5F5F5F5F5F5F5
310
F5F5F5F5F5F5F5F5F5F5F5F5F5F5F5F5F5F5F5F5F5F5F5F5F5F5F5F5F5F5F5F5F5F5F5F5F5F5F5F5F5F5E2F5F5F5F5F5F5F5F5F5F5F5F5F5F5F5F5F5F5F5F5F5F5F5F5F5F5F5F5F5F5F5F5F5F5F5F5F5F5F5F5F5F5F5F5F5F5F5F5F5F5F5F5F5F5F5F5F5F5F5F5F5F5F5F5F5F5F5F5F5F5F5F5F5F5F5F5F5F5F5F5F5F5F5F5
310
F5F5F5F5E2E2E2F5F5F5E2E2E2E2E2E2E2E2E2E2E2E2E2E2E2E2E2E2E2E2E2E2E2E2E2E2E2E2E2E2E2E2E2E2E2E2E2E2E2E2E2E2E2E2E2E2E2E2E2E2E2E2E2E2E2E2E2E2E2E2E2E2E2E2E2E2E2E2E2E2E2E2E2E2E2E2E2E2E2E2E2E2E2E2E2E2E2E2E2E2E2E2E2E2E2E2E2E2E2E2E2E2E2E2E2E2E2E2E2E2E2E2E2E2E2E2E2
310
E2E2E2E2E2E2E2E2E2E2E2E2E2E2E2E2E2E2E2E2E2E2E2E2E2E2E2E2E2E2E2E2E2E2E2E2E2E2E2E2E2E2E2E2E2E2E2E2E2E2E2E2E2E2F5F5F5E2E2E2F5F5F5E2F5F5E2F5F5F5F5F5F5F5F5F5F5F5F5F5F5F5F5F5F5F5F5F5F5F5F5F5F5F5F5F5F5F5F5F5F5F5F5F5F5F5F5F5F5F5F5F5F5F5F5F5F5F5F5F5F5F5F5F5F5F5F5
310
F5F5F5F5F5F5F5F5F5F5F5F5F5F5F5F5F5F5F5F5F5F5F5F5F5F5F5F5F5F5F5F5E2F5F5E2E2E2E2E2E2E2E2E2E2E2E2E2E2E2E2E2E2E2E2E2E2E2E2E2F5F5F5E2F5F5F5F5F5F5F5F5F5F5F5F5F5F5F5F5F5F5F5F5F5F5F5F5F5F5F5F5F5F5F5F5F5F5F5F5F5F5F5E2F5F5E2F5F5F5E2E2E2F5F5F5E2F5F5E2F5F5F5F5F5F5F5
310
F5F5F5F5F5F5F5F5F5F5F5F5F5F5F5F5F5F5F5F5F5F5F5F5F5F5F5F5F5F5F5F5F5F5F5F5F5F5F5F5F5F5F5F5F5F5F5F5F5F5F5F5F5F5F5F5F5F5F5F5F5F5F5F5F5F5F5F5F5F5F5F5F5F5F5F5F5F5F5F5F5F5F5F5F5E2F5F5E2E2E2E2E2E2E2E2E2E2E2E2E2E2E2E2E2E2E2E2E2E2E2E2E2F5F5F5E2F5F5F5F5F5F5F5F5F5F5
310
F5F5F5F5F5F5F5F5F5F5F5F5F5F5F5F5F5F5F5F5F5F5F5F5F5F5F5F5F5E2F5F5E2F5F5F5E2E2E2F5F5F5E2F5F5E2F5F5F5F5F5F5F5F5F5F5F5F5F5F5F5F5F5F5F5F5F5F5F5F5F5F5F5F5F5F5F5F5F5F5F5F5F5F5F5F5F5F5F5F5F5F5F5F5F5F5F5F5F5F5F5F5F5F5F5F5F5F5F5F5F5F5F5F5F5F5F5F5F5F5F5F5F5F5F5F5F5
310
F5F5F5F5F5F5F5F5F5F5F5E2F5F5E2E2E2E2E2E2E2E2E2E2E2E2E2E2E2E2E2E2E2E2E2E2E2E2E2F5F5F5E2F5F5F5F5F5F5F5F5F5F5F5F5F5F5F5F5F5F5F5F5F5F5F5F5F5F5F5F5F5F5F5F5F5F5F5F5F5F5F5E2F5F5E2F5F5F5E2E2E2F5F5F5E2F5F5E2F5F5F5F5F5F5F5F5F5F5F5F5F5F5F5F5F5F5F5F5F5F5F5F5F5F5F5F5
310
F5F5F5F5F5F5F5F5F5F5F5F5F5F5F5F5F5F5F5F5F5F5F5F5F5F5F5F5F5F5F5F5F5F5F5F5F5F5F5F5F5F5F5F5F5F5F5F5F5F5F5F5F5F5F5F5F5F5F5F5F5F5F5F5E2F5F5E2E2E2E2E2E2E2E2E2E2E2E2E2E2E2E2E2E2E2E2E2E2E2E2E2F5F5F5E2F5F5F5F5F5F5F5F5F5F5F5F5F5F5F5F5F5F5F5F5F5F5F5F5F5F5F5F5F5F5F5
310
F5F5F5F5F5F5F5F5E2F5F5E2F5F5F5E2E2E2F5F5F5E2F5F5E2F5F5F5F5F5F5F5F5F5F5F5F5F5F5F5F5F5F5F5F5F5F5F5F5F5F5F5F5F5F5F5F5F5F5F5F5F5F5F5F5F5F5F5F5F5F5F5F5F5F5F5F5F5F5F5F5F5F5F5F5F5F5F5F5F5F5F5F5F5F5F5F5F5F5F5F5F5F5F5F5F5F5F5F5F5F5F5F5F5F5F5F5E2F5F5F5F5F5F5F5F5F5
310
F5F5F5F5F5F5F5F5F5F5F5F5F5F5F5F5F5F5F5F5F5E2F5F5F5F5F5F5F5F5F5F5F5F5F5F5F5F5F5F5F5F5F5F5F5F5F5F5F5F5F5F5F5F5F5F5F5F5F5F5F5E2F5F5E2F5F5F5E2E2E2F5F5F5E2F5F5E2F5F5F5F5F5F5F5F5F5F5F5F5F5F5F5F5F5F5F5F5F5F5F5F5F5F5F5F5F5F5F5F5F5F5F5F5F5F5F5F5F5F5F5F5F5F5F5F5F5
310
F5F5F5F5F5F5F5F5F5F5F5F5F5F5F5F5F5F5F5F5F5F5F5F5F5F5F5F5F5F5F5F5F5F5F5F5F5F5F5F5F5F5F5E2E2E2E2E2E2E2E2E2E2E2E2E2E2E2E2E2E2E2E2E2E2E2E2E2E2E2E2E2E2E2E2E2E2E2E2E2E2E2E2E2E2E2E2E2E2E2E2E2E2E2E2E2E2E2E2E2E2E2E2E2E2E2E2E2E2E2E2E2E2E2E2F5F5E2F5F5F5E2E2E2F5F5F5
310
E2F5F5E2F5F5F5F5F5F5F5F5F5F5F5F5F5F5F5F5F5F5F5F5F5F5F5F5F5F5F5F5F5F5F5F5F5F5F5F5F5F5F5F5F5F5F5F5F5F5F5F5F5F5F5F5F5F5F5F5F5F5F5F5F5F5F5F5F5F5F5F5F5F5F5F5F5F5F5F5F5F5F5F5F5F5F5F5F5F5F5F5F5F5F5F5E2F5F5F5F5F5F5F5F5F5F5F5F5F5F5F5F5F5F5F5F5F5F5F5F5F5F5F5F5F5F5
310
F5F5F5F5F5F5F5F5F5F5F5F5F5F5F5F5F5F5F5F5F5F5F5F5F5F5F5F5F5F5F5F5F5F5F5F5F5F5F5F5E2F5F5E2F5F5F5E2E2E2F5F5F5F5F5F5E2F5F5F5F5F5F5F5F5F5F5F5F5F5F5F5F5F5F5F5F5F5F5F5F5F5F5F5F5F5F5F5F5F5F5F5F5F5F5F5F5F5F5F5F5F5F5F5F5F5F5F5F5F5F5F5F5F5F5F5F5F5F5F5F5F5F5F5F5F5F5
310
F5F5F5F5F5F5F5F5F5F5F5F5F5F5F5F5F5F5F5F5F5F5E2F5F5F5F5F5F5F5F5F5F5F5F5F5F5F5F5F5F5E2E2E2E2E2E2E2E2E2E2E2E2E2E2E2E2E2E2E2E2E2E2E2E2E2E2E2E2E2E2E2E2E2E2E2F5F5F5F5F5F5F5F5F5F5F5F5F5F5F5F5F5E2F5F5F5F5F5F5E2E2E2F5F5F5F5F5F5E2F5F5F5F5F5F5F5F5F5F5F5F5F5F5F5F5F5
310
F5F5F5F5F5F5F5F5F5F5F5F5F5F5F5F5F5F5F5F5F5F5F5F5F5F5F5F5F5F5F5F5F5F5F5F5F5F5F5F5F5F5F5F5F5F5F5F5F5F5F5F5F5F5F5F5F5F5F5F5F5F5F5F5F5F5F5F5F5F5F5F5F5F5F5E2F5F5F5F5F5F5F5F5F5F5F5F5F5F5F5F5F5F5E2E2E2E2E2E2E2E2E2E2E2E2E2E2E2E2E2E2E2E2E2E2E2E2E2E2E2E2E2E2E2E2E2
310
E2E2F5F5F5F5F5F5F5F5F5F5F5F5F5F5F5F5F5E2F5F5F5F5F5F5E2E2E2F5F5F5F5F5F5E2F5F5F5F5F5F5F5F5F5F5F5F5F5F5F5F5F5F5F5F5F5F5F5F5F5F5F5F5F5F5F5F5F5F5F5F5F5F5F5F5F5F5F5F5F5F5F5F5F5F5F5F5F5F5F5F5F5F5F5F5F5F5F5F5F5F5F5F5F5F5F5F5F5F5F5F5F5F5F5F5F5F5F5F5F5F5F5F5F5F5F5
310
F5E2F5F5F5F5F5F5F5F5F5F5F5F5F5F5F5F5F5F5E2E2E2E2E2E2E2E2E2E2E2E2E2E2E2E2E2E2E2E2E2E2E2E2E2E2E2E2E2E2E2E2E2E2E2F5F5F5F5F5F5F5F5F5F5F5F5F5F5F5F5F5E2F5F5F5F5F5F5E2E2E2F5F5F5F5F5F5E2F5F5F5F5F5F5F5F5F5F5F5F5F5F5F5F5F5F5F5F5F5F5F5F5F5F5F5F5F5F5F5F5F5F5F5F5F5F5
310
F5F5F5F5F5F5F5F5F5F5F5F5F5F5F5F5F5F5F5F5F5F5F5F5F5F5F5F5F5F5F5F5F5F5F5F5F5F5F5F5F5F5F5F5F5F5F5F5F5F5F5F5F5F5E2F5F5F5F5F5F5F5F5F5F5F5F5F5F5F5F5F5F5E2E2E2E2E2E2E2E2E2E2E2E2E2E2E2E2E2E2E2E2E2E2E2E2E2E2E2E2E2E2E2E2E2E2E2F5F5F5F5F5F5F5F5F5F5F5F5F5F5F5F5F5E2F5
310
F5F5F5F5F5E2E2E2F5F5F5F5F5F5E2F5F5F5F5F5F5F5F5F5F5F5F5F5F5F5F5F5F5F5F5F5F5F5F5F5F5F5F5F5F5F5F5F5F5F5F5F5F5F5F5F5F5F5F5F5F5F5F5F5F5F5F5F5F5F5F5F5F5F5F5F5F5F5F5F5F5F5F5F5F5F5F5F5F5F5F5F5F5F5F5F5F5F5F5F5F5F5F5F5F5F5F5E2F5F5F5F5F5F5F5F5F5F5F5F5F5F5F5F5F5F5F5
310
F5F5F5F5F5F5F5F5F5F5F5F5F5F5F5F5F5F5F5F5F5F5F5F5F5F5F5F5F5F5F5F5F5F5F5F5F5F5F5F5F5F5F5F5F5F5F5F5F5F5F5E2F5F5F5F5F5F5E2E2E2F5F5F5F5F5F5E2F5F5F5F5F5F5F5F5F5F5F5F5F5F5F5F5F5F5F5F5F5F5F5F5F5F5F5F5F5F5F5F5F5F5F5F5F5F5F5F5F5F5F5F5F5F5F5F5F5F5F5F5F5F5F5F5F5F5F5
310
F5F5F5F5F5F5F5F5F5F5F5F5F5F5F5F5F5F5F5F5F5F5F5F5F5F5F5F5F5F5F5F5F5E2F5F5F5F5F5F5F5F5F5F5F5F5F5F5F5F5F5F5F5F5F5F5F5F5F5F5F5F5F5F5F5F5F5F5F5F5F5F5F5F5F5F5F5F5F5F5F5F5F5F5F5F5F5F5F5F5F5F5F5F5F5F5F5F5F5F5F5F5F5F5E2F5F5F5F5F5F5E2E2E2F5F5F5F5F5F5E2F5F5F5F5F5F5
310
F5F5F5F5F5F5F5F5F5F5F5F5F5F5F5F5F5F5F5F5F5F5F5F5F5F5F5F5F5F5F5F5F5F5F5F5F5F5F5F5F5F5F5F5F5F5F5F5F5F5F5F5F5F5F5F5F5F5F5F5F5F5F5F5F5F5F5F5F5F5F5F5F5F5F5F5F5F5F5F5F5F5F5F5F5F5E2E2E2E2E2E2E2E2E2E2E2E2E2E2E2E2E2E2E2E2E2E2E2E2E2E2E2E2E2E2E2E2E2E2E2E2E2E2E2E2E2
310
E2E2E2E2E2E2E2E2E2E2E2E2E2E2E2E2E2E2E2E2E2E2E2E2E2E2E2E2E2E2E2F5F5F5F5F5F5E2E2E2F5F5F5F5F5F5E2F5F5F5F5F5F5F5F5F5F5F5F5F5F5F5F5F5F5F5F5F5F5F5F5F5F5F5F5F5F5F5F5F5F5F5F5F5F5F5F5F5F5F5F5F5F5F5F5F5F5F5F5F5F5F5F5F5F5F5F5F5F5F5F5F5F5F5F5F5F5F5F5F5F5F5F5F5F5F5F5
310
F5F5F5F5F5F5F5F5F5F5F5F5E2F5F5F5F5F5F5F5F5F5F5F5F5F5F5F5F5F5F5F5F5F5F5F5F5F5F5F5F5F5F5F5F5F5F5F5F5F5F5F5F5F5F5F5F5F5F5F5F5F5F5F5F5F5F5F5F5F5F5F5F5F5F5F5F5F5F5F5F5F5F5E2F5F5F5F5F5F5E2E2E2F5F5F5F5F5F5E2F5F5F5F5F5F5F5F5F5F5F5F5F5F5F5F5F5F5F5F5F5F5F5F5F5F5F5
310
F5F5F5F5F5F5F5F5F5F5F5F5F5F5F5F5F5F5F5F5F5F5F5F5F5F5F5F5F5F5F5F5F5F5F5F5F5F5F5F5F5F5F5F5F5F5F5F5F5F5F5F5F5F5F5F5F5F5F5F5F5F5F5F5F5E2E2E2E2E2E2E2E2E2E2E2E2E2E2E2E2E2E2E2E2E2E2E2E2E2E2E2E2E2E2E2E2E2E2E2E2E2E2E2E2E2E2E2E2E2E2E2E2E2E2E2E2E2E2E2E2E2E2E2E2E2E2
310
E2E2E2E2E2E2E2E2E2E2F5F5F5F5F5F5E2E2E2F5F5F5E2F5F5E2F5F5F5F5F5F5F5F5F5F5F5F5F5F5F5F5F5F5F5F5F5F5F5F5F5F5F5F5F5F5F5F5F5F5F5F5F5F5F5F5F5F5F5F5F5F5F5F5F5F5F5F5F5F5F5F5F5F5F5F5F5F5F5F5F5F5F5F5F5F5F5F5F5F5F5F5F5F5F5F5F5F5F5F5F5F5F5F5F5F5F5F5F5F5F5F5F5F5F5F5F5
310
F5F5F5F5F5F5F5F5F5F5F5F5F5F5F5F5F5F5F5F5F5F5F5F5F5F5F5F5F5F5F5F5F5F5F5F5F5F5F5F5F5F5F5F5F5F5F5F5F5F5F5F5F5F5F5F5F5F5F5F5F5F5E2F5F5E2F5F5F5E2E2E2F5F5F5E2F5F5E2F5F5F5F5F5F5F5F5F5F5F5F5F5F5F5F5F5F5F5F5F5F5F5F5F5F5F5F5F5F5F5F5F5F5F5F5F5F5F5F5F5F5F5F5F5F5F5F5
310
F5F5F5F5F5F5F5F5F5F5F5F5F5F5F5F5F5F5F5F5F5F5F5F5F5F5F5F5F5F5F5F5F5F5F5F5F5F5F5F5F5F5F5F5F5F5F5F5F5F5F5F5F5F5F5F5F5F5F5F5F5F5F5F5F5F5F5F5F5F5F5F5F5F5F5F5F5F5F5F5F5F5F5F5F5F5F5F5F5F5F5F5F5F5F5F5F5F5F5F5F5F5F5F5F5F5F5F5F5F5F5F5F5F5F5E2F5F5E2F5F5F5E2E2E2F5F5
310
F5E2F5F5E2F5F5F5F5F5F5F5F5F5F5F5F5F5F5F5F5F5F5F5F5F5F5F5F5F5F5F5F5F5F5F5F5F5F5F5F5F5F5F5F5F5F5F5F5F5F5F5F5F5F5F5F5F5F5F5F5F5F5F5F5F5F5F5F5F5F5F5F5F5F5F5F5F5F5F5F5F5F5F5F5F5F5F5F5F5F5F5F5F5F5F5F5F5F5F5F5F5F5F5F5F5F5F5F5F5F5F5F5F5F5F5F5F5F5F5F5F5F5F5F5F5F5
310
F5F5F5F5F5F5F5F5F5F5F5F5F5F5F5F5F5F5F5F5F5F5F5F5F5F5F5F5F5F5F5F5F5F5F5F5F5F5F5F5F5E2F5F5E2F5F5F5E2E2E2F5F5F5E2F5F5E2F5F5F5F5F5F5F5F5F5F5F5F5F5F5F5F5F5F5F5F5F5F5F5F5F5F5F5F5F5F5F5F5F5F5F5F5F5F5F5F5F5F5F5F5F5F5F5F5F5F5F5F5F5F5F5F5F5F5F5F5F5F5F5F5F5F5F5F5F5
310
F5F5F5F5F5F5F5F5F5F5F5F5F5F5F5F5F5F5F5F5F5F5F5F5F5F5F5F5F5F5F5F5F5F5F5F5F5F5F5F5F5F5F5F5F5F5F5F5F5F5F5F5F5F5F5F5F5F5F5F5F5F5F5F5F5F5F5F5F5F5F5F5F5F5F5F5F5F5F5F5F5F5F5F5F5F5F5F5F5F5F5F5F5F5E2F5F5E2F5F5F5E2E2E2F5F5F5E2F5F5E2F5F5F5F5F5F5F5F5F5F5F5F5F5F5F5F5
310
F5F5F5F5F5F5F5F5F5F5F5F5F5F5F5F5F5F5F5F5F5F5F5F5F5F5F5F5F5F5F5F5F5F5F5F5F5F5F5F5F5F5F5F5F5F5F5F5F5F5F5F5F5F5F5F5F5F5F5F5F5F5F5F5F5F5F5F5F5F5F5F5F5F5F5F5F5F5F5F5F5F5F5F5F5F5F5F5F5F5F5F5F5F5F5F5F5F5F5F5F5F5F5F5F5F5F5F5F5F5F5F5F5F5F5F5F5F5F5F5F5F5F5F5F5F5F5
310
F5F5F5F5F5F5F5F5F5F5F5F5F5F5F5F5F5F5F5F5E2F5F5E2F5F5F5E2E2E2F5F5F5E2F5F5E2F5F5F5F5F5F5F5F5F5F5F5F5F5F5F5F5F5F5F5F5F5F5F5F5F5F5F5F5F5F5F5F5F5F5F5F5F5F5F5F5F5F5F5F5F5F5F5F5F5F5F5F5F5F5F5F5F5F5F5F5F5F5F5F5F5F5F5F5F5F5F5F5F5F5F5F5F5F5F5F5F5F5F5F5F5F5F5F5F5F5
310
F5F5F5F5F5F5F5F5F5F5F5F5F5F5F5F5F5F5F5F5F5F5F5F5F5F5F5F5F5F5F5F5F5F5F5F5F5F5F5F5F5F5F5F5F5F5F5F5F5F5F5F5F5F5F5F5F5F5F5F5F5F5F5F5F5F5F5F5F5F5F5F5F5E2F5F5E2F5F5F5E2E2E2F5F5F5E2F5F5E2F5F5F5F5F5F5F5F5F5F5F5F5F5F5F5F5F5F5F5F5F5F5F5F5F5F5F5F5F5F5F5F5F5F5F5F5F5
310
F5F5F5F5F5F5F5F5F5F5F5F5F5F5F5F5F5F5F5F5F5F5F5F5F5F5F5F5F5F5F5F5F5F5F5F5F5F5F5F5F5F5F5F5F5F5F5F5F5F5F5F5F5F5F5F5F5F5F5F5F5F5F5F5F5F5F5F5F5F5F5F5F5F5F5F5F5F5F5F5F5F5F5F5F5F5F5F5F5F5F5F5F5F5F5F5F5F5F5F5F5F5F5F5F5F5F5F5F5F5F5F5F5F5F5F5F5F5F5F5F5F5F5F5F5F5E2
310
F5F5E2F5F5F5E2E2E2F5F5F5E2F5F5E2F5F5F5F5F5F5F5F5F5F5F5F5F5F5F5F5F5F5F5F5F5F5F5F5F5F5F5F5F5F5F5F5F5F5F5F5F5F5F5F5F5F5F5F5F5F5F5F5F5F5F5F5F5F5F5F5F5F5F5F5F5F5F5F5F5F5F5F5F5F5F5F5F5F5F5F5F5F5F5F5F5F5F5F5F5F5F5F5F5F5F5F5F5F5F5F5F5F5F5F5F5F5F5F5F5F5F5F5F5F5F5
310
F5F5F5F5F5F5F5F5F5F5F5F5F5F5F5F5F5F5F5F5F5F5F5F5F5F5F5F5F5F5F5F5F5F5F5F5F5F5F5F5F5F5F5F5F5F5F5F5F5F5F5F5E2F5F5E2F5F5F5E2E2E2F5F5F5E2F5F5E2F5F5F5F5F5F5F5F5F5F5F5F5F5F5F5F5F5F5F5F5F5F5F5F5F5F5F5F5F5F5F5F5F5F5F5F5F5F5F5F5F5F5F5F5F5F5F5F5F5F5F5F5F5F5F5F5F5F5
310
F5F5F5F5F5F5F5F5F5F5F5F5F5F5F5F5F5F5F5F5F5F5F5F5F5F5F5F5F5F5F5F5F5F5F5F5F5F5F5F5F5F5F5F5F5F5F5F5F5F5F5F5F5F5F5F5F5F5F5F5F5F5F5F5F5F5F5F5F5F5F5F5F5F5F5F5F5F5F5F5F5F5F5F5F5F5F5F5F5F5F5F5F5F5F5F5F5F5F5F5F5F5F5F5F5E2F5F5E2F5F5F5E2E2E2F5F5F5E2F5F5E2F5F5F5F5F5
310
F5F5F5F5F5F5F5F5F5F5F5F5F5F5F5F5F5F5F5F5F5F5F5F5F5F5F5F5F5F5F5F5F5F5F5F5F5F5F5F5F5F5F5F5F5F5F5F5F5F5F5F5F5F5F5F5F5F5F5F5F5F5F5F5F5F5F5F5F5F5F5F5F5F5F5F5F5F5F5F5F5F5F5F5F5F5F5F5F5F5F5F5F5F5F5F5F5F5F5F5F5F5F5F5F5F5F5F5F5F5F5F5F5F5F5F5F5F5F5F5F5F5F5F5F5F5F5
310
F5F5F5F5F5F5F5F5F5F5F5F5F5F5F5F5F5F5F5F5F5F5F5F5F5F5F5F5F5F5F5E2F5F5E2F5F5F5E2E2E2F5F5F5E2F5F5E2F5F5F5F5F5F5F5F5F5F5F5F5F5F5F5F5F5F5F5F5F5F5F5F5F5F5F5F5F5F5F5F5F5F5F5F5F5F5F5F5F5F5F5F5F5F5F5F5F5F5F5F5F5F5F5F5F5F5F5F5F5F5F5F5F5F5F5F5F5F5F5F5F5F5F5F5F5F5F5
310
F5F5F5F5F5F5F5F5F5F5F5F5F5F5F5F5F5F5F5F5F5F5F5F5F5F5F5F5F5F5F5F5F5F5F5F5F5F5F5F5F5F5F5F5F5F5F5F5F5F5F5F5F5F5F5F5F5F5F5F5F5F5F5F5F5F5F5F5F5F5F5F5F5F5F5F5F5F5F5F5F5F5F5F5E2F5F5E2F5F5F5E2E2E2F5F5F5E2F5F5E2F5F5F5F5F5F5F5F5F5F5F5F5F5F5F5F5F5F5F5F5F5F5F5F5F5F5
310
F5F5F5F5F5F5F5F5F5F5F5F5F5F5F5F5F5F5F5F5F5F5F5F5F5F5F5F5F5F5F5F5F5F5F5F5F5F5F5F5F5F5F5F5F5F5F5F5F5F5F5F5F5F5F5F5F5F5F5F5F5F5F5F5F5F5F5F5F5F5F5F5F5F5F5F5F5F5F5F5F5F5F5F5F5F5F5F5F5F5F5F5F5F5F5F5F5F5F5F5F5F5F5F5F5F5F5F5F5F5F5F5F5F5F5F5F5F5F5F5F5F5F5F5F5F5F5
310
F5F5F5F5F5F5F5F5F5F5E2F5F5E2F5F5F5E2E2E2F5F5F5E2F5F5E2F5F5F5F5F5F5F5F5F5F5F5F5F5F5F5F5F5F5F5F5F5F5F5F5F5F5F5F5F5F5F5F5F5F5F5F5F5F5F5F5F5F5F5F5F5F5F5F5F5F5F5F5F5F5F5F5F5F5F5F5F5F5F5F5F5F5F5F5F5F5F5F5F5F5F5F5F5F5F5F5F5F5F5F5F5F5F5F5F5F5F5F5F5F5F5F5F5F5F5F5
310
F5F5F5F5F5F5F5F5F5F5F5F5F5F5F5F5F5F5F5F5F5F5F5F5F5F5F5F5F5F5F5F5F5F5F5F5F5F5F5F5F5F5F5F5F5F5F5F5F5F5F5F5F5F5F5F5F5F5F5F5F5F5F5E2F5F5E2F5F5F5E2E2E2F5F5F5E2F5F5E2F5F5F5F5F5F5F5F5F5F5F5F5F5F5F5F5F5F5F5F5F5F5F5F5F5F5F5F5F5F5F5F5F5F5F5F5F5F5F5F5F5F5F5F5F5F5F5
310
F5F5F5F5F5F5F5F5F5F5F5F5F5F5F5F5F5F5F5F5F5F5F5F5F5F5F5F5F5F5F5F5F5F5F5F5F5F5F5F5F5F5F5F5F5F5F5F5F5F5F5F5F5F5F5F5F5F5F5F5F5F5F5F5F5F5F5F5F5F5F5F5F5F5F5F5F5F5F5F5F5F5F5F5F5F5F5F5F5F5F5F5F5F5F5F5F5F5F5F5F5F5F5F5F5F5F5F5F5F5F5F5F5F5F5F5E2F5F5E2F5F5F5E2E2E2F5
310
F5F5E2F5F5E2F5F5F5F5F5F5F5F5F5F5F5F5F5F5F5F5F5F5F5F5F5F5F5F5F5F5F5F5F5F5F5F5F5F5F5F5F5F5F5F5F5F5F5F5F5F5F5F5F5F5F5F5F5F5F5F5F5F5F5F5F5F5F5F5F5F5F5F5F5F5F5F5F5F5F5F5F5F5F5F5F5F5F5F5F5F5F5F5F5F5F5F5F5F5F5F5F5F5F5F5F5F5F5F5F5F5F5F5F5F5F5F5F5F5F5F5F5F5F5F5F5
310
F5F5F5F5F5F5F5F5F5F5F5F5F5F5F5F5F5F5F5F5F5F5F5F5F5F5F5F5F5F5F5F5F5F5F5F5F5F5F5F5F5F5E2F5F5E2F5F5F5E2E2E2F5F5F5F5F5F5E2F5F5F5F5F5F5F5F5F5F5F5F5F5F5F5F5F5F5F5F5F5F5F5F5F5F5F5F5F5F5F5F5F5F5F5F5F5F5F5F5F5F5F5F5F5F5F5F5F5F5F5F5F5F5F5F5F5F5F5F5F5F5F5F5F5F5F5F5
310
F5F5F5F5F5F5F5F5F5F5F5F5F5F5F5F5F5F5F5F5F5F5F5F5F5F5F5F5F5F5F5F5F5F5F5F5F5F5F5F5F5F5F5F5F5F5F5F5F5F5F5F5F5F5F5F5F5F5F5F5F5F5F5F5F5F5F5F5F5F5F5F5F5F5F5F5F5F5F5F5F5F5F5F5F5F5F5F5F5F5F5F5F5F5F5E2F5F5F5F5F5F5E2E2E2F5F5F5F5F5F5E2F5F5F5F5F5F5F5F5F5F5F5F5F5F5F5
310
F5F5F5F5F5F5F5F5F5F5F5F5F5F5F5F5F5F5F5F5F5F5F5F5F5F5F5F5F5F5F5F5F5F5F5F5F5F5F5F5F5F5F5F5F5F5F5F5F5F5F5F5F5F5F5F5F5F5F5F5F5F5F5F5F5F5F5F5F5F5F5F5F5F5F5F5F5F5F5F5F5F5F5F5F5F5F5F5F5F5F5F5F5F5F5F5F5F5F5F5F5F5F5F5F5F5F5F5F5F5F5F5F5F5F5F5F5F5F5F5F5F5F5F5F5F5F5
310
F5F5F5F5F5F5F5F5F5F5F5F5F5F5F5F5F5F5F5F5F5E2F5F5F5F5F5F5E2E2E2F5F5F5F5F5F5E2F5F5F5F5F5F5F5F5F5F5F5F5F5F5F5F5F5F5F5F5F5F5F5F5F5F5F5F5F5F5F5F5F5F5F5F5F5F5F5F5F5F5F5F5F5F5F5F5F5F5F5F5F5F5F5F5F5F5F5F5F5F5F5F5F5F5F5F5F5F5F5F5F5F5F5F5F5F5F5F5F5F5F5F5F5F5F5F5F5
310
F5F5F5F5F5F5F5F5F5F5F5F5F5F5F5F5F5F5F5F5F5F5F5F5F5F5F5F5F5F5F5F5F5F5F5F5F5F5F5F5F5F5F5F5F5F5F5F5F5F5F5F5F5F5F5F5F5F5F5F5F5F5F5F5F5F5F5F5F5F5F5F5F5F5E2F5F5F5F5F5F5E2E2E2F5F5F5F5F5F5E2F5F5F5F5F5F5F5F5F5F5F5F5F5F5F5F5F5F5F5F5F5F5F5F5F5F5F5F5F5F5F5F5F5F5F5F5
310
F5F5F5F5F5F5F5F5F5F5F5F5F5F5F5F5F5F5F5F5F5F5F5F5F5F5F5F5F5F5F5F5F5F5F5F5F5F5F5F5F5F5F5F5F5F5F5F5F5F5F5F5F5F5F5F5F5F5F5F5F5F5F5F5F5F5F5F5F5F5F5F5F5F5F5F5F5F5F5F5F5F5F5F5F5F5F5F5F5F5F5F5F5F5F5F5F5F5F5F5F5F5F5F5F5F5F5F5F5F5F5F5F5F5F5F5F5F5F5F5F5F5F5F5F5F5F5
310
E2F5F5F5F5F5F5E2E2E2F5F5F5F5F5F5E2F5F5F5F5F5F5F5F5F5F5F5F5F5F5F5F5F5F5F5F5F5F5F5F5F5F5F5F5F5F5F5F5F5F5F5F5F5F5F5F5F5F5F5F5F5F5F5F5F5F5F5F5F5F5F5F5F5F5F5F5F5F5F5F5F5F5F5F5F5F5F5F5F5F5F5F5F5F5F5F5F5F5F5F5F5F5F5F5F5F5F5F5F5F5F5F5F5F5F5F5F5F5F5F5F5F5F5F5F5F5
310
F5F5F5F5F5F5F5F5F5F5F5F5F5F5F5F5F5F5F5F5F5F5F5F5F5F5F5F5F5F5F5F5F5F5F5F5F5F5F5F5F5F5F5F5F5F5F5F5F5F5F5F5F5E2F5F5F5F5F5F5E2E2E2F5F5F5F5F5F5E2F5F5F5F5F5F5F5F5F5F5F5F5F5F5F5F5F5F5F5F5F5F5F5F5F5F5F5F5F5F5F5F5F5F5F5F5F5F5F5F5F5F5F5F5F5F5F5F5F5F5F5F5F5F5F5F5F5
310
F5F5F5F5F5F5F5F5F5F5F5F5F5F5F5F5F5F5F5F5F5F5F5F5F5F5F5F5F5F5F5F5F5F5F5F5F5F5F5F5F5F5F5F5F5F5F5F5F5F5F5F5F5F5F5F5F5F5F5F5F5F5F5F5F5F5F5F5F5F5F5F5F5F5F5F5F5F5F5F5F5F5F5F5F5F5F5F5F5F5F5F5F5F5F5F5F5F5F5F5F5F5F5F5F5F5E2F5F5F5F5F5F5E2E2E2F5F5F5F5F5F5E2F5F5F5F5
310
F5F5F5F5F5F5F5F5F5F5F5F5F5F5F5F5F5F5F5F5F5F5F5F5F5F5F5F5F5F5F5F5F5F5F5F5F5F5F5F5F5F5F5F5F5F5F5F5F5F5F5F5F5F5F5F5F5F5F5F5F5F5F5F5F5F5F5F5F5F5F5F5F5F5F5F5F5F5F5F5F5F5F5F5F5F5F5F5F5F5F5F5F5F5F5F5F5F5F5F5F5F5F5F5F5F5F5F5F5F5F5F5F5F5F5F5F5F5F5F5F5F5F5F5F5F5F5
310
F5F5F5F5F5F5F5F5F5F5F5F5F5F5F5F5F5F5F5F5F5F5F5F5F5F5F5F5F5F5F5F5E2F5F5F5F5F5F5E2E2E2F5F5F5F5F5F5E2F5F5F5F5F5F5F5F5F5F5F5F5F5F5F5F5F5F5F5F5F5F5F5F5F5F5F5F5F5F5F5F5F5F5F5F5F5F5F5F5F5F5F5F5F5F5F5F5F5F5F5F5F5F5F5F5F5F5F5F5F5F5F5F5F5F5F5F5F5F5F5F5F5F5F5F5F5F5
310
F5F5F5F5F5F5F5F5F5F5F5F5F5F5F5F5F5F5F5F5F5F5F5F5F5F5F5F5F5F5F5F5F5F5F5F5F5F5F5F5F5F5F5F5F5F5F5F5F5F5F5F5F5F5F5F5F5F5F5F5F5F5F5F5F5F5F5F5F5F5F5F5F5F5F5F5F5F5F5F5F5F5F5F5F5E2F5F5F5F5F5F5E2E2E2F5F5F5E2F5F5E2F5F5F5F5F5F5F5F5F5F5F5F5F5F5F5F5F5F5F5F5F5F5F5F5F5
310
F5F5F5F5F5F5F5F5F5F5F5F5F5F5F5F5F5F5F5F5F5F5F5F5F5F5F5F5F5F5F5F5F5F5F5F5F5F5F5F5F5F5F5F5F5F5F5F5F5F5F5F5F5F5F5F5F5F5F5F5F5F5F5F5F5F5F5F5F5F5F5F5F5F5F5F5F5F5F5F5F5F5F5F5F5F5F5F5F5F5F5F5F5F5F5F5F5F5F5F5F5F5F5F5F5F5F5F5F5F5F5F5F5F5F5F5F5F5F5F5F5F5F5F5F5F5F5
310
F5F5F5F5F5F5F5F5F5F5F5E2F5F5E2F5F5F5E2E2E2F5F5F5E2F5F5E2F5F5F5F5F5F5F5F5F5F5F5F5F5F5F5F5F5F5F5F5F5F5F5F5F5F5F5F5F5F5F5F5F5F5F5F5F5F5F5F5F5F5F5F5F5F5F5F5F5F5F5F5F5F5F5F5F5F5F5F5F5F5F5F5F5F5F5F5F5F5F5F5F5F5F5F5F5F5F5F5F5F5F5F5F5F5F5F5F5F5F5F5F5F5F5F5F5F5F5
310
F5F5F5F5F5F5F5F5F5F5F5F5F5F5F5F5F5F5F5F5F5F5F5F5F5F5F5F5F5F5F5F5F5F5F5F5F5F5F5F5F5F5F5F5F5F5F5F5F5F5F5F5F5F5F5F5F5F5F5F5F5F5F5F5E2F5F5E2F5F5F5E2E2E2F5F5F5E2F5F5E2F5F5F5F5F5F5F5F5F5F5F5F5F5F5F5F5F5F5F5F5F5F5F5F5F5F5F5F5F5F5F5F5F5F5F5F5F5F5F5F5F5F5F5F5F5F5
310
F5F5F5F5F5F5F5F5F5F5F5F5F5F5F5F5F5F5F5F5F5F5F5F5F5F5F5F5F5F5F5F5F5F5F5F5F5F5F5F5F5F5F5F5F5F5F5F5F5F5F5F5F5F5F5F5F5F5F5F5F5F5F5F5F5F5F5F5F5F5F5F5F5F5F5F5F5F5F5F5F5F5F5F5F5F5F5F5F5F5F5F5F5F5F5F5F5F5F5F5F5F5F5F5F5F5F5F5F5F5F5F5F5F5F5F5F5E2F5F5E2F5F5F5E2E2E2
310
F5F5F5E2F5F5E2F5F5F5F5F5F5F5F5F5F5F5F5F5F5F5F5F5F5F5F5F5F5F5F5F5F5F5F5F5F5F5F5F5F5F5F5F5F5F5F5F5F5F5F5F5F5F5F5F5F5F5F5F5F5F5F5F5F5F5F5F5F5F5F5F5F5F5F5F5F5F5F5F5F5F5F5F5F5F5F5F5F5F5F5F5F5F5F5F5F5F5F5F5F5F5F5F5F5F5F5F5F5F5F5F5F5F5F5F5F5F5F5F5F5F5F5F5F5F5F5
310
F5F5F5F5F5F5F5F5F5F5F5F5F5F5F5F5F5F5F5F5F5F5F5F5F5F5F5F5F5F5F5F5F5F5F5F5F5F5F5F5F5F5F5E2F5F5E2F5F5F5E2E2E2F5F5F5E2F5F5E2F5F5F5F5F5F5F5F5F5F5F5F5F5F5F5F5F5F5F5F5F5F5F5F5F5F5F5F5F5F5F5F5F5F5F5F5F5F5F5F5F5F5F5F5F5F5F5F5F5F5F5F5F5F5F5F5F5F5F5F5F5F5F5F5F5F5F5
310
F5F5F5F5F5F5F5F5F5F5F5F5F5F5F5F5F5F5F5F5F5F5F5F5F5F5F5F5F5F5F5F5F5F5F5F5F5F5F5F5F5F5F5F5F5F5F5F5F5F5F5F5F5F5F5F5F5F5F5F5F5F5F5F5F5F5F5F5F5F5F5F5F5F5F5F5F5F5F5F5F5F5F5F5F5F5F5F5F5F5F5F5F5F5F5F5E2F5F5E2F5F5F5E2E2E2F5F5F5E2F5F5E2F5F5F5F5F5F5F5F5F5F5F5F5F5F5
310
F5F5F5F5F5F5F5F5F5F5F5F5F5F5F5F5F5F5F5F5F5F5F5F5F5F5F5F5F5F5F5F5F5F5F5F5F5F5F5F5F5F5F5F5F5F5F5F5F5F5F5F5F5F5F5F5F5F5F5F5F5F5F5F5F5F5F5F5F5F5F5F5F5F5F5F5F5F5F5F5F5F5F5F5F5F5F5F5F5F5F5F5F5F5F5F5F5F5F5F5F5F5F5F5F5F5F5F5F5F5F5F5F5F5F5F5F5F5F5F5F5F5F5F5F5F5F5
310
F5F5F5F5F5F5F5F5F5F5F5F5F5F5F5F5F5F5F5F5F5F5E2F5F5E2F5F5F5E2E2E2F5F5F5E2F5F5E2F5F5F5F5F5F5F5F5F5F5F5F5F5F5F5F5F5F5F5F5F5F5F5F5F5F5F5F5F5F5F5F5F5F5F5F5F5F5F5F5F5F5F5F5F5F5F5F5F5F5F5F5F5F5F5F5F5F5F5F5F5F5F5F5F5F5F5F5F5F5F5F5F5F5F5F5F5F5F5F5F5F5F5F5F5F5F5F5
310
F5F5F5F5F5F5F5F5F5F5F5F5F5F5F5F5F5F5F5F5F5F5F5F5F5F5F5F5F5F5F5F5F5F5F5F5F5F5F5F5F5F5F5F5F5F5F5F5F5F5F5F5F5F5F5F5F5F5F5F5F5F5F5F5F5F5F5F5F5F5F5F5F5F5F5E2F5F5E2F5F5F5E2E2E2F5F5F5E2F5F5E2F5F5F5F5F5F5F5F5F5F5F5F5F5F5F5F5F5F5F5F5F5F5F5F5F5F5F5F5F5F5F5F5F5F5F5
310
F5F5F5F5F5F5F5F5F5F5F5F5F5F5F5F5F5F5F5F5F5F5F5F5F5F5F5F5F5F5F5F5F5F5F5F5F5F5F5F5F5F5F5F5F5F5F5F5F5F5F5F5F5F5F5F5F5F5F5F5F5F5F5F5F5F5F5F5F5F5F5F5F5F5F5F5F5F5F5F5F5F5F5F5F5F5F5F5F5F5F5F5F5F5F5F5F5F5F5F5F5F5F5F5F5F5F5F5F5F5F5F5F5F5F5F5F5F5F5F5F5F5F5F5F5F5F5
310
F5E2F5F5E2F5F5F5E2E2E2F5F5F5E2F5F5E2F5F5F5F5F5F5F5F5F5F5F5F5F5F5F5F5F5F5F5F5F5F5F5F5F5F5F5F5F5F5F5F5F5F5F5F5F5F5F5F5F5F5F5F5F5F5F5F5F5F5F5F5F5F5F5F5F5F5F5F5F5F5F5F5F5F5F5F5F5F5F5F5F5F5F5F5F5F5F5F5F5F5F5F5F5F5F5F5F5F5F5F5F5F5F5F5F5F5F5F5F5F5F5F5F5F5F5F5F5
310
F5F5F5F5F5F5F5F5F5F5F5F5F5F5F5F5F5F5F5F5F5F5F5F5F5F5F5F5F5F5F5F5F5F5F5F5F5F5F5F5F5F5F5F5F5F5F5F5F5F5F5F5F5F5E2F5F5E2F5F5F5E2E2E2F5F5F5E2F5F5E2F5F5F5F5F5F5F5F5F5F5F5F5F5F5F5F5F5F5F5F5F5F5F5F5F5F5F5F5F5F5F5F5F5F5F5F5F5F5F5F5F5F5F5F5F5F5F5F5F5F5F5F5F5F5F5F5
310
F5F5F5F5F5F5F5F5F5F5F5F5F5F5F5F5F5F5F5F5F5F5F5F5F5F5F5F5F5F5F5F5F5F5F5F5F5F5F5F5F5F5F5F5F5F5F5F5F5F5F5F5F5F5F5F5F5F5F5F5F5F5F5F5F5F5F5F5F5F5F5F5F5F5F5F5F5F5F5F5F5F5F5F5F5F5F5F5F5F5F5F5F5F5F5F5F5F5F5F5F5F5F5F5F5F5F5E2F5F5E2F5F5F5E2E2E2F5F5F5E2F5F5E2F5F5F5
310
F5F5F5F5F5F5F5F5F5F5F5F5F5F5F5F5F5F5F5F5F5F5F5F5F5F5F5F5F5F5F5F5F5F5F5F5F5F5F5F5F5F5F5F5F5F5F5F5F5F5F5F5F5F5F5F5F5F5F5F5F5F5F5F5F5F5F5F5F5F5F5F5F5F5F5F5F5F5F5F5F5F5F5F5F5F5F5F5F5F5F5F5F5F5F5F5F5F5F5F5F5F5F5F5F5F5F5F5F5F5F5F5F5F5F5F5F5F5F5F5F5F5F5F5F5F5F5
310
F5F5F5F5F5F5F5F5F5F5F5F5F5F5F5F5F5F5F5F5F5F5F5F5F5F5F5F5F5F5F5F5F5E2F5F5E2F5F5F5E2E2E2F5F5F5E2F5F5E2F5F5F5F5F5F5F5F5F5F5F5F5F5F5F5F5F5F5F5F5F5F5F5F5F5F5F5F5F5F5F5F5F5F5F5F5F5F5F5F5F5F5F5F5F5F5F5F5F5F5F5F5F5F5F5F5F5F5F5F5F5F5F5F5F5F5F5F5F5F5F5F5F5F5F5F5F5
310
F5F5F5F5F5F5F5F5F5F5F5F5F5F5F5F5F5F5F5F5F5F5F5F5F5F5F5F5F5F5F5F5F5F5F5F5F5F5F5F5F5F5F5F5F5F5F5F5F5F5F5F5F5F5F5F5F5F5F5F5F5F5F5F5F5F5F5F5F5F5F5F5F5F5F5F5F5F5F5F5F5F5F5F5F5F5E2F5F5E2F5F5F5E2E2E2F5F5F5E2F5F5E2F5F5F5F5F5F5F5F5F5F5F5F5F5F5F5F5F5F5F5F5F5F5F5F5
310
F5F5F5F5F5F5F5F5F5F5F5F5F5F5F5F5F5F5F5F5F5F5F5F5F5F5F5F5F5F5F5F5F5F5F5F5F5F5F5F5F5F5F5F5F5F5F5F5F5F5F5F5F5F5F5F5F5F5F5F5F5F5F5F5F5F5F5F5F5F5F5F5F5F5F5F5F5F5F5F5F5F5F5F5F5F5F5F5F5F5F5F5F5F5F5F5F5F5F5F5F5F5F5F5F5F5F5F5F5F5F5F5F5F5F5F5F5F5F5F5F5F5F5F5F5F5F5
310
F5F5F5F5F5F5F5F5F5F5F5F5E2F5F5E2F5F5F5E2E2E2F5F5F5E2F5F5E2F5F5F5F5F5F5F5F5F5F5F5F5F5F5F5F5F5F5F5F5F5F5F5F5F5F5F5F5F5F5F5F5F5F5F5F5F5F5F5F5F5F5F5F5F5F5F5F5F5F5F5F5F5F5F5F5F5F5F5F5F5F5F5F5F5F5F5F5F5F5F5F5F5F5F5F5F5F5F5F5F5F5F5F5F5F5F5F5F5F5F5F5F5F5F5F5F5F5
310
F5F5F5F5F5F5F5F5F5F5F5F5F5F5F5F5F5F5F5F5F5F5F5F5F5F5F5F5F5F5F5F5F5F5F5F5F5F5F5F5F5F5F5F5F5F5F5F5F5F5F5F5F5F5F5F5F5F5F5F5F5F5F5F5F5E2F5F5E2F5F5F5E2E2E2F5F5F5E2F5F5E2F5F5F5F5F5F5F5F5F5F5F5F5F5F5F5F5F5F5F5F5F5F5F5F5F5F5F5F5F5F5F5F5F5F5F5F5F5F5F5F5F5F5F5F5F5
310
F5F5F5F5F5F5F5F5F5F5F5F5F5F5F5F5F5F5F5F5F5F5F5F5F5F5F5F5F5F5F5F5F5F5F5F5F5F5F5F5F5F5F5F5F5F5F5F5F5F5F5F5F5F5F5F5F5F5F5F5F5F5F5F5F5F5F5F5F5F5F5F5F5F5F5F5F5F5F5F5F5F5F5F5F5F5F5F5F5F5F5F5F5F5F5F5F5F5F5F5F5F5F5F5F5F5F5F5F5F5F5F5F5F5F5F5F5F5E2F5F5E2F5F5F5E2E2
310
E2F5F5F5F5F5F5E2F5F5F5F5F5F5F5F5F5F5F5F5F5F5F5F5F5F5F5F5F5F5F5F5F5F5F5F5F5F5F5F5F5F5F5F5F5F5F5F5F5F5F5F5F5F5F5F5F5F5F5F5F5F5F5F5F5F5F5F5F5F5F5F5F5F5F5F5F5F5F5F5F5F5F5F5F5F5F5F5F5F5F5F5F5F5F5F5F5F5F5F5F5F5F5F5F5F5F5F5F5F5F5F5F5F5F5F5F5F5F5F5F5F5F5F5F5F5F5
310
F5F5F5F5F5F5F5F5F5F5F5F5F5F5F5F5F5F5F5F5F5F5F5F5F5F5F5F5F5F5F5F5F5F5F5F5F5F5F5F5F5F5F5F5E2F5F5F5F5F5F5E2E2E2F5F5F5F5F5F5E2F5F5F5F5F5F5F5F5F5F5F5F5F5F5F5F5F5F5F5F5F5F5F5F5F5F5F5F5F5F5F5F5F5F5F5F5F5F5F5F5F5F5F5F5F5F5F5F5F5F5F5F5F5F5F5F5F5F5F5F5F5F5F5F5F5F5
310
F5F5F5F5F5F5F5F5F5F5F5F5F5F5F5F5F5F5F5F5F5F5F5F5F5F5F5F5F5F5F5F5F5F5F5F5F5F5F5F5F5F5F5F5F5F5F5F5F5F5F5F5F5F5F5F5F5F5F5F5F5F5F5F5F5F5F5F5F5F5F5F5F5F5F5F5F5F5F5F5F5F5F5F5F5F5F5F5F5F5F5F5F5F5F5F5F5E2F5F5F5F5F5F5E2E2E2F5F5F5F5F5F5E2F5F5F5F5F5F5F5F5F5F5F5F5F5
310
F5F5F5F5F5F5F5F5F5F5F5F5F5F5F5F5F5F5F5F5F5F5F5F5F5F5F5F5F5F5F5F5F5F5F5F5F5F5F5F5F5F5F5F5F5F5F5F5F5F5F5F5F5F5F5F5F5F5F5F5F5F5F5F5F5F5F5F5F5F5F5F5F5F5F5F5F5F5F5F5F5F5F5F5F5F5F5F5F5F5F5F5F5F5F5F5F5F5F5F5F5F5F5F5F5F5F5F5F5F5F5F5F5F5F5F5F5F5F5F5F5F5F5F5F5F5F5
310
F5F5F5F5F5F5F5F5F5F5F5F5F5F5F5F5F5F5F5F5F5F5F5E2F5F5F5F5F5F5E2E2E2F5F5F5F5F5F5E2F5F5F5F5F5F5F5F5F5F5F5F5F5F5F5F5F5F5F5F5F5F5F5F5F5F5F5F5F5F5F5F5F5F5F5F5F5F5F5F5F5F5F5F5F5F5F5F5F5F5F5F5F5F5F5F5F5F5F5F5F5F5F5F5F5F5F5F5F5F5F5F5F5F5F5F5F5F5F5F5F5F5F5F5F5F5F5
310
F5F5F5F5F5F5F5F5F5F5F5F5F5F5F5F5F5F5F5F5F5F5F5F5F5F5F5F5F5F5F5F5F5F5F5F5F5F5F5F5F5F5F5F5F5F5F5F5F5F5F5F5F5F5F5F5F5F5F5F5F5F5F5F5F5F5F5F5F5F5F5F5F5F5F5F5E2F5F5F5F5F5F5E2E2E2F5F5F5F5F5F5E2F5F5F5F5F5F5F5F5F5F5F5F5F5F5F5F5F5F5F5F5F5F5F5F5F5F5F5F5F5F5F5F5F5F5
310
F5F5F5F5F5F5F5F5F5F5F5F5F5F5F5F5F5F5F5F5F5F5F5F5F5F5F5F5F5F5F5F5F5F5F5F5F5F5F5F5F5F5F5F5F5F5F5F5F5F5F5F5F5F5F5F5F5F5F5F5F5F5F5F5F5F5F5F5F5F5F5F5F5F5F5F5F5F5F5F5F5F5F5F5F5F5F5F5F5F5F5F5F5F5F5F5F5F5F5F5F5F5F5F5F5F5F5F5F5F5F5F5F5F5F5F5F5F5F5F5F5F5F5F5F5F5F5
310
F5F5E2F5F5F5F5F5F5E2E2E2F5F5F5F5F5F5E2F5F5F5F5F5F5F5F5F5F5F5F5F5F5F5F5F5F5F5F5F5F5F5F5F5F5F5F5F5F5F5F5F5F5F5F5F5F5F5F5F5F5F5F5F5F5F5F5F5F5F5F5F5F5F5F5F5F5F5F5F5F5F5F5F5F5F5F5F5F5F5F5F5F5F5F5F5F5F5F5F5F5F5F5F5F5F5F5F5F5F5F5F5F5F5F5F5F5F5F5F5F5F5F5F5F5F5F5
310
F5F5F5F5F5F5F5F5F5F5F5F5F5F5F5F5F5F5F5F5F5F5F5F5F5F5F5F5F5F5F5F5F5F5F5F5F5F5F5F5F5F5F5F5F5F5F5F5F5F5F5F5F5F5F5E2F5F5F5F5F5F5E2E2E2F5F5F5F5F5F5E2F5F5F5F5F5F5F5F5F5F5F5F5F5F5F5F5F5F5F5F5F5F5F5F5F5F5F5F5F5F5F5F5F5F5F5F5F5F5F5F5F5F5F5F5F5F5F5F5F5F5F5F5F5F5F5
310
F5F5F5F5F5F5F5F5F5F5F5F5F5F5F5F5F5F5F5F5F5F5F5F5F5F5F5F5F5F5F5F5F5F5F5F5F5F5F5F5F5F5F5F5F5F5F5F5F5F5F5F5F5F5F5F5F5F5F5F5F5F5F5F5F5F5F5F5F5F5F5F5F5F5F5F5F5F5F5F5F5F5F5F5F5F5F5F5F5F5F5F5F5F5F5F5F5F5F5F5F5F5F5F5F5F5F5F5E2F5F5F5F5F5F5E2E2E2F5F5F5F5F5F5E2F5F5
310
F5F5F5F5F5F5F5F5F5F5F5F5F5F5F5F5F5F5F5F5F5F5F5F5F5F5F5F5F5F5F5F5F5F5F5F5F5F5F5F5F5F5F5F5F5F5F5F5F5F5F5F5F5F5F5F5F5F5F5F5F5F5F5F5F5F5F5F5F5F5F5F5F5F5F5F5F5F5F5F5F5F5F5F5F5F5F5F5F5F5F5F5F5F5F5F5F5F5F5F5F5F5F5F5F5F5F5F5F5F5F5F5F5F5F5F5F5F5F5F5F5F5F5F5F5F5F5
310
F5F5F5F5F5F5F5F5F5F5F5F5F5F5F5F5F5F5F5F5F5F5F5F5F5F5F5F5F5F5F5F5F5F5E2F5F5F5F5F5F5E2E2E2F5F5F5F5F5F5E2F5F5F5F5F5F5F5F5F5F5F5F5F5F5F5F5F5F5F5F5F5F5F5F5F5F5F5F5F5F5F5F5F5F5F5F5F5F5F5F5F5F5F5F5F5F5F5F5F5F5F5F5F5F5F5F5F5F5F5F5F5F5F5F5F5F5F5F5F5F5F5F5F5F5F5F5
310
F5F5F5F5F5F5F5F5F5F5F5F5F5F5F5F5F5F5F5F5F5F5F5F5F5F5F5F5F5F5F5F5F5F5F5F5F5F5F5F5F5F5F5F5F5F5F5F5F5F5F5F5F5F5F5F5F5F5F5F5F5F5F5F5F5F5F5F5F5F5F5F5F5F5F5F5F5F5F5F5F5F5F5F5F5F5F5E2F5F5F5F5F5F5E2E2E2F5F5F5E2F5F5E2F5F5F5F5F5F5F5F5F5F5F5F5F5F5F5F5F5F5F5F5F5F5F5
310
F5F5F5F5F5F5F5F5F5F5F5F5F5F5F5F5F5F5F5F5F5F5F5F5F5F5F5F5F5F5F5F5F5F5F5F5F5F5F5F5F5F5F5F5F5F5F5F5F5F5F5F5F5F5F5F5F5F5F5F5F5F5F5F5F5F5F5F5F5F5F5F5F5F5F5F5F5F5F5F5F5F5F5F5F5F5F5F5F5F5F5F5F5F5F5F5F5F5F5F5F5F5F5F5F5F5F5F5F5F5F5F5F5F5F5F5F5F5F5F5F5F5F5F5F5F5F5
310
F5F5F5F5F5F5F5F5F5F5F5F5F5E2F5F5E2F5F5F5E2E2E2F5F5F5E2F5F5E2F5F5F5F5F5F5F5F5F5F5F5F5F5F5F5F5F5F5F5F5F5F5F5F5F5F5F5F5F5F5F5F5F5F5F5F5F5F5F5F5F5F5F5F5F5F5F5F5F5F5F5F5F5F5F5F5F5F5F5F5F5F5F5F5F5F5F5F5F5F5F5F5F5F5F5F5F5F5F5F5F5F5F5F5F5F5F5F5F5F5F5F5F5F5F5F5F5
310
F5F5F5F5F5F5F5F5F5F5F5F5F5F5F5F5F5F5F5F5F5F5F5F5F5F5F5F5F5F5F5F5F5F5F5F5F5F5F5F5F5F5F5F5F5F5F5F5F5F5F5F5F5F5F5F5F5F5F5F5F5F5F5F5F5F5E2F5F5E2F5F5F5E2E2E2F5F5F5E2F5F5E2F5F5F5F5F5F5F5F5F5F5F5F5F5F5F5F5F5F5F5F5F5F5F5F5F5F5F5F5F5F5F5F5F5F5F5F5F5F5F5F5F5F5F5F5
310
F5F5F5F5F5F5F5F5F5F5F5F5F5F5F5F5F5F5F5F5F5F5F5F5F5F5F5F5F5F5F5F5F5F5F5F5F5F5F5F5F5F5F5F5F5F5F5F5F5F5F5F5F5F5F5F5F5F5F5F5F5F5F5F5F5F5F5F5F5F5F5F5F5F5F5F5F5F5F5F5F5F5F5F5F5F5F5F5F5F5F5F5F5F5F5F5F5F5F5F5F5F5F5F5F5F5F5F5F5F5F5F5F5F5F5F5F5F5F5E2F5F5E2F5F5F5E2
310
E2E2F5F5F5E2F5F5E2F5F5F5F5F5F5F5F5F5F5F5F5F5F5F5F5F5F5F5F5F5F5F5F5F5F5F5F5F5F5F5F5F5F5F5F5F5F5F5F5F5F5F5F5F5F5F5F5F5F5F5F5F5F5F5F5F5F5F5F5F5F5F5F5F5F5F5F5F5F5F5F5F5F5F5F5F5F5F5F5F5F5F5F5F5F5F5F5F5F5F5F5F5F5F5F5F5F5F5F5F5F5F5F5F5F5F5F5F5F5F5F5F5F5F5F5F5F5
310
F5F5F5F5F5F5F5F5F5F5F5F5F5F5F5F5F5F5F5F5F5F5F5F5F5F5F5F5F5F5F5F5F5F5F5F5F5F5F5F5F5F5F5F5F5E2F5F5E2F5F5F5E2E2E2F5F5F5E2F5F5E2F5F5F5F5F5F5F5F5F5F5F5F5F5F5F5F5F5F5F5F5F5F5F5F5F5F5F5F5F5F5F5F5F5F5F5F5F5F5F5F5F5F5F5F5F5F5F5F5F5F5F5F5F5F5F5F5F5F5F5F5F5F5F5F5F5
310
F5F5F5F5F5F5F5F5F5F5F5F5F5F5F5F5F5F5F5F5F5F5F5F5F5F5F5F5F5F5F5F5F5F5F5F5F5F5F5F5F5F5F5F5F5F5F5F5F5F5F5F5F5F5F5F5F5F5F5F5F5F5F5F5F5F5F5F5F5F5F5F5F5F5F5F5F5F5F5F5F5F5F5F5F5F5F5F5F5F5F5F5F5F5F5F5F5F5E2F5F5E2F5F5F5E2E2E2F5F5F5E2F5F5E2F5F5F5F5F5F5F5F5F5F5F5F5
310
F5F5F5F5F5F5F5F5F5F5F5F5F5F5F5F5F5F5F5F5F5F5F5F5F5F5F5F5F5F5F5F5F5F5F5F5F5F5F5F5F5F5F5F5F5F5F5F5F5F5F5F5F5F5F5F5F5F5F5F5F5F5F5F5F5F5F5F5F5F5F5F5F5F5F5F5F5F5F5F5F5F5F5F5F5F5F5F5F5F5F5F5F5F5F5F5F5F5F5F5F5F5F5F5F5F5F5F5F5F5F5F5F5F5F5F5F5F5F5F5F5F5F5F5F5F5F5
310
F5F5F5F5F5F5F5F5F5F5F5F5F5F5F5F5F5F5F5F5F5F5F5F5E2F5F5E2F5F5F5E2E2E2F5F5F5E2F5F5E2F5F5F5F5F5F5F5F5F5F5F5F5F5F5F5F5F5F5F5F5F5F5F5F5F5F5F5F5F5F5F5F5F5F5F5F5F5F5F5F5F5F5F5F5F5F5F5F5F5F5F5F5F5F5F5F5F5F5F5F5F5F5F5F5F5F5F5F5F5F5F5F5F5F5F5F5F5F5F5F5F5F5F5F5F5F5
310
F5F5F5F5F5F5F5F5F5F5F5F5F5F5F5F5F5F5F5F5F5F5F5F5F5F5F5F5F5F5F5F5F5F5F5F5F5F5F5F5F5F5F5F5F5F5F5F5F5F5F5F5F5F5F5F5F5F5F5F5F5F5F5F5F5F5F5F5F5F5F5F5F5F5F5F5F5E2F5F5E2F5F5F5E2E2E2F5F5F5E2F5F5E2F5F5F5F5F5F5F5F5F5F5F5F5F5F5F5F5F5F5F5F5F5F5F5F5F5F5F5F5F5F5F5F5F5
310
F5F5F5F5F5F5F5F5F5F5F5F5F5F5F5F5F5F5F5F5F5F5F5F5F5F5F5F5F5F5F5F5F5F5F5F5F5F5F5F5F5F5F5F5F5F5F5F5F5F5F5F5F5F5F5F5F5F5F5F5F5F5F5F5F5F5F5F5F5F5F5F5F5F5F5F5F5F5F5F5F5F5F5F5F5F5F5F5F5F5F5F5F5F5F5F5F5F5F5F5F5F5F5F5F5F5F5F5F5F5F5F5F5F5F5F5F5F5F5F5F5F5F5F5F5F5F5
310
F5F5F5E2F5F5E2F5F5F5E2E2E2F5F5F5E2F5F5E2F5F5F5F5F5F5F5F5F5F5F5F5F5F5F5F5F5F5F5F5F5F5F5F5F5F5F5F5F5F5F5F5F5F5F5F5F5F5F5F5F5F5F5F5F5F5F5F5F5F5F5F5F5F5F5F5F5F5F5F5F5F5F5F5F5F5F5F5F5F5F5F5F5F5F5F5F5F5F5F5F5F5F5F5F5F5F5F5F5F5F5F5F5F5F5F5F5F5F5F5F5F5F5F5F5F5F5
310
F5F5F5F5F5F5F5F5F5F5F5F5F5F5F5F5F5F5F5F5F5F5F5F5F5F5F5F5F5F5F5F5F5F5F5F5F5F5F5F5F5F5F5F5F5F5F5F5F5F5F5F5F5F5F5F5E2F5F5E2F5F5F5E2E2E2F5F5F5E2F5F5E2F5F5F5F5F5F5F5F5F5F5F5F5F5F5F5F5F5F5F5F5F5F5F5F5F5F5F5F5F5F5F5F5F5F5F5F5F5F5F5F5F5F5F5F5F5F5F5F5F5F5F5F5F5F5
310
F5F5F5F5F5F5F5F5F5F5F5F5F5F5F5F5F5F5F5F5F5F5F5F5F5F5F5F5F5F5F5F5F5F5F5F5F5F5F5F5F5F5F5F5F5F5F5F5F5F5F5F5F5F5F5F5F5F5F5F5F5F5F5F5F5F5F5F5F5F5F5F5F5F5F5F5F5F5F5F5F5F5F5F5F5F5F5F5F5F5F5F5F5F5F5F5F5F5F5F5F5F5F5F5F5F5F5F5F5E2F5F5E2F5F5F5E2E2E2F5F5F5E2F5F5E2F5
310
F5F5F5F5F5F5F5F5F5F5F5F5F5F5F5F5F5F5F5F5F5F5F5F5F5F5F5F5F5F5F5F5F5F5F5F5F5F5F5F5F5F5F5F5F5F5F5F5F5F5F5F5F5F5F5F5F5F5F5F5F5F5F5F5F5F5F5F5F5F5F5F5F5F5F5F5F5F5F5F5F5F5F5F5F5F5F5F5F5F5F5F5F5F5F5F5F5F5F5F5F5F5F5F5F5F5F5F5F5F5F5F5F5F5F5F5F5F5F5F5F5F5F5F5F5F5F5
310
F5F5F5F5F5F5F5F5F5F5F5F5F5F5F5F5F5F5F5F5F5F5F5F5F5F5F5F5F5F5F5F5F5F5F5E2F5F5E2F5F5F5E2E2E2F5F5F5E2F5F5E2F5F5F5F5F5F5F5F5F5F5F5F5F5F5F5F5F5F5F5F5F5F5F5F5F5F5F5F5F5F5F5F5F5F5F5F5F5F5F5F5F5F5F5F5F5F5F5F5F5F5F5F5F5F5F5F5F5F5F5F5F5F5F5F5F5F5F5F5F5F5F5F5F5F5F5
310
F5F5F5F5F5F5F5F5F5F5F5F5F5F5F5F5F5F5F5F5F5F5F5F5F5F5F5F5F5F5F5F5F5F5F5F5F5F5F5F5F5F5F5F5F5F5F5F5F5F5F5F5F5F5F5F5F5F5F5F5F5F5F5F5F5F5F5F5F5F5F5F5F5F5F5F5F5F5F5F5F5F5F5F5F5F5F5F5E2F5F5E2F5F5F5E2E2E2F5F5F5E2F5F5E2F5F5F5F5F5F5F5F5F5F5F5F5F5F5F5F5F5F5F5F5F5F5
310
F5F5F5F5F5F5F5F5F5F5F5F5F5F5F5F5F5F5F5F5F5F5F5F5F5F5F5F5F5F5F5F5F5F5F5F5F5F5F5F5F5F5F5F5F5F5F5F5F5F5F5F5F5F5F5F5F5F5F5F5F5F5F5F5F5F5F5F5F5F5F5F5F5F5F5F5F5F5F5F5F5F5F5F5F5F5F5F5F5F5F5F5F5F5F5F5F5F5F5F5F5F5F5F5F5F5F5F5F5F5F5F5F5F5F5F5F5F5F5F5F5F5F5F5F5F5F5
310
F5F5F5F5F5F5F5F5F5F5F5F5F5F5E2F5F5E2F5F5F5E2E2E2F5F5F5E2F5F5E2F5F5F5F5F5F5F5F5F5F5F5F5F5F5F5F5F5F5F5F5F5F5F5F5F5F5F5F5F5F5F5F5F5F5F5F5F5F5F5F5F5F5F5F5F5F5F5F5F5F5F5F5F5F5F5F5F5F5F5F5F5F5F5F5F5F5F5F5F5F5F5F5F5F5F5F5F5F5F5F5F5F5F5F5F5F5F5F5F5F5F5F5F5F5F5F5
310
F5F5F5F5F5F5F5F5F5F5F5F5F5F5F5F5F5F5F5F5F5F5F5F5F5F5F5F5F5F5F5F5F5F5F5F5F5F5F5F5F5F5F5F5F5F5F5F5F5F5F5F5F5F5F5F5F5F5F5F5F5F5F5F5F5F5F5E2F5F5E2F5F5F5E2E2E2F5F5F5E2F5F5E2F5F5F5F5F5F5F5F5F5F5F5F5F5F5F5F5F5F5F5F5F5F5F5F5F5F5F5F5F5F5F5F5F5F5F5F5F5F5F5F5F5F5F5
310
F5F5F5F5F5F5F5F5F5F5F5F5F5F5F5F5F5F5F5F5F5F5F5F5F5F5F5F5F5F5F5F5F5F5F5F5F5F5F5F5F5F5F5F5F5F5F5F5F5F5F5F5F5F5F5F5F5F5F5F5F5F5F5F5F5F5F5F5F5F5F5F5F5F5F5F5F5F5F5F5F5F5F5F5F5F5F5F5F5F5F5F5F5F5F5F5F5F5F5F5F5F5F5F5F5F5F5F5F5F5F5F5F5F5F5F5F5F5F5F5E2F5F5E2F5F5F5
310
E2E2E2F5F5F5F5F5F5E2F5F5F5F5F5F5F5F5F5F5F5F5F5F5F5F5F5F5F5F5F5F5F5F5F5F5F5F5F5F5F5F5F5F5F5F5F5F5F5F5F5F5F5F5F5F5F5F5F5F5F5F5F5F5F5F5F5F5F5F5F5F5F5F5F5F5F5F5F5F5F5F5F5F5F5F5F5F5F5F5F5F5F5F5F5F5F5F5F5F5F5F5F5F5F5F5F5F5F5F5F5F5F5F5F5F5F5F5F5F5F5F5F5F5F5F5F5
310
F5F5F5F5F5F5F5F5F5F5F5F5F5F5F5F5F5F5F5F5F5F5F5F5F5F5F5F5F5F5F5F5F5F5F5F5F5F5F5F5F5F5F5F5F5F5E2F5F5F5F5F5F5E2E2E2F5F5F5F5F5F5E2F5F5F5F5F5F5F5F5F5F5F5F5F5F5F5F5F5F5F5F5F5F5F5F5F5F5F5F5F5F5F5F5F5F5F5F5F5F5F5F5F5F5F5F5F5F5F5F5F5F5F5F5F5F5F5F5F5F5F5F5F5F5F5F5
310
F5F5F5F5F5F5F5F5F5F5F5F5F5F5F5F5F5F5F5F5F5F5F5F5F5F5F5F5F5F5F5F5F5F5F5F5F5F5F5F5F5F5F5F5F5F5F5F5F5F5F5F5F5F5F5F5F5F5F5F5F5F5F5F5F5F5F5F5F5F5F5F5F5F5F5F5F5F5F5F5F5F5F5F5F5F5F5F5F5F5F5F5F5F5F5F5F5F5F5E2F5F5F5F5F5F5E2E2E2F5F5F5F5F5F5E2F5F5F5F5F5F5F5F5F5F5F5
310
F5F5F5F5F5F5F5F5F5F5F5F5F5F5F5F5F5F5F5F5F5F5F5F5F5F5F5F5F5F5F5F5F5F5F5F5F5F5F5F5F5F5F5F5F5F5F5F5F5F5F5F5F5F5F5F5F5F5F5F5F5F5F5F5F5F5F5F5F5F5F5F5F5F5F5F5F5F5F5F5F5F5F5F5F5F5F5F5F5F5F5F5F5F5F5F5F5F5F5F5F5F5F5F5F5F5F5F5F5F5F5F5F5F5F5F5F5F5F5F5F5F5F5F5F5F5F5
310
F5F5F5F5F5F5F5F5F5F5F5F5F5F5F5F5F5F5F5F5F5F5F5F5F5E2F5F5F5F5F5F5E2E2E2F5F5F5F5F5F5E2F5F5F5F5F5F5F5F5F5F5F5F5F5F5F5F5F5F5F5F5F5F5F5F5F5F5F5F5F5F5F5F5F5F5F5F5F5F5F5F5F5F5F5F5F5F5F5F5F5F5F5F5F5F5F5F5F5F5F5F5F5F5F5F5F5F5F5F5F5F5F5F5F5F5F5F5F5F5F5F5F5F5F5F5F5
310
F5F5F5F5F5F5F5F5F5F5F5F5F5F5F5F5F5F5F5F5F5F5F5F5F5F5F5F5F5F5F5F5F5F5F5F5F5F5F5F5F5F5F5F5F5F5F5F5F5F5F5F5F5F5F5F5F5F5F5F5F5F5F5F5F5F5F5F5F5F5F5F5F5F5F5F5F5F5E2F5F5F5F5F5F5E2E2E2F5F5F5F5F5F5E2F5F5F5F5F5F5F5F5F5F5F5F5F5F5F5F5F5F5F5F5F5F5F5F5F5F5F5F5F5F5F5F5
310
F5F5F5F5F5F5F5F5F5F5F5F5F5F5F5F5F5F5F5F5F5F5F5F5F5F5F5F5F5F5F5F5F5F5F5F5F5F5F5F5F5F5F5F5F5F5F5F5F5F5F5F5F5F5F5F5F5F5F5F5F5F5F5F5F5F5F5F5F5F5F5F5F5F5F5F5F5F5F5F5F5F5F5F5F5F5F5F5F5F5F5F5F5F5F5F5F5F5F5F5F5F5F5F5F5F5F5F5F5F5F5F5F5F5F5F5F5F5F5F5F5F5F5F5F5F5F5
310
F5F5F5F5E2F5F5F5F5F5F5E2E2E2F5F5F5F5F5F5E2F5F5F5F5F5F5F5F5F5F5F5F5F5F5F5F5F5F5F5F5F5F5F5F5F5F5F5F5F5F5F5F5F5F5F5F5F5F5F5F5F5F5F5F5F5F5F5F5F5F5F5F5F5F5F5F5F5F5F5F5F5F5F5F5F5F5F5F5F5F5F5F5F5F5F5F5F5F5F5F5F5F5F5F5F5F5F5F5F5F5F5F5F5F5F5F5F5F5F5F5F5F5F5F5F5F5
310
F5F5F5F5F5F5F5F5F5F5F5F5F5F5F5F5F5F5F5F5F5F5F5F5F5F5F5F5F5F5F5F5F5F5F5F5F5F5F5F5F5F5F5F5F5F5F5F5F5F5F5F5F5F5F5F5F5E2F5F5F5F5F5F5E2E2E2F5F5F5F5F5F5E2F5F5F5F5F5F5F5F5F5F5F5F5F5F5F5F5F5F5F5F5F5F5F5F5F5F5F5F5F5F5F5F5F5F5F5F5F5F5F5F5F5F5F5F5F5F5F5F5F5F5F5F5F5
310
F5F5F5F5F5F5F5F5F5F5F5F5F5F5F5F5F5F5F5F5F5F5F5F5F5F5F5F5F5F5F5F5F5F5F5F5F5F5F5F5F5F5F5F5F5F5F5F5F5F5F5F5F5F5F5F5F5F5F5F5F5F5F5F5F5F5F5F5F5F5F5F5F5F5F5F5F5F5F5F5F5F5F5F5F5F5F5F5F5F5F5F5F5F5F5F5F5F5F5F5F5F5F5F5F5F5F5F5F5F5E2F5F5F5F5F5F5E2E2E2F5F5F5F5F5F5E2
310
F5F5F5F5F5F5F5F5F5F5F5F5F5F5F5F5F5F5F5F5F5F5F5F5F5F5F5F5F5F5F5F5F5F5F5F5F5F5F5F5F5F5F5F5F5F5F5F5F5F5F5F5F5F5F5F5F5F5F5F5F5F5F5F5F5F5F5F5F5F5F5F5F5F5F5F5F5F5F5F5F5F5F5F5F5F5F5F5F5F5F5F5F5F5F5F5F5F5F5F5F5F5F5F5F5F5F5F5F5F5F5F5F5F5F5F5F5F5F5F5F5F5F5F5F5F5F5
310
F5F5F5F5F5F5F5F5F5F5F5F5F5F5F5F5F5F5F5F5F5F5F5F5F5F5F5F5F5F5F5F5F5F5F5F5E2F5F5F5F5F5F5E2E2E2F5F5F5E2F5F5E2F5F5F5F5F5F5F5F5F5F5F5F5F5F5F5F5F5F5F5F5F5F5F5F5F5F5F5F5F5F5F5F5F5F5F5F5F5F5F5F5F5F5F5F5F5F5F5F5F5F5F5F5F5F5F5F5F5F5F5F5F5F5F5F5F5F5F5F5F5F5F5F5F5F5
310
F5F5F5F5F5F5F5F5F5F5F5F5F5F5F5F5F5F5F5F5F5F5F5F5F5F5F5F5F5F5F5F5F5F5F5F5F5F5F5F5F5F5F5F5F5F5F5F5F5F5F5F5F5F5F5F5F5F5F5F5F5F5F5F5F5F5F5F5F5F5F5F5F5F5F5F5F5F5F5F5F5F5F5F5F5F5F5F5F5E2F5F5E2F5F5F5E2E2E2F5F5F5E2F5F5E2F5F5F5F5F5F5F5F5F5F5F5F5F5F5F5F5F5F5F5F5F5
310
F5F5F5F5F5F5F5F5F5F5F5F5F5F5F5F5F5F5F5F5F5F5F5F5F5F5F5F5F5F5F5F5F5F5F5F5F5F5F5F5F5F5F5F5F5F5F5F5F5F5F5F5F5F5F5F5F5F5F5F5F5F5F5F5F5F5F5F5F5F5F5F5F5F5F5F5F5F5F5F5F5F5F5F5F5F5F5F5F5F5F5F5F5F5F5F5F5F5F5F5F5F5F5F5F5F5F5F5F5F5F5F5F5F5F5F5F5F5F5F5F5F5F5F5F5F5F5
310
F5F5F5F5F5F5F5F5F5F5F5F5F5F5F5E2F5F5E2F5F5F5E2E2E2F5F5F5E2F5F5E2F5F5F5F5F5F5F5F5F5F5F5F5F5F5F5F5F5F5F5F5F5F5F5F5F5F5F5F5F5F5F5F5F5F5F5F5F5F5F5F5F5F5F5F5F5F5F5F5F5F5F5F5F5F5F5F5F5F5F5F5F5F5F5F5F5F5F5F5F5F5F5F5F5F5F5F5F5F5F5F5F5F5F5F5F5F5F5F5F5F5F5F5F5F5F5
310
F5F5F5F5F5F5F5F5F5F5F5F5F5F5F5F5F5F5F5F5F5F5F5F5F5F5F5F5F5F5F5F5F5F5F5F5F5F5F5F5F5F5F5F5F5F5F5F5F5F5F5F5F5F5F5F5F5F5F5F5F5F5F5F5F5F5F5F5E2F5F5E2F5F5F5E2E2E2F5F5F5E2F5F5E2F5F5F5F5F5F5F5F5F5F5F5F5F5F5F5F5F5F5F5F5F5F5F5F5F5F5F5F5F5F5F5F5F5F5F5F5F5F5F5F5F5F5
310
F5F5F5F5F5F5F5F5F5F5F5F5F5F5F5F5F5F5F5F5F5F5F5F5F5F5F5F5F5F5F5F5F5F5F5F5F5F5F5F5F5F5F5F5F5F5F5F5F5F5F5F5F5F5F5F5F5F5F5F5F5F5F5F5F5F5F5F5F5F5F5F5F5F5F5F5F5F5F5F5F5F5F5F5F5F5F5F5F5F5F5F5F5F5F5F5F5F5F5F5F5F5F5F5F5F5F5F5F5F5F5F5F5F5F5F5F5F5F5F5F5E2F5F5E2F5F5
310
F5E2E2E2F5F5F5E2F5F5E2F5F5F5F5F5F5F5F5F5F5F5F5F5F5F5F5F5F5F5F5F5F5F5F5F5F5F5F5F5F5F5F5F5F5F5F5F5F5F5F5F5F5F5F5F5F5F5F5F5F5F5F5F5F5F5F5F5F5F5F5F5F5F5F5F5F5F5F5F5F5F5F5F5F5F5F5F5F5F5F5F5F5F5F5F5F5F5F5F5F5F5F5F5F5F5F5F5F5F5F5F5F5F5F5F5F5F5F5F5F5F5F5F5F5F5F5
310
F5F5F5F5F5F5F5F5F5F5F5F5F5F5F5F5F5F5F5F5F5F5F5F5F5F5F5F5F5F5F5F5F5F5F5F5F5F5F5F5F5F5F5F5F5F5F5E2F5F5E2F5F5F5E2E2E2F5F5F5E2F5F5E2F5F5F5F5F5F5F5F5F5F5F5F5F5F5F5F5F5F5F5F5F5F5F5F5F5F5F5F5F5F5F5F5F5F5F5F5F5F5F5F5F5F5F5F5F5F5F5F5F5F5F5F5F5F5F5F5F5F5F5F5F5F5F5
310
F5F5F5F5F5F5F5F5F5F5F5F5F5F5F5F5F5F5F5F5F5F5F5F5F5F5F5F5F5F5F5F5F5F5F5F5F5F5F5F5F5F5F5F5F5F5F5F5F5F5F5F5F5F5F5F5F5F5F5F5F5F5F5F5F5F5F5F5F5F5F5F5F5F5F5F5F5F5F5F5F5F5F5F5F5F5F5F5F5F5F5F5F5F5F5F5F5F5F5F5E2F5F5E2F5F5F5E2E2E2F5F5F5E2F5F5E2F5F5F5F5F5F5F5F5F5F5
310
F5F5F5F5F5F5F5F5F5F5F5F5F5F5F5F5F5F5F5F5F5F5F5F5F5F5F5F5F5F5F5F5F5F5F5F5F5F5F5F5F5F5F5F5F5F5F5F5F5F5F5F5F5F5F5F5F5F5F5F5F5F5F5F5F5F5F5F5F5F5F5F5F5F5F5F5F5F5F5F5F5F5F5F5F5F5F5F5F5F5F5F5F5F5F5F5F5F5F5F5F5F5F5F5F5F5F5F5F5F5F5F5F5F5F5F5F5F5F5F5F5F5F5F5F5F5F5
310
F5F5F5F5F5F5F5F5F5F5F5F5F5F5F5F5F5F5F5F5F5F5F5F5F5F5E2F5F5E2F5F5F5E2E2E2F5F5F5E2F5F5E2F5F5F5F5F5F5F5F5F5F5F5F5F5F5F5F5F5F5F5F5F5F5F5F5F5F5F5F5F5F5F5F5F5F5F5F5F5F5F5F5F5F5F5F5F5F5F5F5F5F5F5F5F5F5F5F5F5F5F5F5F5F5F5F5F5F5F5F5F5F5F5F5F5F5F5F5F5F5F5F5F5F5F5F5
310
F5F5F5F5F5F5F5F5F5F5F5F5F5F5F5F5F5F5F5F5F5F5F5F5F5F5F5F5F5F5F5F5F5F5F5F5F5F5F5F5F5F5F5F5F5F5F5F5F5F5F5F5F5F5F5F5F5F5F5F5F5F5F5F5F5F5F5F5F5F5F5F5F5F5F5F5F5F5F5E2F5F5E2F5F5F5E2E2E2F5F5F5E2F5F5E2F5F5F5F5F5F5F5F5F5F5F5F5F5F5F5F5F5F5F5F5F5F5F5F5F5F5F5F5F5F5F5
310
F5F5F5F5F5F5F5F5F5F5F5F5F5F5F5F5F5F5F5F5F5F5F5F5F5F5F5F5F5F5F5F5F5F5F5F5F5F5F5F5F5F5F5F5F5F5F5F5F5F5F5F5F5F5F5F5F5F5F5F5F5F5F5F5F5F5F5F5F5F5F5F5F5F5F5F5F5F5F5F5F5F5F5F5F5F5F5F5F5F5F5F5F5F5F5F5F5F5F5F5F5F5F5F5F5F5F5F5F5F5F5F5F5F5F5F5F5F5F5F5F5F5F5F5F5F5F5
310
F5F5F5F5F5E2F5F5E2F5F5F5E2E2E2F5F5F5E2F5F5E2F5F5F5F5F5F5F5F5F5F5F5F5F5F5F5F5F5F5F5F5F5F5F5F5F5F5F5F5F5F5F5F5F5F5F5F5F5F5F5F5F5F5F5F5F5F5F5F5F5F5F5F5F5F5F5F5F5F5F5F5F5F5F5F5F5F5F5F5F5F5F5F5F5F5F5F5F5F5F5F5F5F5F5F5F5F5F5F5F5F5F5F5F5F5F5F5F5F5F5F5F5F5F5F5F5
310
F5F5F5F5F5F5F5F5F5F5F5F5F5F5F5F5F5F5F5F5F5F5F5F5F5F5F5F5F5F5F5F5F5F5F5F5F5F5F5F5F5F5F5F5F5F5F5F5F5F5F5F5F5F5F5F5F5F5E2F5F5E2F5F5F5E2E2E2F5F5F5E2F5F5E2F5F5F5F5F5F5F5F5F5F5F5F5F5F5F5F5F5F5F5F5F5F5F5F5F5F5F5F5F5F5F5F5F5F5F5F5F5F5F5F5F5F5F5F5F5F5F5F5F5F5F5F5
310
F5F5F5F5F5F5F5F5F5F5F5F5F5F5F5F5F5F5F5F5F5F5F5F5F5F5F5F5F5F5F5F5F5F5F5F5F5F5F5F5F5F5F5F5F5F5F5F5F5F5F5F5F5F5F5F5F5F5F5F5F5F5F5F5F5F5F5F5F5F5F5F5F5F5F5F5F5F5F5F5F5F5F5F5F5F5F5F5F5F5F5F5F5F5F5F5F5F5F5F5F5F5F5F5F5F5F5F5F5F5F5E2F5F5E2F5F5F5E2E2E2F5F5F5E2F5F5
310
E2F5F5F5F5F5F5F5F5F5F5F5F5F5F5F5F5F5F5F5F5F5F5F5F5F5F5F5F5F5F5F5F5F5F5F5F5F5F5F5F5F5F5F5F5F5F5F5F5F5F5F5F5F5F5F5F5F5F5F5F5F5F5F5F5F5F5F5F5F5F5F5F5F5F5F5F5F5F5F5F5F5F5F5F5F5F5F5F5F5F5F5F5F5F5F5F5F5F5F5F5F5F5F5F5F5F5F5F5F5F5F5F5F5F5F5F5F5F5F5F5F5F5F5F5F5F5
310
F5F5F5F5F5F5F5F5F5F5F5F5F5F5F5F5F5F5F5F5F5F5F5F5F5F5F5F5F5F5F5F5F5F5F5F5F5E2F5F5E2F5F5F5E2E2E2F5F5F5E2F5F5E2F5F5F5F5F5F5F5F5F5F5F5F5F5F5F5F5F5F5F5F5F5F5F5F5F5F5F5F5F5F5F5F5F5F5F5F5F5F5F5F5F5F5F5F5F5F5F5F5F5F5F5F5F5F5F5F5F5F5F5F5F5F5F5F5F5F5F5F5F5F5F5F5F5
310
F5F5F5F5F5F5F5F5F5F5F5F5F5F5F5F5F5F5F5F5F5F5F5F5F5F5F5F5F5F5F5F5F5F5F5F5F5F5F5F5F5F5F5F5F5F5F5F5F5F5F5F5F5F5F5F5F5F5F5F5F5F5F5F5F5F5F5F5F5F5F5F5F5F5F5F5F5F5F5F5F5F5F5F5F5F5F5F5F5F5E2F5F5E2F5F5F5E2E2E2F5F5F5E2F5F5E2F5F5F5F5F5F5F5F5F5F5F5F5F5F5F5F5F5F5F5F5
310
F5F5F5F5F5F5F5F5F5F5F5F5F5F5F5F5F5F5F5F5F5F5F5F5F5F5F5F5F5F5F5F5F5F5F5F5F5F5F5F5F5F5F5F5F5F5F5F5F5F5F5F5F5F5F5F5F5F5F5F5F5F5F5F5F5F5F5F5F5F5F5F5F5F5F5F5F5F5F5F5F5F5F5F5F5F5F5F5F5F5F5F5F5F5F5F5F5F5F5F5F5F5F5F5F5F5F5F5F5F5F5F5F5F5F5F5F5F5F5F5F5F5F5F5F5F5F5
310
F5F5F5F5F5F5F5F5F5F5F5F5F5F5F5F5E2F5F5E2F5F5F5E2E2E2F5F5F5E2F5F5E2F5F5F5F5F5F5F5F5F5F5F5F5F5F5F5F5F5F5F5F5F5F5F5F5F5F5F5F5F5F5F5F5F5F5F5F5F5F5F5F5F5F5F5F5F5F5F5F5F5F5F5F5F5F5F5F5F5F5F5F5F5F5F5F5F5F5F5F5F5F5F5F5F5F5F5F5F5F5F5F5F5F5F5F5F5F5F5F5F5F5F5F5F5F5
310
F5F5F5F5F5F5F5F5F5F5F5F5F5F5F5F5F5F5F5F5F5F5F5F5F5F5F5F5F5F5F5F5F5F5F5F5F5F5F5F5F5F5F5F5F5F5F5F5F5F5F5F5F5F5F5F5F5F5F5F5F5F5F5F5F5F5F5F5F5E2F5F5E2F5F5F5E2E2E2F5F5F5F5F5F5E2F5F5F5F5F5F5F5F5F5F5F5F5F5F5F5F5F5F5F5F5F5F5F5F5F5F5F5F5F5F5F5F5F5F5F5F5F5F5F5F5F5
310
F5F5F5F5F5F5F5F5F5F5F5F5F5F5F5F5F5F5F5F5F5F5F5F5F5F5F5F5F5F5F5F5F5F5F5F5F5F5F5F5F5F5F5F5F5F5F5F5F5F5F5F5F5F5F5F5F5F5F5F5F5F5F5F5F5F5F5F5F5F5F5F5F5F5F5F5F5F5F5F5F5F5F5F5F5F5F5F5F5F5F5F5F5F5F5F5F5F5F5F5F5F5F5F5F5F5F5F5F5F5F5F5F5F5F5F5F5F5F5F5F5F5E2F5F5F5F5
310
F5F5E2E2E2F5F5F5F5F5F5E2F5F5F5F5F5F5F5F5F5F5F5F5F5F5F5F5F5F5F5F5F5F5F5F5F5F5F5F5F5F5F5F5F5F5F5F5F5F5F5F5F5F5F5F5F5F5F5F5F5F5F5F5F5F5F5F5F5F5F5F5F5F5F5F5F5F5F5F5F5F5F5F5F5F5F5F5F5F5F5F5F5F5F5F5F5F5F5F5F5F5F5F5F5F5F5F5F5F5F5F5F5F5F5F5F5F5F5F5F5F5F5F5F5F5F5
310
F5F5F5F5F5F5F5F5F5F5F5F5F5F5F5F5F5F5F5F5F5F5F5F5F5F5F5F5F5F5F5F5F5F5F5F5F5F5F5F5F5F5F5F5F5F5F5F5E2F5F5F5F5F5F5E2E2E2F5F5F5F5F5F5E2F5F5F5F5F5F5F5F5F5F5F5F5F5F5F5F5F5F5F5F5F5F5F5F5F5F5F5F5F5F5F5F5F5F5F5F5F5F5F5F5F5F5F5F5F5F5F5F5F5F5F5F5F5F5F5F5F5F5F5F5F5F5
310
F5F5F5F5F5F5F5F5F5F5F5F5F5F5F5F5F5F5F5F5F5F5F5F5F5F5F5F5F5F5F5F5F5F5F5F5F5F5F5F5F5F5F5F5F5F5F5F5F5F5F5F5F5F5F5F5F5F5F5F5F5F5F5F5F5F5F5F5F5F5F5F5F5F5F5F5F5F5F5F5F5F5F5F5F5F5F5F5F5F5F5F5F5F5F5F5F5F5F5F5F5E2F5F5F5F5F5F5E2E2E2F5F5F5F5F5F5E2F5F5F5F5F5F5F5F5F5
310
F5F5F5F5F5F5F5F5F5F5F5F5F5F5F5F5F5F5F5F5F5F5F5F5F5F5F5F5F5F5F5F5F5F5F5F5F5F5F5F5F5F5F5F5F5F5F5F5F5F5F5F5F5F5F5F5F5F5F5F5F5F5F5F5F5F5F5F5F5F5F5F5F5F5F5F5F5F5F5F5F5F5F5F5F5F5F5F5F5F5F5F5F5F5F5F5F5F5F5F5F5F5F5F5F5F5F5F5F5F5F5F5F5F5F5F5F5F5F5F5F5F5F5F5F5F5F5
310
F5F5F5F5F5F5F5F5F5F5F5F5F5F5F5F5F5F5F5F5F5F5F5F5F5F5F5E2F5F5F5F5F5F5E2E2E2F5F5F5F5F5F5E2F5F5F5F5F5F5F5F5F5F5F5F5F5F5F5F5F5F5F5F5F5F5F5F5F5F5F5F5F5F5F5F5F5F5F5F5F5F5F5F5F5F5F5F5F5F5F5F5F5F5F5F5F5F5F5F5F5F5F5F5F5F5F5F5F5F5F5F5F5F5F5F5F5F5F5F5F5F5F5F5F5F5F5
310
F5F5F5F5F5F5F5F5F5F5F5F5F5F5F5F5F5F5F5F5F5F5F5F5F5F5F5F5F5F5F5F5F5F5F5F5F5F5F5F5F5F5F5F5F5F5F5F5F5F5F5F5F5F5F5F5F5F5F5F5F5F5F5F5F5F5F5F5F5F5F5F5F5F5F5F5F5F5F5F5E2F5F5F5F5F5F5E2E2E2F5F5F5F5F5F5E2F5F5F5F5F5F5F5F5F5F5F5F5F5F5F5F5F5F5F5F5F5F5F5F5F5F5F5F5F5F5
310
F5F5F5F5F5F5F5F5F5F5F5F5F5F5F5F5F5F5F5F5F5F5F5F5F5F5F5F5F5F5F5F5F5F5F5F5F5F5F5F5F5F5F5F5F5F5F5F5F5F5F5F5F5F5F5F5F5F5F5F5F5F5F5F5F5F5F5F5F5F5F5F5F5F5F5F5F5F5F5F5F5F5F5F5F5F5F5F5F5F5F5F5F5F5F5F5F5F5F5F5F5F5F5F5F5F5F5F5F5F5F5F5F5F5F5F5F5F5F5F5F5F5F5F5F5F5F5
310
F5F5F5F5F5F5E2F5F5F5F5F5F5E2E2E2F5F5F5F5F5F5E2F5F5F5F5F5F5F5F5F5F5F5F5F5F5F5F5F5F5F5F5F5F5F5F5F5F5F5F5F5F5F5F5F5F5F5F5F5F5F5F5F5F5F5F5F5F5F5F5F5F5F5F5F5F5F5F5F5F5F5F5F5F5F5F5F5F5F5F5F5F5F5F5F5F5F5F5F5F5F5F5F5F5F5F5F5F5F5F5F5F5F5F5F5F5F5F5F5F5F5F5F5F5F5F5
310
F5F5F5F5F5F5F5F5F5F5F5F5F5F5F5F5F5F5F5F5F5F5F5F5F5F5F5F5F5F5F5F5F5F5F5F5F5F5F5F5F5F5F5F5F5F5F5F5F5F5F5F5F5F5F5F5F5F5F5E2F5F5F5F5F5F5E2E2E2F5F5F5F5F5F5E2F5F5F5F5F5F5F5F5F5F5F5F5F5F5F5F5F5F5F5F5F5F5F5F5F5F5F5F5F5F5F5F5F5F5F5F5F5F5F5F5F5F5F5F5F5F5F5F5F5F5F5
310
F5F5F5F5F5F5F5F5F5F5F5F5F5F5F5F5F5F5F5F5F5F5F5F5F5F5F5F5F5F5F5F5F5F5F5F5F5F5F5F5F5F5F5F5F5F5F5F5F5F5F5F5F5F5F5F5F5F5F5F5F5F5F5F5F5F5F5F5F5F5F5F5F5F5F5F5F5F5F5F5F5F5F5F5F5F5F5F5F5F5F5F5F5F5F5F5F5F5F5F5F5F5F5F5F5F5F5F5F5F5F5F5E2F5F5F5F5F5F5E2E2E2F5F5F5F5F5
310
F5E2F5F5F5F5F5F5F5F5F5F5F5F5F5F5F5F5F5F5F5F5F5F5F5F5F5F5F5F5F5F5F5F5F5F5F5F5F5F5F5F5F5F5F5F5F5F5F5F5F5F5F5F5F5F5F5F5F5F5F5F5F5F5F5F5F5F5F5F5F5F5F5F5F5F5F5F5F5F5F5F5F5F5F5F5F5F5F5F5F5F5F5F5F5F5F5F5F5F5F5F5F5F5F5F5F5F5F5F5F5F5F5F5F5F5F5F5F5F5F5F5F5F5F5F5F5
310
F5F5F5F5F5F5F5F5F5F5F5F5F5F5F5F5F5F5F5F5F5F5F5F5F5F5F5F5F5F5F5F5F5F5F5F5F5F5E2F5F5F5F5F5F5E2E2E2F5F5F5E2F5F5E2F5F5F5F5F5F5F5F5F5F5F5F5F5F5F5F5F5F5F5F5F5F5F5F5F5F5F5F5F5F5F5F5F5F5F5F5F5F5F5F5F5F5F5F5F5F5F5F5F5F5F5F5F5F5F5F5F5F5F5F5F5F5F5F5F5F5F5F5F5F5F5F5
310
F5F5F5F5F5F5F5F5F5F5F5F5F5F5F5F5F5F5F5F5F5F5F5F5F5F5F5F5F5F5F5F5F5F5F5F5F5F5F5F5F5F5F5F5F5F5F5F5F5F5F5F5F5F5F5F5F5F5F5F5F5F5F5F5F5F5F5F5F5F5F5F5F5F5F5F5F5F5F5F5F5F5F5F5F5F5F5F5F5F5F5E2F5F5E2F5F5F5E2E2E2F5F5F5E2F5F5E2F5F5F5F5F5F5F5F5F5F5F5F5F5F5F5F5F5F5F5
310
F5F5F5F5F5F5F5F5F5F5F5F5F5F5F5F5F5F5F5F5F5F5F5F5F5F5F5F5F5F5F5F5F5F5F5F5F5F5F5F5F5F5F5F5F5F5F5F5F5F5F5F5F5F5F5F5F5F5F5F5F5F5F5F5F5F5F5F5F5F5F5F5F5F5F5F5F5F5F5F5F5F5F5F5F5F5F5F5F5F5F5F5F5F5F5F5F5F5F5F5F5F5F5F5F5F5F5F5F5F5F5F5F5F5F5F5F5F5F5F5F5F5F5F5F5F5F5
310
F5F5F5F5F5F5F5F5F5F5F5F5F5F5F5F5F5E2F5F5E2F5F5F5E2E2E2F5F5F5E2F5F5E2F5F5F5F5F5F5F5F5F5F5F5F5F5F5F5F5F5F5F5F5F5F5F5F5F5F5F5F5F5F5F5F5F5F5F5F5F5F5F5F5F5F5F5F5F5F5F5F5F5F5F5F5F5F5F5F5F5F5F5F5F5F5F5F5F5F5F5F5F5F5F5F5F5F5F5F5F5F5F5F5F5F5F5F5F5F5F5F5F5F5F5F5F5
310
F5F5F5F5F5F5F5F5F5F5F5F5F5F5F5F5F5F5F5F5F5F5F5F5F5F5F5F5F5F5F5F5F5F5F5F5F5F5F5F5F5F5F5F5F5F5F5F5F5F5F5F5F5F5F5F5F5F5F5F5F5F5F5F5F5F5F5F5F5F5E2F5F5E2F5F5F5E2E2E2F5F5F5E2F5F5E2F5F5F5F5F5F5F5F5F5F5F5F5F5F5F5F5F5F5F5F5F5F5F5F5F5F5F5F5F5F5F5F5F5F5F5F5F5F5F5F5
310
F5F5F5F5F5F5F5F5F5F5F5F5F5F5F5F5F5F5F5F5F5F5F5F5F5F5F5F5F5F5F5F5F5F5F5F5F5F5F5F5F5F5F5F5F5F5F5F5F5F5F5F5F5F5F5F5F5F5F5F5F5F5F5F5F5F5F5F5F5F5F5F5F5F5F5F5F5F5F5F5F5F5F5F5F5F5F5F5F5F5F5F5F5F5F5F5F5F5F5F5F5F5F5F5F5F5F5F5F5F5F5F5F5F5F5F5F5F5F5F5F5F5F5E2F5F5E2
310
F5F5F5E2E2E2F5F5F5E2F5F5E2F5F5F5F5F5F5F5F5F5F5F5F5F5F5F5F5F5F5F5F5F5F5F5F5F5F5F5F5F5F5F5F5F5F5F5F5F5F5F5F5F5F5F5F5F5F5F5F5F5F5F5F5F5F5F5F5F5F5F5F5F5F5F5F5F5F5F5F5F5F5F5F5F5F5F5F5F5F5F5F5F5F5F5F5F5F5F5F5F5F5F5F5F5F5F5F5F5F5F5F5F5F5F5F5F5F5F5F5F5F5F5F5F5F5
310
F5F5F5F5F5F5F5F5F5F5F5F5F5F5F5F5F5F5F5F5F5F5F5F5F5F5F5F5F5F5F5F5F5F5F5F5F5F5F5F5F5F5F5F5F5F5F5F5F5E2F5F5E2F5F5F5E2E2E2F5F5F5E2F5F5E2F5F5F5F5F5F5F5F5F5F5F5F5F5F5F5F5F5F5F5F5F5F5F5F5F5F5F5F5F5F5F5F5F5F5F5F5F5F5F5F5F5F5F5F5F5F5F5F5F5F5F5F5F5F5F5F5F5F5F5F5F5
310
F5F5F5F5F5F5F5F5F5F5F5F5F5F5F5F5F5F5F5F5F5F5F5F5F5F5F5F5F5F5F5F5F5F5F5F5F5F5F5F5F5F5F5F5F5F5F5F5F5F5F5F5F5F5F5F5F5F5F5F5F5F5F5F5F5F5F5F5F5F5F5F5F5F5F5F5F5F5F5F5F5F5F5F5F5F5F5F5F5F5F5F5F5F5F5F5F5F5F5F5F5F5E2F5F5E2F5F5F5E2E2E2F5F5F5E2F5F5E2E2E2E2E2E2E2E2E2
310
E2E2E2E2E2E2E2E2E2E2E2E2E2E2E2E2E2E2E2E2E2E2E2E2E2E2E2E2E2E2E2E2E2E2E2E2E2E2E2E2E2E2E2E2E2E2E2E2E2E2E2E2E2E2E2E2E2E2E2E2E2E2E2E2E2E2E2E2E2E2E2E2E2E2E2E2E2E2E2E2E2E2E2E2E2E2E2E2E2E2E2E2E2E2E2E2E2E2E2E2E2E2E2E2E2E2E2E2E2E2E2E2E2E2E2E2E2E2E2E2E2E2E2E2E2E2E2
310
E2E2E2E2E2E2E2E2E2E2E2E2E2E2E2E2E2E2E2E2E2E2E2E2E2E2E2E2E2F5F5E2F5F5F5E2E2E2F5F5F5E2E2E2E2E2E2E2E2F5F5F5F5F5F5F5F5F5E2E2E2E2E2E2E2E2E2E2E2E2E2E2E2E2F5F5F5F5F5F5F5F5E2E2E2E2E2E2E2E2E2E2E2E2E2E2E2E2F5F5F5F5F5F5F5F5F5E2E2E2E2E2E2E2E2E2E2E2E2E2E2E2F5F5F5F5F5
310
F5F5F5F5E2E2E2E2E2E2E2E2E2E2E2E2E2E2E2F5F5F5F5F5F5F5F5F5E2E2E2E2E2E2E2E2E2E2E2E2E2E2E2E2F5F5F5F5F5F5F5F5E2E2E2E2E2E2E2E2E2E2E2E2E2E2E2E2F5F5F5F5F5F5F5F5F5E2E2E2E2E2E2E2E2F5F5F5E2E2E2F5F5F5F5F5F5F5F5F5F5F5F5F5F5F5F5F5F5F5F5F5F5F5F5F5F5F5F5F5F5F5F5F5F5F5F5
310
F5F5F5F5F5F5F5F5F5F5F5F5F5F5F5F5F5F5F5F5F5F5F5F5F5F5F5F5F5F5F5F5F5F5F5F5F5F5F5F5F5F5F5F5F5F5F5F5F5F5F5F5F5F5F5F5F5F5F5F5F5F5F5F5F5F5F5F5F5F5F5F5F5F5F5F5F5F5F5F5F5F5F5F5F5F5F5F5F5F5F5F5F5F5F5F5F5F5F5F5F5F5F5F5F5F5F5F5F5F5F5F5F5F5F5F5F5F5F5F5F5F5F5F5F5F5F5
310
F5F5F5F5F5F5F5F5F5F5F5F5F5F5E2E2E2F5F5F5F5F5F5F5F5F5F5F5F5F5F5F5F5F5F5F5F5F5F5F5F5F5F5F5F5F5F5F5F5F5F5F5F5F5F5F5F5F5F5F5F5F5F5F5F5F5F5F5F5F5F5F5F5F5F5F5F5F5F5F5F5F5F5F5F5F5F5F5F5F5F5F5F5F5F5F5F5F5F5F5F5F5F5F5F5F5F5F5F5F5F5F5F5F5F5F5F5F5F5F5F5F5F5F5F5F5F5
310
F5F5F5F5F5F5F5F5F5F5F5F5F5F5F5F5F5F5F5F5F5F5F5F5F5F5F5F5F5F5F5F5F5F5F5F5F5F5F5F5F5F5F5F5F5F5F5F5F5F5F5F5F5F5F5F5F5F5F5F5F5F5F5F5F5F5F5E2E2E2F5F5F5F5F5F5F5F5F5F5F5F5F5F5F5F5F5F5F5F5F5F5F5F5F5F5F5F5F5F5F5F5F5F5F5F5F5F5F5F5F5F5F5F5F5F5F5F5F5F5F5F5F5F5F5F5F5
310
F5F5F5F5F5F5F5F5F5F5F5F5F5F5F5F5F5F5F5F5F5F5F5F5F5F5F5F5F5F5F5F5F5F5F5F5F5F5F5F5F5F5F5F5F5F5F5F5F5F5F5F5F5F5F5F5F5F5F5F5F5F5F5F5F5F5F5F5F5F5F5F5F5F5F5F5F5F5F5F5F5F5F5F5F5F5F5F5F5F5F5F5F5F5F5F5F5F5F5F5F5F5F5F5F5F5F5F5F5F5F5F5F5F5F5F5F5F5F5F5E2EFE2E2E2E2E2
310
E2E2E2E2E2E2E2E2E2E2E2E2E2E2E2E2E2E2E2E2E2E2E2E2E2E2E2E2E2E2E2E2E2E2E2E2E2E2E2E2E2E2E2E2E2E2E2E2E2E2E2E2E2E2E2E2E2E2E2E2E2E2E2E2E2E2E2E2E2E2E2E2E2E2E2E2E2E2E2E2E2E2E2E2E2E2E2E2E2E2E2E2E2E2E2E2E2E2E2E2E2E2E2E2E2E2E2E2E2E2E2E2E2E2E2E2E2E2E2E2E2E2E2E2E2E2E2
310
E2E2E2E2E2E2E2E2E2E2E2E2E2E2E2E2E2E2E2E2E2E2E2E2E2E2E2E2E2E2E2E2E2E2E2E2E2E2E2E2E2E2E2E2E2E2E2EF
  0
XRECORD
  5
2D07
102
{ACAD_REACTORS
330
2D06
102
}
330
2D06
100
AcDbXrecord
280
     1
102
SHADEPLOT
 70
     0
102
SHADEPLOTRESLEVEL
 70
     2
102
SHADEPLOTCUSTOMDPI
 70
   300
  0
XRECORD
  5
2A3C
102
{ACAD_REACTORS
330
2A3B
102
}
330
2A3B
100
AcDbXrecord
280
     1
102
MATERIAL
148
0.0
149
0.0
149
0.0
 93
        0
 94
       63
282
     0
 72
     1
 77
     1
171
     1
175
     1
179
     1
273
     0
  0
XRECORD
  5
2A3A
102
{ACAD_REACTORS
330
2A39
102
}
330
2A39
100
AcDbXrecord
280
     1
102
MATERIAL
148
0.0
149
0.0
149
0.0
 93
        0
 94
       63
282
     0
 72
     1
 77
     1
171
     1
175
     1
179
     1
273
     0
  0
XRECORD
  5
2A3E
102
{ACAD_REACTORS
330
2A3D
102
}
330
2A3D
100
AcDbXrecord
280
     1
102
MATERIAL
148
0.0
149
0.0
149
0.0
 93
        0
 94
       63
282
     0
 72
     1
 77
     1
171
     1
175
     1
179
     1
273
     0
  0
XRECORD
  5
2D09
102
{ACAD_REACTORS
330
2D08
102
}
330
2D08
100
AcDbXrecord
280
     1
102
SHADEPLOT
 70
     0
102
SHADEPLOTRESLEVEL
 70
     2
102
SHADEPLOTCUSTOMDPI
 70
   300
  0
XRECORD
  5
2D0B
102
{ACAD_REACTORS
330
2D0A
102
}
330
2D0A
100
AcDbXrecord
280
     1
102
ACAD_ROUNDTRIP_PRE2007_TABLESTYLE
 90
      512
 91
        0
  1

 92
      512
 93
        0
  2

 94
      512
 95
        0
  3

  0
ENDSEC
  0
EOF
