  0
SECTION
  2
HEADER
  9
$ACADVER
  1
AC1015
  9
$ACADMAINTVER
 70
    20
  9
$DWGCODEPAGE
  3
ANSI_932
  9
$INSBASE
 10
0.0
 20
0.0
 30
0.0
  9
$EXTMIN
 10
22.56887653674016
 20
1781.119052913203
 30
0.0
  9
$EXTMAX
 10
271.4498053012972
 20
1904.755636987957
 30
0.0
  9
$LIMMIN
 10
0.0
 20
0.0
  9
$LIMMAX
 10
420.0
 20
297.0
  9
$ORTHOMODE
 70
     0
  9
$REGENMODE
 70
     1
  9
$FILLMODE
 70
     1
  9
$QTEXTMODE
 70
     0
  9
$MIRRTEXT
 70
     0
  9
$LTSCALE
 40
1.0
  9
$ATTMODE
 70
     1
  9
$TEXTSIZE
 40
2.5
  9
$TRACEWID
 40
1.0
  9
$TEXTSTYLE
  7
Standard
  9
$CLAYER
  8
作図線
  9
$CELTYPE
  6
ByLayer
  9
$CECOLOR
 62
   256
  9
$CELTSCALE
 40
1.0
  9
$DISPSILH
 70
     0
  9
$DIMSCALE
 40
1.0
  9
$DIMASZ
 40
4.0
  9
$DIMEXO
 40
1.0
  9
$DIMDLI
 40
7.0
  9
$DIMRND
 40
0.0
  9
$DIMDLE
 40
0.0
  9
$DIMEXE
 40
1.0
  9
$DIMTP
 40
0.0
  9
$DIMTM
 40
0.0
  9
$DIMTXT
 40
5.0
  9
$DIMCEN
 40
0.0
  9
$DIMTSZ
 40
0.0
  9
$DIMTOL
 70
     0
  9
$DIMLIM
 70
     0
  9
$DIMTIH
 70
     0
  9
$DIMTOH
 70
     0
  9
$DIMSE1
 70
     0
  9
$DIMSE2
 70
     0
  9
$DIMTAD
 70
     1
  9
$DIMZIN
 70
     8
  9
$DIMBLK
  1
Open30
  9
$DIMASO
 70
     1
  9
$DIMSHO
 70
     1
  9
$DIMPOST
  1

  9
$DIMAPOST
  1

  9
$DIMALT
 70
     0
  9
$DIMALTD
 70
     2
  9
$DIMALTF
 40
0.0394
  9
$DIMLFAC
 40
1.0
  9
$DIMTOFL
 70
     1
  9
$DIMTVP
 40
0.0
  9
$DIMTIX
 70
     0
  9
$DIMSOXD
 70
     0
  9
$DIMSAH
 70
     0
  9
$DIMBLK1
  1

  9
$DIMBLK2
  1

  9
$DIMSTYLE
  2
JIS
  9
$DIMCLRD
 70
     0
  9
$DIMCLRE
 70
     0
  9
$DIMCLRT
 70
     0
  9
$DIMTFAC
 40
1.0
  9
$DIMGAP
 40
1.0
  9
$DIMJUST
 70
     0
  9
$DIMSD1
 70
     0
  9
$DIMSD2
 70
     0
  9
$DIMTOLJ
 70
     1
  9
$DIMTZIN
 70
     0
  9
$DIMALTZ
 70
     0
  9
$DIMALTTZ
 70
     0
  9
$DIMUPT
 70
     0
  9
$DIMDEC
 70
     4
  9
$DIMTDEC
 70
     4
  9
$DIMALTU
 70
     2
  9
$DIMALTTD
 70
     2
  9
$DIMTXSTY
  7
Standard
  9
$DIMAUNIT
 70
     0
  9
$DIMADEC
 70
     0
  9
$DIMALTRND
 40
0.0
  9
$DIMAZIN
 70
     0
  9
$DIMDSEP
 70
    46
  9
$DIMATFIT
 70
     3
  9
$DIMFRAC
 70
     0
  9
$DIMLDRBLK
  1
Open30
  9
$DIMLUNIT
 70
     2
  9
$DIMLWD
 70
    -2
  9
$DIMLWE
 70
    -2
  9
$DIMTMOVE
 70
     0
  9
$LUNITS
 70
     2
  9
$LUPREC
 70
     4
  9
$SKETCHINC
 40
1.0
  9
$FILLETRAD
 40
0.0
  9
$AUNITS
 70
     0
  9
$AUPREC
 70
     0
  9
$MENU
  1
.
  9
$ELEVATION
 40
0.0
  9
$PELEVATION
 40
0.0
  9
$THICKNESS
 40
0.0
  9
$LIMCHECK
 70
     0
  9
$CHAMFERA
 40
0.0
  9
$CHAMFERB
 40
0.0
  9
$CHAMFERC
 40
0.0
  9
$CHAMFERD
 40
0.0
  9
$SKPOLY
 70
     0
  9
$TDCREATE
 40
2454379.577641921
  9
$TDUCREATE
 40
2454379.202641921
  9
$TDUPDATE
 40
2454937.502277963
  9
$TDUUPDATE
 40
2454937.127277963
  9
$TDINDWG
 40
0.7643165741
  9
$TDUSRTIMER
 40
0.7643156713
  9
$USRTIMER
 70
     1
  9
$ANGBASE
 50
0.0
  9
$ANGDIR
 70
     0
  9
$PDMODE
 70
     0
  9
$PDSIZE
 40
0.0
  9
$PLINEWID
 40
0.0
  9
$SPLFRAME
 70
     0
  9
$SPLINETYPE
 70
     6
  9
$SPLINESEGS
 70
     8
  9
$HANDSEED
  5
6FE5
  9
$SURFTAB1
 70
     6
  9
$SURFTAB2
 70
     6
  9
$SURFTYPE
 70
     6
  9
$SURFU
 70
     6
  9
$SURFV
 70
     6
  9
$UCSBASE
  2

  9
$UCSNAME
  2

  9
$UCSORG
 10
0.0
 20
0.0
 30
0.0
  9
$UCSXDIR
 10
1.0
 20
0.0
 30
0.0
  9
$UCSYDIR
 10
0.0
 20
1.0
 30
0.0
  9
$UCSORTHOREF
  2

  9
$UCSORTHOVIEW
 70
     0
  9
$UCSORGTOP
 10
0.0
 20
0.0
 30
0.0
  9
$UCSORGBOTTOM
 10
0.0
 20
0.0
 30
0.0
  9
$UCSORGLEFT
 10
0.0
 20
0.0
 30
0.0
  9
$UCSORGRIGHT
 10
0.0
 20
0.0
 30
0.0
  9
$UCSORGFRONT
 10
0.0
 20
0.0
 30
0.0
  9
$UCSORGBACK
 10
0.0
 20
0.0
 30
0.0
  9
$PUCSBASE
  2

  9
$PUCSNAME
  2

  9
$PUCSORG
 10
0.0
 20
0.0
 30
0.0
  9
$PUCSXDIR
 10
1.0
 20
0.0
 30
0.0
  9
$PUCSYDIR
 10
0.0
 20
1.0
 30
0.0
  9
$PUCSORTHOREF
  2

  9
$PUCSORTHOVIEW
 70
     0
  9
$PUCSORGTOP
 10
0.0
 20
0.0
 30
0.0
  9
$PUCSORGBOTTOM
 10
0.0
 20
0.0
 30
0.0
  9
$PUCSORGLEFT
 10
0.0
 20
0.0
 30
0.0
  9
$PUCSORGRIGHT
 10
0.0
 20
0.0
 30
0.0
  9
$PUCSORGFRONT
 10
0.0
 20
0.0
 30
0.0
  9
$PUCSORGBACK
 10
0.0
 20
0.0
 30
0.0
  9
$USERI1
 70
     0
  9
$USERI2
 70
     0
  9
$USERI3
 70
     0
  9
$USERI4
 70
     0
  9
$USERI5
 70
     0
  9
$USERR1
 40
0.0
  9
$USERR2
 40
0.0
  9
$USERR3
 40
0.0
  9
$USERR4
 40
0.0
  9
$USERR5
 40
0.0
  9
$WORLDVIEW
 70
     1
  9
$SHADEDGE
 70
     3
  9
$SHADEDIF
 70
    70
  9
$TILEMODE
 70
     0
  9
$MAXACTVP
 70
    64
  9
$PINSBASE
 10
0.0
 20
0.0
 30
0.0
  9
$PLIMCHECK
 70
     0
  9
$PEXTMIN
 10
0.0
 20
0.0
 30
0.0
  9
$PEXTMAX
 10
297.0
 20
210.0
 30
0.0
  9
$PLIMMIN
 10
0.037002778146416
 20
0.0133361937478469
  9
$PLIMMAX
 10
296.9629976511933
 20
209.9866638304666
  9
$UNITMODE
 70
     0
  9
$VISRETAIN
 70
     1
  9
$PLINEGEN
 70
     0
  9
$PSLTSCALE
 70
     1
  9
$TREEDEPTH
 70
  3020
  9
$CMLSTYLE
  2
Standard
  9
$CMLJUST
 70
     0
  9
$CMLSCALE
 40
20.0
  9
$PROXYGRAPHICS
 70
     1
  9
$MEASUREMENT
 70
     1
  9
$CELWEIGHT
370
    -1
  9
$ENDCAPS
280
     0
  9
$JOINSTYLE
280
     0
  9
$LWDISPLAY
290
     0
  9
$INSUNITS
 70
     4
  9
$HYPERLINKBASE
  1

  9
$STYLESHEET
  1

  9
$XEDIT
290
     1
  9
$CEPSNTYPE
380
     0
  9
$PSTYLEMODE
290
     1
  9
$FINGERPRINTGUID
  2
{733C549A-BCB8-4AFB-9693-44D802A4876F}
  9
$VERSIONGUID
  2
{5A9053EA-DC13-4C14-A185-8DFA0DB67EDC}
  9
$EXTNAMES
290
     1
  9
$PSVPSCALE
 40
0.0
  9
$OLESTARTUP
290
     0
  0
ENDSEC
  0
SECTION
  2
CLASSES
  0
CLASS
  1
ACDBDICTIONARYWDFLT
  2
AcDbDictionaryWithDefault
  3
ObjectDBX Classes
 90
        0
280
     0
281
     0
  0
CLASS
  1
PLOTSETTINGS
  2
AcDbPlotSettings
  3
ObjectDBX Classes
 90
        0
280
     0
281
     0
  0
CLASS
  1
DICTIONARYVAR
  2
AcDbDictionaryVar
  3
ObjectDBX Classes
 90
        0
280
     0
281
     0
  0
CLASS
  1
TABLESTYLE
  2
AcDbTableStyle
  3
ObjectDBX Classes
 90
     4095
280
     0
281
     0
  0
CLASS
  1
MATERIAL
  2
AcDbMaterial
  3
ObjectDBX Classes
 90
     1024
280
     0
281
     0
  0
CLASS
  1
VISUALSTYLE
  2
AcDbVisualStyle
  3
ObjectDBX Classes
 90
     4095
280
     0
281
     0
  0
CLASS
  1
ACAD_EVALUATION_GRAPH
  2
AcDbEvalGraph
  3
ObjectDBX Classes
 90
    33921
280
     0
281
     0
  0
CLASS
  1
ACAECUSTOBJ
  2
AcAeEditorObj
  3
AcAeEditorObj
 90
    33792
280
     0
281
     0
  0
CLASS
  1
ACDB_DYNAMICBLOCKPURGEPREVENTER_VERSION
  2
AcDbDynamicBlockPurgePreventer
  3
ObjectDBX Classes
 90
    33921
280
     0
281
     0
  0
CLASS
  1
SORTENTSTABLE
  2
AcDbSortentsTable
  3
ObjectDBX Classes
 90
        0
280
     0
281
     0
  0
CLASS
  1
DIMASSOC
  2
AcDbDimAssoc
  3
"AcDbDimAssoc|Product Desc:     AcDim ARX App For Dimension|Company:          Autodesk, Inc.|WEB Address:      www.autodesk.com"
 90
    32768
280
     0
281
     0
  0
CLASS
  1
ACDBPLACEHOLDER
  2
AcDbPlaceHolder
  3
ObjectDBX Classes
 90
        0
280
     0
281
     0
  0
CLASS
  1
LAYOUT
  2
AcDbLayout
  3
ObjectDBX Classes
 90
        0
280
     0
281
     0
  0
ENDSEC
  0
SECTION
  2
TABLES
  0
TABLE
  2
VPORT
  5
8
330
0
100
AcDbSymbolTable
 70
     2
  0
VPORT
  5
1B5
330
8
100
AcDbSymbolTableRecord
100
AcDbViewportTableRecord
  2
*Active
 70
     0
 10
0.0
 20
0.0
 11
1.0
 21
1.0
 12
92.40682573162215
 22
1836.133030756777
 13
0.0
 23
0.0
 14
10.0
 24
10.0
 15
10.0
 25
10.0
 16
0.0
 26
0.0
 36
1.0
 17
0.0
 27
0.0
 37
0.0
 40
363.7839454317608
 41
2.059585492227979
 42
50.0
 43
0.0
 44
0.0
 50
0.0
 51
0.0
 71
     0
 72
  1000
 73
     1
 74
     3
 75
     0
 76
     0
 77
     0
 78
     0
281
     0
 65
     1
110
0.0
120
0.0
130
0.0
111
1.0
121
0.0
131
0.0
112
0.0
122
1.0
132
0.0
 79
     0
146
0.0
  0
VPORT
  5
45A
330
8
100
AcDbSymbolTableRecord
100
AcDbViewportTableRecord
  2
本図
 70
     0
 10
0.0
 20
0.0
 11
1.0
 21
1.0
 12
322.2643325138894
 22
893.4870383816823
 13
0.0
 23
0.0
 14
10.0
 24
10.0
 15
10.0
 25
10.0
 16
0.0
 26
0.0
 36
1.0
 17
0.0
 27
0.0
 37
0.0
 40
349.6006736910367
 41
1.105194805194805
 42
50.0
 43
0.0
 44
0.0
 50
0.0
 51
0.0
 71
     0
 72
  1000
 73
     1
 74
     3
 75
     0
 76
     1
 77
     0
 78
     0
281
     0
 65
     1
110
0.0
120
0.0
130
0.0
111
1.0
121
0.0
131
0.0
112
0.0
122
1.0
132
0.0
 79
     0
146
0.0
  0
ENDTAB
  0
TABLE
  2
LTYPE
  5
5
330
0
100
AcDbSymbolTable
 70
     6
  0
LTYPE
  5
14
330
5
100
AcDbSymbolTableRecord
100
AcDbLinetypeTableRecord
  2
ByBlock
 70
     0
  3

 72
    65
 73
     0
 40
0.0
  0
LTYPE
  5
15
330
5
100
AcDbSymbolTableRecord
100
AcDbLinetypeTableRecord
  2
ByLayer
 70
     0
  3

 72
    65
 73
     0
 40
0.0
  0
LTYPE
  5
16
330
5
100
AcDbSymbolTableRecord
100
AcDbLinetypeTableRecord
  2
Continuous
 70
     0
  3
Solid line
 72
    65
 73
     0
 40
0.0
  0
LTYPE
  5
291
330
5
100
AcDbSymbolTableRecord
100
AcDbLinetypeTableRecord
  2
HIDDEN2
 70
     0
  3
Hidden (.5x) _ _ _ _ _ _ _ _ _ _ _ _ _ _ _ _ _
 72
    65
 73
     2
 40
4.762499999999998
 49
3.174999999999998
 74
     0
 49
-1.587499999999999
 74
     0
  0
LTYPE
  5
4C3
330
5
100
AcDbSymbolTableRecord
100
AcDbLinetypeTableRecord
  2
CENTER2
 70
     0
  3
Center (.5x) ___ _ ___ _ ___ _ ___ _ ___ _ ___
 72
    65
 73
     4
 40
28.575
 49
19.05
 74
     0
 49
-3.174999999999998
 74
     0
 49
3.174999999999998
 74
     0
 49
-3.174999999999998
 74
     0
  0
LTYPE
  5
4C4
330
5
100
AcDbSymbolTableRecord
100
AcDbLinetypeTableRecord
  2
PHANTOM2
 70
     0
  3
Phantom (.5x) ___ _ _ ___ _ _ ___ _ _ ___ _ _
 72
    65
 73
     6
 40
31.75
 49
15.875
 74
     0
 49
-3.174999999999998
 74
     0
 49
3.174999999999998
 74
     0
 49
-3.174999999999998
 74
     0
 49
3.174999999999998
 74
     0
 49
-3.174999999999998
 74
     0
  0
LTYPE
  5
C92
330
5
100
AcDbSymbolTableRecord
100
AcDbLinetypeTableRecord
  2
CENTER
 70
     0
  3
Center ____ _ ____ _ ____ _ ____ _ ____ _ ____
 72
    65
 73
     4
 40
50.8
 49
31.75
 74
     0
 49
-6.349999999999997
 74
     0
 49
6.349999999999997
 74
     0
 49
-6.349999999999997
 74
     0
  0
LTYPE
  5
1F1A
330
5
100
AcDbSymbolTableRecord
100
AcDbLinetypeTableRecord
  2
HIDDEN
 70
     0
  3
Hidden __ __ __ __ __ __ __ __ __ __ __ __ __ _
 72
    65
 73
     2
 40
9.524999999999996
 49
6.349999999999997
 74
     0
 49
-3.174999999999998
 74
     0
  0
ENDTAB
  0
TABLE
  2
LAYER
  5
2
102
{ACAD_XDICTIONARY
360
18A
102
}
330
0
100
AcDbSymbolTable
 70
    22
  0
LAYER
  5
10
330
2
100
AcDbSymbolTableRecord
100
AcDbLayerTableRecord
  2
0
 70
     0
 62
     7
  6
Continuous
370
    -3
390
F
  0
LAYER
  5
E4
330
2
100
AcDbSymbolTableRecord
100
AcDbLayerTableRecord
  2
Object
 70
     0
 62
     7
  6
Continuous
370
    -3
390
F
  0
LAYER
  5
12C
330
2
100
AcDbSymbolTableRecord
100
AcDbLayerTableRecord
  2
Title Block
 70
     0
 62
     7
  6
Continuous
370
    -3
390
F
  0
LAYER
  5
12D
330
2
100
AcDbSymbolTableRecord
100
AcDbLayerTableRecord
  2
Viewport
 70
     0
 62
     7
  6
Continuous
370
    -3
390
F
  0
LAYER
  5
345
330
2
100
AcDbSymbolTableRecord
100
AcDbLayerTableRecord
  2
作図線
 70
     0
 62
     6
  6
Continuous
290
     0
370
    18
390
F
  0
LAYER
  5
3DA
330
2
100
AcDbSymbolTableRecord
100
AcDbLayerTableRecord
  2
Dims
 70
     0
 62
     6
  6
Continuous
370
    -3
390
F
  0
LAYER
  5
3DB
330
2
100
AcDbSymbolTableRecord
100
AcDbLayerTableRecord
  2
Defpoints
 70
     0
 62
     7
  6
Continuous
290
     0
370
    -3
390
F
  0
LAYER
  5
3DC
330
2
100
AcDbSymbolTableRecord
100
AcDbLayerTableRecord
  2
テキスト
 70
     0
 62
     4
  6
Continuous
370
    -3
390
F
1001
AcAecLayerStandard
1000

1000

  0
LAYER
  5
4C5
330
2
100
AcDbSymbolTableRecord
100
AcDbLayerTableRecord
  2
寸法線
 70
     0
 62
     3
  6
Continuous
370
    18
390
F
  0
LAYER
  5
4C6
330
2
100
AcDbSymbolTableRecord
100
AcDbLayerTableRecord
  2
隠れ線
 70
     0
 62
     5
  6
HIDDEN2
370
    18
390
F
  0
LAYER
  5
4C7
330
2
100
AcDbSymbolTableRecord
100
AcDbLayerTableRecord
  2
中心線
 70
     0
 62
     1
  6
CENTER2
370
    18
390
F
  0
LAYER
  5
4C8
330
2
100
AcDbSymbolTableRecord
100
AcDbLayerTableRecord
  2
太線0.5
 70
     0
 62
     8
  6
Continuous
370
    50
390
F
  0
LAYER
  5
4C9
330
2
100
AcDbSymbolTableRecord
100
AcDbLayerTableRecord
  2
想像線
 70
     0
 62
     5
  6
PHANTOM2
370
    18
390
F
  0
LAYER
  5
4CA
330
2
100
AcDbSymbolTableRecord
100
AcDbLayerTableRecord
  2
一時線
 70
     0
 62
     2
  6
Continuous
290
     0
370
    18
390
F
1001
AcAecLayerStandard
1000

1000

  0
LAYER
  5
4CB
330
2
100
AcDbSymbolTableRecord
100
AcDbLayerTableRecord
  2
切断線
 70
     0
 62
     8
  6
Continuous
370
    25
390
F
1001
AcAecLayerStandard
1000

1000

  0
LAYER
  5
4CC
330
2
100
AcDbSymbolTableRecord
100
AcDbLayerTableRecord
  2
塗潰し
 70
     0
 62
     8
  6
Continuous
370
    18
390
F
1001
AcAecLayerStandard
1000

1000

  0
LAYER
  5
A4A
330
2
100
AcDbSymbolTableRecord
100
AcDbLayerTableRecord
  2
寸法
 70
     0
 62
     3
  6
Continuous
370
    18
390
F
  0
LAYER
  5
C93
330
2
100
AcDbSymbolTableRecord
100
AcDbLayerTableRecord
  2
Bracket
 70
     0
 62
     5
  6
Continuous
370
    40
390
F
  0
LAYER
  5
C94
330
2
100
AcDbSymbolTableRecord
100
AcDbLayerTableRecord
  2
Center
 70
     0
 62
     1
  6
CENTER
370
    -3
390
F
  0
LAYER
  5
1F1B
330
2
100
AcDbSymbolTableRecord
100
AcDbLayerTableRecord
  2
外形線
 70
     0
 62
     7
  6
Continuous
370
    40
390
F
  0
LAYER
  5
2987
330
2
100
AcDbSymbolTableRecord
100
AcDbLayerTableRecord
  2
Hidden
 70
     0
 62
     3
  6
Continuous
370
    -3
390
F
  0
LAYER
  5
5B63
330
2
100
AcDbSymbolTableRecord
100
AcDbLayerTableRecord
  2
Text
 70
     0
 62
     4
  6
Continuous
370
    -3
390
F
  0
ENDTAB
  0
TABLE
  2
STYLE
  5
3
330
0
100
AcDbSymbolTable
 70
     4
  0
STYLE
  5
11
330
3
100
AcDbSymbolTableRecord
100
AcDbTextStyleTableRecord
  2
Standard
 70
     0
 40
0.0
 41
1.0
 50
0.0
 71
     0
 42
2.5
  3
MS Gothic.ttf
  4

1001
ACAD
1000
MS Gothic
1071
    32817
  0
STYLE
  5
B0
330
3
100
AcDbSymbolTableRecord
100
AcDbTextStyleTableRecord
  2
Roman
 70
     0
 40
0.0
 41
1.0
 50
0.0
 71
     0
 42
5.0
  3
romans.shx
  4
extfont2.shx
  0
STYLE
  5
346
330
3
100
AcDbSymbolTableRecord
100
AcDbTextStyleTableRecord
  2
尺度１／２
 70
     0
 40
0.0
 41
1.0
 50
0.0
 71
     0
 42
8.0
  3
MS Gothic.ttf
  4

1001
ACAD
1000
MS Gothic
1071
    32817
  0
STYLE
  5
68E
330
3
100
AcDbSymbolTableRecord
100
AcDbTextStyleTableRecord
  2
BWH-jdt02
 70
     0
 40
0.0
 41
0.7
 50
0.0
 71
     0
 42
4.752464886293636
  3
SIMSUN.TTF
  4

1001
ACAD
1000
SimSun
1071
    34306
  0
ENDTAB
  0
TABLE
  2
VIEW
  5
6
330
0
100
AcDbSymbolTable
 70
     0
  0
ENDTAB
  0
TABLE
  2
UCS
  5
7
330
0
100
AcDbSymbolTable
 70
     0
  0
ENDTAB
  0
TABLE
  2
APPID
  5
9
330
0
100
AcDbSymbolTable
 70
     9
  0
APPID
  5
12
330
9
100
AcDbSymbolTableRecord
100
AcDbRegAppTableRecord
  2
ACAD
 70
     0
  0
APPID
  5
1B4
330
9
100
AcDbSymbolTableRecord
100
AcDbRegAppTableRecord
  2
ACAD_PSEXT
 70
     0
  0
APPID
  5
27C
330
9
100
AcDbSymbolTableRecord
100
AcDbRegAppTableRecord
  2
ACAUTHENVIRON
 70
     0
  0
APPID
  5
280
330
9
100
AcDbSymbolTableRecord
100
AcDbRegAppTableRecord
  2
AcDbDynamicBlockTrueName
 70
     0
  0
APPID
  5
281
330
9
100
AcDbSymbolTableRecord
100
AcDbRegAppTableRecord
  2
AcDbDynamicBlockGUID
 70
     0
  0
APPID
  5
283
330
9
100
AcDbSymbolTableRecord
100
AcDbRegAppTableRecord
  2
AcDbBlockRepETag
 70
     0
  0
APPID
  5
331
330
9
100
AcDbSymbolTableRecord
100
AcDbRegAppTableRecord
  2
ACAD_EXEMPT_FROM_CAD_STANDARDS
 70
     0
  0
APPID
  5
3DD
330
9
100
AcDbSymbolTableRecord
100
AcDbRegAppTableRecord
  2
AcAecLayerStandard
 70
     0
  0
APPID
  5
692
330
9
100
AcDbSymbolTableRecord
100
AcDbRegAppTableRecord
  2
RAK
 70
     0
  0
ENDTAB
  0
TABLE
  2
DIMSTYLE
  5
A
330
0
100
AcDbSymbolTable
 70
     7
100
AcDbDimStyleTable
 71
     3
340
121
340
348
340
347
  0
DIMSTYLE
105
121
102
{ACAD_REACTORS
330
65BA
330
65BB
330
65C2
330
65DB
330
65E6
330
65E7
330
65F1
330
65F2
330
65F3
330
65F4
102
}
330
A
100
AcDbSymbolTableRecord
100
AcDbDimStyleTableRecord
  2
JIS
 70
     0
 41
4.0
 42
1.0
 43
7.0
 44
1.0
 73
     0
 74
     0
 77
     1
 78
     8
140
5.0
141
0.0
143
0.0394
147
1.0
172
     1
340
11
341
33F
342
33F
  0
DIMSTYLE
105
292
330
A
100
AcDbSymbolTableRecord
100
AcDbDimStyleTableRecord
  2
ISO-25
 70
     0
 41
2.5
 42
0.625
 43
3.75
 44
1.25
 73
     0
 74
     0
 77
     1
 78
     8
140
2.5
141
2.5
143
0.03937007874016
147
0.625
171
     3
172
     1
271
     2
272
     2
274
     3
278
    44
283
     0
284
     8
340
11
  0
DIMSTYLE
105
347
330
A
100
AcDbSymbolTableRecord
100
AcDbDimStyleTableRecord
  2
JIS１／２
 70
     0
 41
6.0
 42
1.0
 43
7.0
 44
1.0
 73
     0
 74
     0
 77
     1
 78
     8
140
7.0
141
0.0
143
0.0394
147
2.0
172
     1
271
     2
272
     2
340
346
341
33F
342
33F
  0
DIMSTYLE
105
348
330
A
100
AcDbSymbolTableRecord
100
AcDbDimStyleTableRecord
  2
JIS２／１
 70
     0
 41
2.5
 42
1.0
 43
7.0
 44
1.0
 73
     0
 74
     0
 77
     1
 78
     8
140
3.0
141
0.0
143
0.0394
147
0.5
172
     1
271
     2
272
     2
340
11
341
33F
342
33F
  0
DIMSTYLE
105
C95
330
A
100
AcDbSymbolTableRecord
100
AcDbDimStyleTableRecord
  2
ｺﾋﾟｰ - JIS
 70
     0
 41
2.5
 42
0.5
 43
7.0
 44
1.0
 48
0.5
 71
     1
 73
     0
 74
     0
 77
     1
 78
     8
 79
     2
140
3.5
141
0.0
143
0.0394
146
0.5
147
0.0
172
     1
271
     1
272
     1
340
11
  0
DIMSTYLE
105
109E
330
A
100
AcDbSymbolTableRecord
100
AcDbDimStyleTableRecord
  2
ｺﾋﾟｰ(2) - JIS
 70
     0
 41
5.0
 42
0.5
 43
7.0
 44
1.0
 48
0.2
 71
     1
 73
     0
 74
     0
 77
     1
 78
     8
 79
     2
140
8.0
141
0.0
143
0.0394
146
0.5
147
0.0
172
     1
271
     1
272
     1
340
11
  0
DIMSTYLE
105
1F1C
330
A
100
AcDbSymbolTableRecord
100
AcDbDimStyleTableRecord
  2
JIS2
 70
     0
 41
2.5
 42
1.0
 43
7.0
 44
1.0
 73
     0
 74
     0
 77
     1
 78
     8
140
4.0
141
0.0
143
0.0394
144
0.5
147
0.5
172
     1
271
     1
272
     1
340
11
341
33F
342
33F
  0
ENDTAB
  0
TABLE
  2
BLOCK_RECORD
  5
1
330
0
100
AcDbSymbolTable
 70
    24
  0
BLOCK_RECORD
  5
1F
102
{ACAD_XDICTIONARY
360
B52
102
}
330
1
100
AcDbSymbolTableRecord
100
AcDbBlockTableRecord
  2
*Model_Space
340
22
  0
BLOCK_RECORD
  5
6F83
330
1
100
AcDbSymbolTableRecord
100
AcDbBlockTableRecord
  2
*Paper_Space
340
6F80
  0
BLOCK_RECORD
  5
AB
102
{ACAD_XDICTIONARY
360
28E
102
}
330
1
100
AcDbSymbolTableRecord
100
AcDbBlockTableRecord
  2
JIS A4 title block (portrait)
340
0
310
2800000020000000200000000100080000000000000400000000000000000000000000000000000000000000000080000080000000808000800000008000800080800000C0C0C000C0DCC000F0CAA6000020400000206000002080000020A0000020C0000020E00000400000004020000040400000406000004080000040A0
310
000040C0000040E00000600000006020000060400000606000006080000060A0000060C0000060E00000800000008020000080400000806000008080000080A0000080C0000080E00000A0000000A0200000A0400000A0600000A0800000A0A00000A0C00000A0E00000C0000000C0200000C0400000C0600000C0800000C0
310
A00000C0C00000C0E00000E0000000E0200000E0400000E0600000E0800000E0A00000E0C00000E0E00040000000400020004000400040006000400080004000A0004000C0004000E00040200000402020004020400040206000402080004020A0004020C0004020E000404000004040200040404000404060004040800040
310
40A0004040C0004040E00040600000406020004060400040606000406080004060A0004060C0004060E00040800000408020004080400040806000408080004080A0004080C0004080E00040A0000040A0200040A0400040A0600040A0800040A0A00040A0C00040A0E00040C0000040C0200040C0400040C0600040C08000
310
40C0A00040C0C00040C0E00040E0000040E0200040E0400040E0600040E0800040E0A00040E0C00040E0E00080000000800020008000400080006000800080008000A0008000C0008000E00080200000802020008020400080206000802080008020A0008020C0008020E00080400000804020008040400080406000804080
310
008040A0008040C0008040E00080600000806020008060400080606000806080008060A0008060C0008060E00080800000808020008080400080806000808080008080A0008080C0008080E00080A0000080A0200080A0400080A0600080A0800080A0A00080A0C00080A0E00080C0000080C0200080C0400080C0600080C0
310
800080C0A00080C0C00080C0E00080E0000080E0200080E0400080E0600080E0800080E0A00080E0C00080E0E000C0000000C0002000C0004000C0006000C0008000C000A000C000C000C000E000C0200000C0202000C0204000C0206000C0208000C020A000C020C000C020E000C0400000C0402000C0404000C0406000C0
310
408000C040A000C040C000C040E000C0600000C0602000C0604000C0606000C0608000C060A000C060C000C060E000C0800000C0802000C0804000C0806000C0808000C080A000C080C000C080E000C0A00000C0A02000C0A04000C0A06000C0A08000C0A0A000C0A0C000C0A0E000C0C00000C0C02000C0C04000C0C06000
310
C0C08000C0C0A000F0FBFF00A4A0A000808080000000FF0000FF000000FFFF00FF000000FF00FF00FFFF0000FFFFFF00FFFFFFFFFFFFFFFFFFFFFFFFFFFFFFFFFFFFFFFFFFFFFFFFFFFFFFFFFFFFFFFFFFFFFFFFFFFF000000FFFFFFFFFFFFFF00FFFFFFFFFFFFFFFF00FFFFFFFFFFFFFFFFFFFFFFFF000000000000000000
310
0000000000000000000000FFFFFFFFFFFFFFFFFFFFFFFFFFFF00FFFFFF0000000000000000000000000000FFFFFFFFFFFFFFFFFFFFFFFFFFFF00FFFFFF0000000000000000FFFFFFFFFF00FFFFFFFFFFFFFFFFFFFFFFFFFFFF00FFFFFF0000000000000000000000000000FFFFFFFFFFFFFFFFFFFFFFFFFFFF00FFFFFF0000
310
000000000000000000000000FFFFFFFFFFFFFFFFFFFFFFFFFF0000FFFFFFFFFFFFFFFFFFFFFFFFFFFFFFFF00FFFFFFFFFFFFFFFFFFFFFFFFFFFF00FFFFFFFFFFFFFFFFFFFFFFFFFFFFFFFF00FFFFFFFFFFFFFFFFFFFFFFFFFFFF00FFFFFFFFFFFFFFFFFFFFFFFFFFFFFFFF00FFFFFFFFFFFFFFFFFFFFFFFFFFFF00FFFFFFFF
310
FFFFFFFFFFFFFFFFFFFFFFFF00FFFFFFFFFFFFFFFFFFFFFFFFFF0000FFFFFFFFFFFFFFFFFFFFFFFFFFFFFFFF00FFFFFFFFFFFFFFFFFFFFFFFFFFFF00FFFFFFFFFFFFFFFFFFFFFFFFFFFFFFFF00FFFFFFFFFFFFFFFFFFFFFFFFFFFF00FFFFFFFFFFFFFFFFFFFFFFFFFFFFFFFF00FFFFFFFFFFFFFFFFFFFFFFFFFFFF00FFFFFF
310
FFFFFFFFFFFFFFFFFFFFFFFFFF00FFFFFFFFFFFFFFFFFFFFFFFF000000FFFFFFFFFFFFFFFFFFFFFFFFFFFFFFFF00FFFFFFFFFFFFFFFFFFFFFFFFFFFF00FFFFFFFFFFFFFFFFFFFFFFFFFFFFFFFF00FFFFFFFFFFFFFFFFFFFFFFFFFFFF00FFFFFFFFFFFFFFFFFFFFFFFFFFFFFFFF00FFFFFFFFFFFFFFFFFFFFFFFFFFFF00FFFF
310
FFFFFFFFFFFFFFFFFFFFFFFFFFFF00FFFFFFFFFFFFFFFFFFFFFFFFFFFF00FFFFFFFFFFFFFFFFFFFFFFFFFFFFFFFF00FFFFFFFFFFFFFFFFFFFFFFFFFF0000FFFFFFFFFFFFFFFFFFFFFFFFFFFFFFFF00FFFFFFFFFFFFFFFFFFFFFFFFFFFF00FFFFFFFFFFFFFFFFFFFFFFFFFFFFFFFF00FFFFFFFFFFFFFFFFFFFFFFFFFFFF00FF
310
FFFFFFFFFFFFFFFFFFFFFFFFFFFFFF00FFFFFFFFFFFFFFFFFFFFFFFFFFFF00FFFFFFFFFFFFFFFFFFFFFFFFFFFFFFFF00FFFFFFFFFFFFFFFFFFFFFFFFFF0000FFFFFFFFFFFFFFFFFFFFFFFFFFFFFFFF00FFFFFFFFFFFFFFFFFFFFFFFFFFFF00FFFFFFFFFFFFFFFFFFFFFFFFFFFFFFFF00FFFFFFFFFFFFFFFFFFFFFFFFFFFF00
310
00000000000000000000FFFFFFFFFFFF00FFFFFFFFFFFFFFFFFFFFFFFFFFFF0000000000000000000000FFFFFFFFFFFF00FFFFFFFFFFFFFFFFFFFFFFFFFFFF0000000000000000000000FFFFFFFFFFFF00FFFFFFFFFFFFFFFFFFFFFFFF00FF000000000000000000000000000000000000FFFFFFFFFFFFFFFFFFFFFFFF0000
310
00FFFFFFFFFFFFFF00FFFFFFFFFFFFFFFF00FFFFFFFFFFFFFFFFFFFFFFFFFFFFFFFFFFFFFFFFFFFFFFFFFFFFFFFFFFFFFFFFFFFFFFFFFFFF
1001
AcDbDynamicBlockGUID
1000
{6DB1C6FB-04ED-4989-8D70-427348F3A6A6}
1001
AcDbBlockRepETag
1070
     1
1071
       23
1001
ACAD
1000
DesignCenter Data
1002
{
1070
     1
1070
     4
1002
}
  0
BLOCK_RECORD
  5
33F
330
1
100
AcDbSymbolTableRecord
100
AcDbBlockTableRecord
  2
_Open30
340
0
102
{BLKREFS
331
6AF5
331
6AF6
331
6AFE
331
6AFF
331
6B09
331
6B0A
331
6B13
331
6B14
331
6B1D
331
6B1E
331
6B30
331
6B31
331
6B3A
331
6B3B
331
6B4E
331
6B4F
331
6B74
331
6B75
331
6B7D
331
6B7E
331
6BB9
331
6BBA
331
6BC2
331
6BC3
331
6E6D
331
6E6E
331
6E74
331
6E75
331
6E9C
331
6E9D
331
6EAF
331
6EB0
331
6ECC
331
6ECD
331
6EFA
331
6EFB
331
6F2E
331
6F2F
331
6F38
331
6F39
102
}
  0
BLOCK_RECORD
  5
4E7
102
{ACAD_XDICTIONARY
360
4E8
102
}
330
1
100
AcDbSymbolTableRecord
100
AcDbBlockTableRecord
  2
JIS A3 title block
340
0
310
2800000020000000200000000100080000000000000400000000000000000000000000000000000000000000000080000080000000808000800000008000800080800000C0C0C000C0DCC000F0CAA6000020400000206000002080000020A0000020C0000020E00000400000004020000040400000406000004080000040A0
310
000040C0000040E00000600000006020000060400000606000006080000060A0000060C0000060E00000800000008020000080400000806000008080000080A0000080C0000080E00000A0000000A0200000A0400000A0600000A0800000A0A00000A0C00000A0E00000C0000000C0200000C0400000C0600000C0800000C0
310
A00000C0C00000C0E00000E0000000E0200000E0400000E0600000E0800000E0A00000E0C00000E0E00040000000400020004000400040006000400080004000A0004000C0004000E00040200000402020004020400040206000402080004020A0004020C0004020E000404000004040200040404000404060004040800040
310
40A0004040C0004040E00040600000406020004060400040606000406080004060A0004060C0004060E00040800000408020004080400040806000408080004080A0004080C0004080E00040A0000040A0200040A0400040A0600040A0800040A0A00040A0C00040A0E00040C0000040C0200040C0400040C0600040C08000
310
40C0A00040C0C00040C0E00040E0000040E0200040E0400040E0600040E0800040E0A00040E0C00040E0E00080000000800020008000400080006000800080008000A0008000C0008000E00080200000802020008020400080206000802080008020A0008020C0008020E00080400000804020008040400080406000804080
310
008040A0008040C0008040E00080600000806020008060400080606000806080008060A0008060C0008060E00080800000808020008080400080806000808080008080A0008080C0008080E00080A0000080A0200080A0400080A0600080A0800080A0A00080A0C00080A0E00080C0000080C0200080C0400080C0600080C0
310
800080C0A00080C0C00080C0E00080E0000080E0200080E0400080E0600080E0800080E0A00080E0C00080E0E000C0000000C0002000C0004000C0006000C0008000C000A000C000C000C000E000C0200000C0202000C0204000C0206000C0208000C020A000C020C000C020E000C0400000C0402000C0404000C0406000C0
310
408000C040A000C040C000C040E000C0600000C0602000C0604000C0606000C0608000C060A000C060C000C060E000C0800000C0802000C0804000C0806000C0808000C080A000C080C000C080E000C0A00000C0A02000C0A04000C0A06000C0A08000C0A0A000C0A0C000C0A0E000C0C00000C0C02000C0C04000C0C06000
310
C0C08000C0C0A000F0FBFF00A4A0A000808080000000FF0000FF000000FFFF00FF000000FF00FF00FFFF0000FFFFFF00FFFFFFFFFFFFFFFFFFFFFFFFFFFFFFFFFFFFFFFFFFFFFFFFFFFFFFFFFFFFFFFFFFFFFFFFFFFFFFFFFFFFFFFFFFFFFFFFFFFFFFFFFFFFFFFFFFFFFFFFFFFFFFFFFFFFFFFFFFFFFFFFFFFFFFFFFFFFFF
310
FFFFFFFFFFFFFFFFFFFFFFFFFFFFFFFFFFFFFFFFFFFFFFFFFFFFFFFFFFFFFFFFFFFFFFFFFFFFFFFFFFFFFFFFFFFFFFFFFFFFFFFFFFFFFFFFFFFFFFFFFFFFFFFFFFFFFFFFFFFFFFFFFFFFFFFFFFFFFFFFFFFFFFFFFFFFFFFFFFFFFFFFFFFFFFFFFFFFFFFFFFFFFFFFFFFFFFFFFFFFFFFFFFFF00FFFF00000000000000000000
310
000000000000FFFFFFFFFFFF0000FFFF00FFFFFFFF0000000000000000FFFFFFFFFFFFFFFFFFFFFFFFFFFFFFFFFFFFFFFFFFFFFFFF0000000000000000FFFFFFFFFFFFFFFFFFFFFFFFFFFFFFFFFFFF00FFFFFFFFFF00FFFFFFFFFFFFFFFFFFFFFFFFFFFFFFFFFFFFFFFFFFFFFFFFFF00FFFFFFFFFFFFFFFFFFFFFFFFFFFFFF
310
FFFFFFFFFFFFFFFFFFFFFFFFFFFFFFFF00FFFFFFFFFF00FFFFFFFFFFFFFFFFFFFFFFFFFFFFFFFFFFFFFFFFFFFFFFFFFF00FFFFFFFFFF00FFFFFFFFFFFFFFFFFFFFFFFFFFFFFFFFFFFFFFFFFFFFFFFFFF00FFFFFFFFFFFFFFFFFFFFFFFFFFFFFFFFFFFFFFFFFFFFFFFFFFFFFFFFFFFFFF00FFFFFFFFFF00FFFFFFFFFFFFFFFF
310
FFFFFFFFFFFFFFFFFFFFFFFFFFFFFFFFFF00FFFFFFFFFF00FFFFFFFFFFFFFFFFFFFFFFFFFFFFFFFFFFFFFFFFFFFFFFFFFF00FFFFFF000000FFFFFFFFFFFFFFFFFFFFFFFFFFFFFFFFFFFFFFFFFFFFFFFFFF0000FFFFFFFF00FFFFFFFFFFFFFFFFFFFFFFFFFFFFFFFFFFFFFFFFFFFFFFFFFF00FFFFFFFFFF00FFFFFFFFFFFFFF
310
FFFFFFFFFFFFFFFFFFFFFFFFFFFFFFFFFFFF00FFFFFFFFFF00FFFFFFFFFFFFFFFFFFFFFFFFFFFFFFFFFFFFFFFFFFFFFFFFFF00FFFFFFFFFF00FFFFFFFFFFFFFFFFFFFFFFFFFFFFFFFFFFFFFFFFFFFFFFFFFF00FFFFFFFFFF00FFFFFFFFFFFFFFFFFFFFFFFFFFFFFFFFFFFFFFFFFFFFFFFFFF00FFFFFFFFFF00FFFFFFFFFFFF
310
FFFFFFFFFFFFFFFFFFFFFFFFFFFFFFFFFFFFFF00FFFFFFFFFF00FFFFFFFFFFFFFFFFFFFFFFFFFFFFFFFFFFFFFFFFFFFFFFFFFF00FFFFFFFFFF00FFFFFFFFFFFFFFFFFFFFFFFFFFFFFFFFFFFFFFFFFFFFFFFFFF00FFFFFF000000000000000000000000000000000000000000000000000000000000FFFFFFFFFFFFFFFFFFFF
310
FFFFFFFFFFFFFFFFFFFFFFFFFFFFFFFFFFFFFFFFFFFFFFFFFFFFFFFFFFFFFFFFFFFFFFFFFFFFFFFFFFFFFFFFFFFFFFFFFFFFFFFFFFFFFFFFFFFFFFFFFFFFFFFFFFFFFFFFFFFFFFFFFFFFFFFFFFFFFFFFFFFFFFFFFFFFFFFFFFFFFFFFFFFFFFFFFFFFFFFFFFFFFFFFFFFFFFFFFFFFFFFFFFFFFFFFFFFFFFFFFFFFFFFFFFFFFF
310
FFFFFFFFFFFFFFFFFFFFFFFFFFFFFFFFFFFFFFFFFFFFFFFFFFFFFFFFFFFFFFFFFFFFFFFFFFFFFFFFFFFFFFFFFFFFFFFFFFFFFFFFFFFFFFFF
1001
AcDbDynamicBlockGUID
1000
{ADD7F6C8-90DF-4B5E-9041-BE536E290B26}
1001
AcDbBlockRepETag
1070
     1
1071
       75
1001
ACAD
1000
DesignCenter Data
1002
{
1070
     1
1070
     4
1002
}
  0
BLOCK_RECORD
  5
6ED
102
{ACAD_XDICTIONARY
360
930
102
}
330
1
100
AcDbSymbolTableRecord
100
AcDbBlockTableRecord
  2
JIS A4 title block (landscape)
340
0
1001
AcDbDynamicBlockGUID
1000
{CEEEE382-D703-4645-97A2-E5AB7DAA0D3B}
1001
AcDbBlockRepETag
1070
     1
1071
       77
1001
ACAD
1000
DesignCenter Data
1002
{
1070
     1
1070
     4
1002
}
  0
BLOCK_RECORD
  5
6161
330
1
100
AcDbSymbolTableRecord
100
AcDbBlockTableRecord
  2
*D4
340
0
  0
BLOCK_RECORD
  5
616D
330
1
100
AcDbSymbolTableRecord
100
AcDbBlockTableRecord
  2
*D5
340
0
  0
BLOCK_RECORD
  5
6179
330
1
100
AcDbSymbolTableRecord
100
AcDbBlockTableRecord
  2
*D6
340
0
  0
BLOCK_RECORD
  5
6185
330
1
100
AcDbSymbolTableRecord
100
AcDbBlockTableRecord
  2
*D7
340
0
  0
BLOCK_RECORD
  5
6191
330
1
100
AcDbSymbolTableRecord
100
AcDbBlockTableRecord
  2
*D8
340
0
  0
BLOCK_RECORD
  5
619D
330
1
100
AcDbSymbolTableRecord
100
AcDbBlockTableRecord
  2
*D9
340
0
  0
BLOCK_RECORD
  5
61A9
330
1
100
AcDbSymbolTableRecord
100
AcDbBlockTableRecord
  2
*D10
340
0
  0
BLOCK_RECORD
  5
61B4
330
1
100
AcDbSymbolTableRecord
100
AcDbBlockTableRecord
  2
*D11
340
0
  0
BLOCK_RECORD
  5
61BF
330
1
100
AcDbSymbolTableRecord
100
AcDbBlockTableRecord
  2
*D12
340
0
  0
BLOCK_RECORD
  5
621E
330
1
100
AcDbSymbolTableRecord
100
AcDbBlockTableRecord
  2
*D13
340
0
  0
BLOCK_RECORD
  5
65FE
330
1
100
AcDbSymbolTableRecord
100
AcDbBlockTableRecord
  2
*D14
340
0
  0
BLOCK_RECORD
  5
660A
330
1
100
AcDbSymbolTableRecord
100
AcDbBlockTableRecord
  2
*D15
340
0
  0
BLOCK_RECORD
  5
6616
330
1
100
AcDbSymbolTableRecord
100
AcDbBlockTableRecord
  2
*D16
340
0
  0
BLOCK_RECORD
  5
6622
330
1
100
AcDbSymbolTableRecord
100
AcDbBlockTableRecord
  2
*D17
340
0
  0
BLOCK_RECORD
  5
662E
330
1
100
AcDbSymbolTableRecord
100
AcDbBlockTableRecord
  2
*D18
340
0
  0
BLOCK_RECORD
  5
663A
330
1
100
AcDbSymbolTableRecord
100
AcDbBlockTableRecord
  2
*D19
340
0
  0
BLOCK_RECORD
  5
6646
330
1
100
AcDbSymbolTableRecord
100
AcDbBlockTableRecord
  2
*D20
340
0
  0
BLOCK_RECORD
  5
6651
330
1
100
AcDbSymbolTableRecord
100
AcDbBlockTableRecord
  2
*D21
340
0
  0
BLOCK_RECORD
  5
665C
330
1
100
AcDbSymbolTableRecord
100
AcDbBlockTableRecord
  2
*D22
340
0
  0
BLOCK_RECORD
  5
666A
330
1
100
AcDbSymbolTableRecord
100
AcDbBlockTableRecord
  2
*D23
340
0
  0
ENDTAB
  0
ENDSEC
  0
SECTION
  2
BLOCKS
  0
BLOCK
  5
20
330
1F
100
AcDbEntity
  8
0
100
AcDbBlockBegin
  2
*Model_Space
 70
     0
 10
0.0
 20
0.0
 30
0.0
  3
*Model_Space
  1

  0
ENDBLK
  5
21
330
1F
100
AcDbEntity
  8
0
100
AcDbBlockEnd
  0
BLOCK
  5
6F9B
330
6F83
100
AcDbEntity
 67
     1
  8
0
100
AcDbBlockBegin
  2
*Paper_Space
 70
     0
 10
0.0
 20
0.0
 30
0.0
  3
*Paper_Space
  1

  0
ENDBLK
  5
6F9C
330
6F83
100
AcDbEntity
 67
     1
  8
0
100
AcDbBlockEnd
  0
BLOCK
  5
116
330
AB
100
AcDbEntity
  8
0
100
AcDbBlockBegin
  2
JIS A4 title block (portrait)
 70
     2
 10
0.0
 20
0.0
 30
0.0
  3
JIS A4 title block (portrait)
  1

  4
JIS A4 title block and attributes (portrait)
  0
LINE
  5
28C
330
AB
100
AcDbEntity
  8
0
100
AcDbLine
 10
0.0
 20
297.0
 30
0.0
 11
25.0
 21
297.0
 31
0.0
1001
AcDbBlockRepETag
1070
     1
1071
        0
1005
28C
  0
LINE
  5
28D
330
AB
100
AcDbEntity
  8
0
100
AcDbLine
 10
0.0
 20
287.0
 30
0.0
 11
0.0
 21
297.0
 31
0.0
1001
AcDbBlockRepETag
1070
     1
1071
        1
1005
28D
  0
LINE
  5
2E7
330
AB
100
AcDbEntity
  8
0
100
AcDbLine
 10
17.5
 20
10.0
 30
0.0
 11
17.5
 21
287.0
 31
0.0
1001
AcDbBlockRepETag
1070
     1
1071
        2
1005
2E7
  0
LINE
  5
2E8
330
AB
100
AcDbEntity
  8
0
100
AcDbLine
 10
192.5
 20
287.0
 30
0.0
 11
192.5
 21
10.0
 31
0.0
1001
AcDbBlockRepETag
1070
     1
1071
        3
1005
2E8
  0
LINE
  5
2E9
330
AB
100
AcDbEntity
  8
0
100
AcDbLine
 10
192.5
 20
10.0
 30
0.0
 11
17.5
 21
10.0
 31
0.0
1001
AcDbBlockRepETag
1070
     1
1071
        4
1005
2E9
  0
LINE
  5
2EA
330
AB
100
AcDbEntity
  8
0
100
AcDbLine
 10
25.0
 20
0.0
 30
0.0
 11
0.0
 21
0.0
 31
0.0
1001
AcDbBlockRepETag
1070
     1
1071
        5
1005
2EA
  0
LINE
  5
2EB
330
AB
100
AcDbEntity
  8
0
100
AcDbLine
 10
0.0
 20
0.0
 30
0.0
 11
0.0
 21
10.0
 31
0.0
1001
AcDbBlockRepETag
1070
     1
1071
        6
1005
2EB
  0
LINE
  5
2EC
330
AB
100
AcDbEntity
  8
0
100
AcDbLine
 10
61.25
 20
10.0
 30
0.0
 11
61.25
 21
5.0
 31
0.0
1001
AcDbBlockRepETag
1070
     1
1071
        7
1005
2EC
  0
LINE
  5
2ED
330
AB
100
AcDbEntity
  8
0
100
AcDbLine
 10
17.5
 20
148.5
 30
0.0
 11
0.0
 21
148.5
 31
0.0
1001
AcDbBlockRepETag
1070
     1
1071
        8
1005
2ED
  0
LINE
  5
2EE
330
AB
100
AcDbEntity
  8
0
100
AcDbLine
 10
17.5
 20
56.16666666666668
 30
0.0
 11
12.5
 21
56.16666666666668
 31
0.0
1001
AcDbBlockRepETag
1070
     1
1071
        9
1005
2EE
  0
LINE
  5
2EF
330
AB
100
AcDbEntity
  8
0
100
AcDbLine
 10
17.5
 20
102.3333333333333
 30
0.0
 11
12.5
 21
102.3333333333333
 31
0.0
1001
AcDbBlockRepETag
1070
     1
1071
       10
1005
2EF
  0
LINE
  5
2F0
330
AB
100
AcDbEntity
  8
0
100
AcDbLine
 10
17.5
 20
148.5
 30
0.0
 11
12.5
 21
148.5
 31
0.0
1001
AcDbBlockRepETag
1070
     1
1071
       11
1005
2F0
  0
LINE
  5
2F1
330
AB
100
AcDbEntity
  8
0
100
AcDbLine
 10
105.0
 20
10.0
 30
0.0
 11
105.0
 21
0.0
 31
0.0
1001
AcDbBlockRepETag
1070
     1
1071
       12
1005
2F1
  0
LINE
  5
2F2
330
AB
100
AcDbEntity
  8
0
100
AcDbLine
 10
210.0
 20
10.0
 30
0.0
 11
210.0
 21
0.0
 31
0.0
1001
AcDbBlockRepETag
1070
     1
1071
       13
1005
2F2
  0
LINE
  5
2F3
330
AB
100
AcDbEntity
  8
0
100
AcDbLine
 10
148.75
 20
10.0
 30
0.0
 11
148.75
 21
5.0
 31
0.0
1001
AcDbBlockRepETag
1070
     1
1071
       14
1005
2F3
  0
LINE
  5
2F4
330
AB
100
AcDbEntity
  8
0
100
AcDbLine
 10
210.0
 20
0.0
 30
0.0
 11
200.0
 21
0.0
 31
0.0
1001
AcDbBlockRepETag
1070
     1
1071
       15
1005
2F4
  0
LINE
  5
2F5
330
AB
100
AcDbEntity
  8
0
100
AcDbLine
 10
192.5
 20
56.16666666666668
 30
0.0
 11
197.5
 21
56.16666666666668
 31
0.0
1001
AcDbBlockRepETag
1070
     1
1071
       16
1005
2F5
  0
LINE
  5
2F6
330
AB
100
AcDbEntity
  8
0
100
AcDbLine
 10
192.5
 20
102.3333333333333
 30
0.0
 11
197.5
 21
102.3333333333333
 31
0.0
1001
AcDbBlockRepETag
1070
     1
1071
       17
1005
2F6
  0
LINE
  5
2F7
330
AB
100
AcDbEntity
  8
0
100
AcDbLine
 10
192.5
 20
148.5
 30
0.0
 11
210.0
 21
148.5
 31
0.0
1001
AcDbBlockRepETag
1070
     1
1071
       18
1005
2F7
  0
LINE
  5
2F8
330
AB
100
AcDbEntity
  8
0
100
AcDbLine
 10
192.5
 20
148.5
 30
0.0
 11
197.5
 21
148.5
 31
0.0
1001
AcDbBlockRepETag
1070
     1
1071
       19
1005
2F8
  0
LINE
  5
2F9
330
AB
100
AcDbEntity
  8
0
100
AcDbLine
 10
17.5
 20
287.0
 30
0.0
 11
192.5
 21
287.0
 31
0.0
1001
AcDbBlockRepETag
1070
     1
1071
       20
1005
2F9
  0
LINE
  5
2FA
330
AB
100
AcDbEntity
  8
0
100
AcDbLine
 10
17.5
 20
194.6666666666666
 30
0.0
 11
12.5
 21
194.6666666666666
 31
0.0
1001
AcDbBlockRepETag
1070
     1
1071
       21
1005
2FA
  0
LINE
  5
2FB
330
AB
100
AcDbEntity
  8
0
100
AcDbLine
 10
17.5
 20
240.8333333333333
 30
0.0
 11
12.5
 21
240.8333333333333
 31
0.0
1001
AcDbBlockRepETag
1070
     1
1071
       22
1005
2FB
  0
LINE
  5
2FC
330
AB
100
AcDbEntity
  8
0
100
AcDbLine
 10
61.25
 20
287.0
 30
0.0
 11
61.25
 21
292.0
 31
0.0
1001
AcDbBlockRepETag
1070
     1
1071
       24
1005
2FC
  0
ATTDEF
  5
2FD
330
AB
100
AcDbEntity
  8
0
 62
     0
380
     1
100
AcDbText
 10
17.5
 20
293.0
 30
0.0
 40
3.0
  1

  7
Roman
100
AcDbAttributeDefinition
  3
Author:
  2
USER
 70
     8
1001
AcDbBlockRepETag
1070
     1
1071
       25
1005
0
  0
LINE
  5
2FE
330
AB
100
AcDbEntity
  8
0
100
AcDbLine
 10
192.5
 20
194.6666666666667
 30
0.0
 11
197.5
 21
194.6666666666667
 31
0.0
1001
AcDbBlockRepETag
1070
     1
1071
       26
1005
2FE
  0
LINE
  5
2FF
330
AB
100
AcDbEntity
  8
0
100
AcDbLine
 10
192.5
 20
240.8333333333334
 30
0.0
 11
197.5
 21
240.8333333333334
 31
0.0
1001
AcDbBlockRepETag
1070
     1
1071
       27
1005
2FF
  0
ATTDEF
  5
300
330
AB
100
AcDbEntity
  8
0
 62
     0
380
     1
100
AcDbText
 10
125.5
 20
293.0
 30
0.0
 40
3.0
  1

  7
Roman
100
AcDbAttributeDefinition
  3
File name:
  2
FNAME
 70
     8
1001
AcDbBlockRepETag
1070
     1
1071
       28
1005
0
  0
LINE
  5
301
330
AB
100
AcDbEntity
  8
0
100
AcDbLine
 10
105.0
 20
287.0
 30
0.0
 11
105.0
 21
297.0
 31
0.0
1001
AcDbBlockRepETag
1070
     1
1071
       29
1005
301
  0
LINE
  5
302
330
AB
100
AcDbEntity
  8
0
100
AcDbLine
 10
105.0
 20
287.0
 30
0.0
 11
105.0
 21
292.0
 31
0.0
1001
AcDbBlockRepETag
1070
     1
1071
       30
1005
302
  0
ATTDEF
  5
303
330
AB
100
AcDbEntity
  8
0
 62
     0
380
     1
100
AcDbText
 10
77.5
 20
293.0
 30
0.0
 40
3.0
  1

  7
Roman
100
AcDbAttributeDefinition
  3
Revision date:
  2
REVDATE
 70
     8
1001
AcDbBlockRepETag
1070
     1
1071
       31
1005
0
  0
LINE
  5
304
330
AB
100
AcDbEntity
  8
0
100
AcDbLine
 10
210.0
 20
297.0
 30
0.0
 11
210.0
 21
287.0
 31
0.0
1001
AcDbBlockRepETag
1070
     1
1071
       32
1005
304
  0
LINE
  5
305
330
AB
100
AcDbEntity
  8
0
100
AcDbLine
 10
148.75
 20
287.0
 30
0.0
 11
148.75
 21
292.0
 31
0.0
1001
AcDbBlockRepETag
1070
     1
1071
       33
1005
305
  0
LINE
  5
306
330
AB
100
AcDbEntity
  8
0
100
AcDbLine
 10
200.0
 20
297.0
 30
0.0
 11
210.0
 21
297.0
 31
0.0
1001
AcDbBlockRepETag
1070
     1
1071
       34
1005
306
  0
TEXT
  5
307
330
AB
100
AcDbEntity
  8
0
100
AcDbText
 10
13.87568307432493
 20
120.75
 30
0.0
 40
3.0
  1
D
  7
Roman
 72
     1
 11
15.4471116457535
 21
120.75
 31
0.0
100
AcDbText
1001
AcDbBlockRepETag
1070
     1
1071
       35
1005
307
  0
TEXT
  5
308
330
AB
100
AcDbEntity
  8
0
100
AcDbText
 10
13.9471116457535
 20
168.25
 30
0.0
 40
3.0
  1
C
  7
Roman
 72
     1
 11
15.4471116457535
 21
168.25
 31
0.0
100
AcDbText
1001
AcDbBlockRepETag
1070
     1
1071
       36
1005
308
  0
TEXT
  5
309
330
AB
100
AcDbEntity
  8
0
100
AcDbText
 10
13.87568307432493
 20
215.75
 30
0.0
 40
3.0
  1
B
  7
Roman
 72
     1
 11
15.4471116457535
 21
215.75
 31
0.0
100
AcDbText
1001
AcDbBlockRepETag
1070
     1
1071
       37
1005
309
  0
TEXT
  5
30A
330
AB
100
AcDbEntity
  8
0
100
AcDbText
 10
14.16139736003921
 20
263.25
 30
0.0
 40
3.0
  1
A
  7
Roman
 72
     1
 11
15.4471116457535
 21
263.25
 31
0.0
100
AcDbText
1001
AcDbBlockRepETag
1070
     1
1071
       38
1005
30A
  0
TEXT
  5
30B
330
AB
100
AcDbEntity
  8
0
100
AcDbText
 10
38.11904761904761
 20
288.0
 30
0.0
 40
3.0
  1
1
  7
Roman
 72
     1
 11
39.33333333333332
 21
288.0
 31
0.0
100
AcDbText
1001
AcDbBlockRepETag
1070
     1
1071
       39
1005
30B
  0
TEXT
  5
30C
330
AB
100
AcDbEntity
  8
0
100
AcDbText
 10
81.57142857142856
 20
288.0
 30
0.0
 40
3.0
  1
2
  7
Roman
 72
     1
 11
83.0
 21
288.0
 31
0.0
100
AcDbText
1001
AcDbBlockRepETag
1070
     1
1071
       40
1005
30C
  0
TEXT
  5
30D
330
AB
100
AcDbEntity
  8
0
100
AcDbText
 10
125.2380952380953
 20
288.0
 30
0.0
 40
3.0
  1
3
  7
Roman
 72
     1
 11
126.6666666666667
 21
288.0
 31
0.0
100
AcDbText
1001
AcDbBlockRepETag
1070
     1
1071
       41
1005
30D
  0
TEXT
  5
30E
330
AB
100
AcDbEntity
  8
0
100
AcDbText
 10
168.8333333333333
 20
288.0
 30
0.0
 40
3.0
  1
4
  7
Roman
 72
     1
 11
170.3333333333333
 21
288.0
 31
0.0
100
AcDbText
1001
AcDbBlockRepETag
1070
     1
1071
       42
1005
30E
  0
TEXT
  5
30F
330
AB
100
AcDbEntity
  8
0
100
AcDbText
 10
13.9471116457535
 20
28.41666666666668
 30
0.0
 40
3.0
  1
F
  7
Roman
 72
     1
 11
15.4471116457535
 21
28.41666666666668
 31
0.0
100
AcDbText
1001
AcDbBlockRepETag
1070
     1
1071
       43
1005
30F
  0
TEXT
  5
310
330
AB
100
AcDbEntity
  8
0
100
AcDbText
 10
13.9471116457535
 20
75.91666666666668
 30
0.0
 40
3.0
  1
E
  7
Roman
 72
     1
 11
15.4471116457535
 21
75.91666666666668
 31
0.0
100
AcDbText
1001
AcDbBlockRepETag
1070
     1
1071
       44
1005
310
  0
LINE
  5
311
330
AB
100
AcDbEntity
  8
0
100
AcDbLine
 10
192.4978723404242
 20
19.0
 30
0.0
 11
75.49787234042418
 21
19.0
 31
0.0
1001
AcDbBlockRepETag
1070
     1
1071
      166
1005
311
  0
LINE
  5
312
330
AB
100
AcDbEntity
  8
0
100
AcDbLine
 10
115.4978723404242
 20
28.0
 30
0.0
 11
75.49787234042418
 21
28.0
 31
0.0
1001
AcDbBlockRepETag
1070
     1
1071
      168
1005
312
  0
LINE
  5
313
330
AB
100
AcDbEntity
  8
0
100
AcDbLine
 10
192.4978723404242
 20
37.0
 30
0.0
 11
75.49787234042418
 21
37.0
 31
0.0
1001
AcDbBlockRepETag
1070
     1
1071
      169
1005
313
  0
LINE
  5
314
330
AB
100
AcDbEntity
  8
0
100
AcDbLine
 10
192.4978723404242
 20
46.0
 30
0.0
 11
75.49787234042418
 21
46.0
 31
0.0
1001
AcDbBlockRepETag
1070
     1
1071
      170
1005
314
  0
MTEXT
  5
315
330
AB
100
AcDbEntity
  8
0
100
AcDbMText
 10
100.9978723404242
 20
14.5
 30
0.0
 40
4.0
 41
51.0
 71
     5
 72
     5
  1
富国石油株式会社
 73
     1
 44
1.0
1001
AcDbBlockRepETag
1070
     1
1071
      171
1005
315
1001
ACAD
1000
MTEXTBEGIN
1070
    73
1070
     1
1070
    44
1040
1.0
1070
    74
1070
     0
1000
MTEXTEND
  0
MTEXT
  5
316
102
{ACAD_XDICTIONARY
360
6FDA
102
}
330
AB
100
AcDbEntity
  8
0
100
AcDbMText
 10
78.47796344079569
 20
23.5
 30
0.0
 40
2.0
 41
3.96018220074299
 71
     5
 72
     5
  1
検\P図
 73
     1
 44
1.0
1001
AcDbBlockRepETag
1070
     1
1071
      172
1005
316
1001
ACAD
1000
MTEXTBEGIN
1070
    73
1070
     1
1070
    44
1040
1.0
1070
    74
1070
     0
1000
MTEXTEND
1000
ACAD_MTEXT_DEFINED_HEIGHT_BEGIN
1070
    46
1040
9.0
1000
ACAD_MTEXT_DEFINED_HEIGHT_END
  0
MTEXT
  5
317
330
AB
100
AcDbEntity
  8
0
100
AcDbMText
 10
78.47796344079569
 20
32.5
 30
0.0
 40
2.0
 41
3.96018220074299
 71
     5
 72
     5
  1
確\P認
 73
     1
 44
1.0
1001
AcDbBlockRepETag
1070
     1
1071
      173
1005
317
1001
ACAD
1000
MTEXTBEGIN
1070
    73
1070
     1
1070
    44
1040
1.0
1070
    74
1070
     0
1000
MTEXTEND
1000
ACAD_MTEXT_DEFINED_HEIGHT_BEGIN
1070
    46
1040
9.0
1000
ACAD_MTEXT_DEFINED_HEIGHT_END
  0
MTEXT
  5
318
330
AB
100
AcDbEntity
  8
0
100
AcDbMText
 10
78.47796344079569
 20
41.5
 30
0.0
 40
2.0
 41
3.96018220074299
 71
     5
 72
     5
  1
縮\P尺
 73
     1
 44
1.0
1001
AcDbBlockRepETag
1070
     1
1071
      174
1005
318
1001
ACAD
1000
MTEXTBEGIN
1070
    73
1070
     1
1070
    44
1040
1.0
1070
    74
1070
     0
1000
MTEXTEND
1000
ACAD_MTEXT_DEFINED_HEIGHT_BEGIN
1070
    46
1040
9.0
1000
ACAD_MTEXT_DEFINED_HEIGHT_END
  0
LINE
  5
319
330
AB
100
AcDbEntity
  8
0
100
AcDbLine
 10
95.49787234042415
 20
19.0
 30
0.0
 11
95.49787234042415
 21
46.0
 31
0.0
1001
AcDbBlockRepETag
1070
     1
1071
      175
1005
319
  0
LINE
  5
31A
330
AB
100
AcDbEntity
  8
0
100
AcDbLine
 10
115.4978723404242
 20
19.0
 30
0.0
 11
115.4978723404242
 21
46.0
 31
0.0
1001
AcDbBlockRepETag
1070
     1
1071
      176
1005
31A
  0
LINE
  5
31B
330
AB
100
AcDbEntity
  8
0
100
AcDbLine
 10
147.4978723404241
 20
37.0
 30
0.0
 11
147.4978723404241
 21
46.0
 31
0.0
1001
AcDbBlockRepETag
1070
     1
1071
      194
1005
31B
  0
MTEXT
  5
31C
330
AB
100
AcDbEntity
  8
0
100
AcDbMText
 10
98.47796344079569
 20
32.5
 30
0.0
 40
2.0
 41
3.96018220074299
 71
     5
 72
     5
  1
設\P計
 73
     1
 44
1.0
1001
AcDbBlockRepETag
1070
     1
1071
      177
1005
31C
1001
ACAD
1000
MTEXTBEGIN
1070
    73
1070
     1
1070
    44
1040
1.0
1070
    74
1070
     0
1000
MTEXTEND
1000
ACAD_MTEXT_DEFINED_HEIGHT_BEGIN
1070
    46
1040
9.0
1000
ACAD_MTEXT_DEFINED_HEIGHT_END
  0
MTEXT
  5
31D
330
AB
100
AcDbEntity
  8
0
100
AcDbMText
 10
98.47796344079569
 20
23.5
 30
0.0
 40
2.0
 41
3.96018220074299
 71
     5
 72
     5
  1
製\P図
 73
     1
 44
1.0
1001
AcDbBlockRepETag
1070
     1
1071
      178
1005
31D
1001
ACAD
1000
MTEXTBEGIN
1070
    73
1070
     1
1070
    44
1040
1.0
1070
    74
1070
     0
1000
MTEXTEND
1000
ACAD_MTEXT_DEFINED_HEIGHT_BEGIN
1070
    46
1040
9.0
1000
ACAD_MTEXT_DEFINED_HEIGHT_END
  0
MTEXT
  5
31E
330
AB
100
AcDbEntity
  8
0
100
AcDbMText
 10
118.4779634407957
 20
41.5
 30
0.0
 40
2.0
 41
3.96018220074299
 71
     5
 72
     5
  1
材\P料
 73
     1
 44
1.0
1001
AcDbBlockRepETag
1070
     1
1071
      179
1005
31E
1001
ACAD
1000
MTEXTBEGIN
1070
    73
1070
     1
1070
    44
1040
1.0
1070
    74
1070
     0
1000
MTEXTEND
1000
ACAD_MTEXT_DEFINED_HEIGHT_BEGIN
1070
    46
1040
9.0
1000
ACAD_MTEXT_DEFINED_HEIGHT_END
  0
LINE
  5
31F
330
AB
100
AcDbEntity
  8
0
  6
HIDDEN2
 48
0.5
100
AcDbLine
 10
192.4978723404242
 20
32.5
 30
0.0
 11
115.4978723404242
 21
32.5
 31
0.0
1001
AcDbBlockRepETag
1070
     1
1071
      180
1005
31F
  0
POINT
  5
320
330
AB
100
AcDbEntity
  8
0
100
AcDbPoint
 10
101.2478723404242
 20
37.0
 30
0.0
1001
AcDbBlockRepETag
1070
     1
1071
      189
1005
320
  0
POINT
  5
321
330
AB
100
AcDbEntity
  8
0
100
AcDbPoint
 10
101.2478723404242
 20
28.0
 30
0.0
1001
AcDbBlockRepETag
1070
     1
1071
      190
1005
321
  0
MTEXT
  5
322
330
AB
100
AcDbEntity
  8
0
100
AcDbMText
 10
108.3728723404242
 20
23.5
 30
0.0
 40
3.0
 41
14.25
 71
     5
 72
     5
  1
齊藤
 73
     1
 44
1.0
1001
AcDbBlockRepETag
1070
     1
1071
      192
1005
322
1001
ACAD
1000
MTEXTBEGIN
1070
    73
1070
     1
1070
    44
1040
1.0
1070
    74
1070
     0
1000
MTEXTEND
1000
ACAD_MTEXT_DEFINED_HEIGHT_BEGIN
1070
    46
1040
9.0
1000
ACAD_MTEXT_DEFINED_HEIGHT_END
  0
TEXT
  5
323
330
AB
100
AcDbEntity
  8
0
100
AcDbText
 10
38.45238095238097
 20
6.230338100985591
 30
0.0
 40
3.0
  1
1
  7
Roman
 72
     1
 11
39.66666666666668
 21
6.230338100985591
 31
0.0
100
AcDbText
1001
AcDbBlockRepETag
1070
     1
1071
       45
1005
323
  0
TEXT
  5
324
330
AB
100
AcDbEntity
  8
0
100
AcDbText
 10
81.90476190476188
 20
6.230338100985591
 30
0.0
 40
3.0
  1
2
  7
Roman
 72
     1
 11
83.33333333333332
 21
6.230338100985591
 31
0.0
100
AcDbText
1001
AcDbBlockRepETag
1070
     1
1071
       46
1005
324
  0
TEXT
  5
325
330
AB
100
AcDbEntity
  8
0
100
AcDbText
 10
125.5714285714286
 20
6.230338100985591
 30
0.0
 40
3.0
  1
3
  7
Roman
 72
     1
 11
127.0
 21
6.230338100985591
 31
0.0
100
AcDbText
1001
AcDbBlockRepETag
1070
     1
1071
       47
1005
325
  0
TEXT
  5
326
330
AB
100
AcDbEntity
  8
0
100
AcDbText
 10
169.1666666666667
 20
6.230338100985591
 30
0.0
 40
3.0
  1
4
  7
Roman
 72
     1
 11
170.6666666666667
 21
6.230338100985591
 31
0.0
100
AcDbText
1001
AcDbBlockRepETag
1070
     1
1071
       48
1005
326
  0
TEXT
  5
327
330
AB
100
AcDbEntity
  8
0
100
AcDbText
 10
193.2387724536951
 20
33.75
 30
0.0
 40
3.0
  1
F
  7
Roman
 72
     1
 11
194.7387724536952
 21
33.75
 31
0.0
100
AcDbText
1001
AcDbBlockRepETag
1070
     1
1071
       49
1005
327
  0
TEXT
  5
328
330
AB
100
AcDbEntity
  8
0
100
AcDbText
 10
193.2387724536951
 20
81.25
 30
0.0
 40
3.0
  1
E
  7
Roman
 72
     1
 11
194.7387724536952
 21
81.25
 31
0.0
100
AcDbText
1001
AcDbBlockRepETag
1070
     1
1071
       50
1005
328
  0
TEXT
  5
329
330
AB
100
AcDbEntity
  8
0
100
AcDbText
 10
193.1673438822666
 20
221.0833333333333
 30
0.0
 40
3.0
  1
B
  7
Roman
 72
     1
 11
194.7387724536952
 21
221.0833333333333
 31
0.0
100
AcDbText
1001
AcDbBlockRepETag
1070
     1
1071
       51
1005
329
  0
TEXT
  5
32A
330
AB
100
AcDbEntity
  8
0
100
AcDbText
 10
193.4530581679809
 20
268.5833333333333
 30
0.0
 40
3.0
  1
A
  7
Roman
 72
     1
 11
194.7387724536952
 21
268.5833333333333
 31
0.0
100
AcDbText
1001
AcDbBlockRepETag
1070
     1
1071
       52
1005
32A
  0
LINE
  5
32B
330
AB
100
AcDbEntity
  8
0
100
AcDbLine
 10
75.49787234042418
 20
10.0
 30
0.0
 11
75.49787234042418
 21
46.0
 31
0.0
1001
AcDbBlockRepETag
1070
     1
1071
      162
1005
32B
  0
LINE
  5
32C
330
AB
100
AcDbEntity
  8
0
100
AcDbLine
 10
126.4978723404242
 20
10.0
 30
0.0
 11
126.4978723404242
 21
19.0
 31
0.0
1001
AcDbBlockRepETag
1070
     1
1071
      167
1005
32C
  0
TEXT
  5
32D
330
AB
100
AcDbEntity
  8
0
100
AcDbText
 10
193.1673438822666
 20
126.0833333333333
 30
0.0
 40
3.0
  1
D
  7
Roman
 72
     1
 11
194.7387724536952
 21
126.0833333333333
 31
0.0
100
AcDbText
1001
AcDbBlockRepETag
1070
     1
1071
       54
1005
32D
  0
TEXT
  5
32E
330
AB
100
AcDbEntity
  8
0
100
AcDbText
 10
193.2387724536951
 20
173.5833333333333
 30
0.0
 40
3.0
  1
C
  7
Roman
 72
     1
 11
194.7387724536952
 21
173.5833333333333
 31
0.0
100
AcDbText
1001
AcDbBlockRepETag
1070
     1
1071
       53
1005
32E
  0
ENDBLK
  5
117
330
AB
100
AcDbEntity
  8
0
100
AcDbBlockEnd
  0
BLOCK
  5
340
330
33F
100
AcDbEntity
  8
0
100
AcDbBlockBegin
  2
_Open30
 70
     0
 10
0.0
 20
0.0
 30
0.0
  3
_Open30
  1

  0
LINE
  5
341
330
33F
100
AcDbEntity
  8
0
  6
ByBlock
 62
     0
370
    -2
100
AcDbLine
 10
-1.0
 20
0.26794919
 30
0.0
 11
0.0
 21
0.0
 31
0.0
  0
LINE
  5
342
330
33F
100
AcDbEntity
  8
0
  6
ByBlock
 62
     0
370
    -2
100
AcDbLine
 10
0.0
 20
0.0
 30
0.0
 11
-1.0
 21
-0.26794919
 31
0.0
  0
LINE
  5
343
330
33F
100
AcDbEntity
  8
0
  6
ByBlock
 62
     0
370
    -2
100
AcDbLine
 10
0.0
 20
0.0
 30
0.0
 11
-1.0
 21
0.0
 31
0.0
  0
ENDBLK
  5
344
330
33F
100
AcDbEntity
  8
0
100
AcDbBlockEnd
  0
BLOCK
  5
4EA
330
4E7
100
AcDbEntity
  8
0
100
AcDbBlockBegin
  2
JIS A3 title block
 70
     2
 10
0.0
 20
0.0
 30
0.0
  3
JIS A3 title block
  1

  4
JIS A3 title block and attributes
  0
LINE
  5
4EB
330
4E7
100
AcDbEntity
  8
0
100
AcDbLine
 10
402.5
 20
10.0
 30
0.0
 11
17.49999999999999
 21
10.0
 31
0.0
1001
AcDbBlockRepETag
1070
     1
1071
        0
1005
4EB
  0
LINE
  5
4EC
330
4E7
100
AcDbEntity
  8
0
100
AcDbLine
 10
17.5
 20
287.0
 30
0.0
 11
402.5
 21
287.0
 31
0.0
1001
AcDbBlockRepETag
1070
     1
1071
        1
1005
4EC
  0
LINE
  5
4ED
330
4E7
100
AcDbEntity
  8
0
100
AcDbLine
 10
25.0
 20
0.0
 30
0.0
 11
0.0
 21
0.0
 31
0.0
1001
AcDbBlockRepETag
1070
     1
1071
        3
1005
4ED
  0
LINE
  5
4EE
330
4E7
100
AcDbEntity
  8
0
100
AcDbLine
 10
0.0
 20
0.0
 30
0.0
 11
0.0
 21
10.0
 31
0.0
1001
AcDbBlockRepETag
1070
     1
1071
        4
1005
4EE
  0
LINE
  5
4EF
330
4E7
100
AcDbEntity
  8
0
100
AcDbLine
 10
65.625
 20
10.0
 30
0.0
 11
65.625
 21
5.0
 31
0.0
1001
AcDbBlockRepETag
1070
     1
1071
        5
1005
4EF
  0
TEXT
  5
4F0
330
4E7
100
AcDbEntity
  8
0
100
AcDbText
 10
40.34821428571429
 20
6.019997240728746
 30
0.0
 40
3.0
  1
1
  7
Roman
 72
     1
 11
41.5625
 21
6.019997240728746
 31
0.0
100
AcDbText
1001
AcDbBlockRepETag
1070
     1
1071
        6
1005
4F0
  0
ATTDEF
  5
4F1
330
4E7
100
AcDbEntity
  8
0
 62
     0
380
     1
100
AcDbText
 10
11.49999999999999
 20
10.0
 30
0.0
 40
3.0
  1

 50
90.0
  7
Roman
100
AcDbAttributeDefinition
  3
Author:
  2
USER
 70
     8
1001
AcDbBlockRepETag
1070
     1
1071
        7
1005
0
  0
TEXT
  5
4F2
330
4E7
100
AcDbEntity
  8
0
100
AcDbText
 10
13.60716135953388
 20
33.08333333333334
 30
0.0
 40
3.0
  1
F
  7
Roman
 72
     1
 11
15.10716135953388
 21
33.08333333333334
 31
0.0
100
AcDbText
1001
AcDbBlockRepETag
1070
     1
1071
        8
1005
4F2
  0
LINE
  5
4F3
330
4E7
100
AcDbEntity
  8
0
100
AcDbLine
 10
17.49999999999999
 20
148.5
 30
0.0
 11
0.0
 21
148.5
 31
0.0
1001
AcDbBlockRepETag
1070
     1
1071
        9
1005
4F3
  0
ATTDEF
  5
4F4
330
4E7
100
AcDbEntity
  8
0
 62
     0
380
     1
100
AcDbText
 10
11.49999999999999
 20
70.0
 30
0.0
 40
3.0
  1

 50
90.0
  7
Roman
100
AcDbAttributeDefinition
  3
Revision date:
  2
REVDATE
 70
     8
1001
AcDbBlockRepETag
1070
     1
1071
       10
1005
0
  0
LINE
  5
4F5
330
4E7
100
AcDbEntity
  8
0
100
AcDbLine
 10
17.49999999999999
 20
56.16666666666667
 30
0.0
 11
12.49999999999999
 21
56.16666666666667
 31
0.0
1001
AcDbBlockRepETag
1070
     1
1071
       11
1005
4F5
  0
TEXT
  5
4F6
330
4E7
100
AcDbEntity
  8
0
100
AcDbText
 10
13.60716135953388
 20
79.25
 30
0.0
 40
3.0
  1
E
  7
Roman
 72
     1
 11
15.10716135953388
 21
79.25
 31
0.0
100
AcDbText
1001
AcDbBlockRepETag
1070
     1
1071
       12
1005
4F6
  0
ATTDEF
  5
4F7
330
4E7
100
AcDbEntity
  8
0
 62
     0
380
     1
100
AcDbText
 10
11.49999999999999
 20
118.0
 30
0.0
 40
3.0
  1

 50
90.0
  7
Roman
100
AcDbAttributeDefinition
  3
File name:
  2
FNAME
 70
     8
1001
AcDbBlockRepETag
1070
     1
1071
       13
1005
0
  0
LINE
  5
4F8
330
4E7
100
AcDbEntity
  8
0
100
AcDbLine
 10
17.49999999999999
 20
102.3333333333333
 30
0.0
 11
12.49999999999999
 21
102.3333333333333
 31
0.0
1001
AcDbBlockRepETag
1070
     1
1071
       14
1005
4F8
  0
TEXT
  5
4F9
330
4E7
100
AcDbEntity
  8
0
100
AcDbText
 10
13.53573278810531
 20
125.4166666666666
 30
0.0
 40
3.0
  1
D
  7
Roman
 72
     1
 11
15.10716135953388
 21
125.4166666666666
 31
0.0
100
AcDbText
1001
AcDbBlockRepETag
1070
     1
1071
       15
1005
4F9
  0
LINE
  5
4FA
330
4E7
100
AcDbEntity
  8
0
100
AcDbLine
 10
17.49999999999999
 20
148.5
 30
0.0
 11
12.49999999999999
 21
148.5
 31
0.0
1001
AcDbBlockRepETag
1070
     1
1071
       16
1005
4FA
  0
TEXT
  5
4FB
330
4E7
100
AcDbEntity
  8
0
100
AcDbText
 10
136.3839285714286
 20
6.019997240728746
 30
0.0
 40
3.0
  1
3
  7
Roman
 72
     1
 11
137.8125
 21
6.019997240728746
 31
0.0
100
AcDbText
1001
AcDbBlockRepETag
1070
     1
1071
       17
1005
4FB
  0
LINE
  5
4FC
330
4E7
100
AcDbEntity
  8
0
100
AcDbLine
 10
113.75
 20
10.0
 30
0.0
 11
113.75
 21
5.0
 31
0.0
1001
AcDbBlockRepETag
1070
     1
1071
       18
1005
4FC
  0
TEXT
  5
4FD
330
4E7
100
AcDbEntity
  8
0
100
AcDbText
 10
88.25892857142857
 20
6.019997240728746
 30
0.0
 40
3.0
  1
2
  7
Roman
 72
     1
 11
89.6875
 21
6.019997240728746
 31
0.0
100
AcDbText
1001
AcDbBlockRepETag
1070
     1
1071
       19
1005
4FD
  0
LINE
  5
4FE
330
4E7
100
AcDbEntity
  8
0
100
AcDbLine
 10
161.875
 20
10.0
 30
0.0
 11
161.875
 21
5.0
 31
0.0
1001
AcDbBlockRepETag
1070
     1
1071
       20
1005
4FE
  0
TEXT
  5
4FF
330
4E7
100
AcDbEntity
  8
0
100
AcDbText
 10
184.4375
 20
6.019997240728746
 30
0.0
 40
3.0
  1
4
  7
Roman
 72
     1
 11
185.9375
 21
6.019997240728746
 31
0.0
100
AcDbText
1001
AcDbBlockRepETag
1070
     1
1071
       21
1005
4FF
  0
TEXT
  5
500
330
4E7
100
AcDbEntity
  8
0
100
AcDbText
 10
13.60716135953388
 20
171.5833333333333
 30
0.0
 40
3.0
  1
C
  7
Roman
 72
     1
 11
15.10716135953388
 21
171.5833333333333
 31
0.0
100
AcDbText
1001
AcDbBlockRepETag
1070
     1
1071
       22
1005
500
  0
LINE
  5
501
330
4E7
100
AcDbEntity
  8
0
100
AcDbLine
 10
17.49999999999999
 20
194.6666666666666
 30
0.0
 11
12.49999999999999
 21
194.6666666666666
 31
0.0
1001
AcDbBlockRepETag
1070
     1
1071
       23
1005
501
  0
TEXT
  5
502
330
4E7
100
AcDbEntity
  8
0
100
AcDbText
 10
13.53573278810531
 20
217.75
 30
0.0
 40
3.0
  1
B
  7
Roman
 72
     1
 11
15.10716135953388
 21
217.75
 31
0.0
100
AcDbText
1001
AcDbBlockRepETag
1070
     1
1071
       24
1005
502
  0
LINE
  5
503
330
4E7
100
AcDbEntity
  8
0
100
AcDbLine
 10
17.49999999999999
 20
240.8333333333333
 30
0.0
 11
12.49999999999999
 21
240.8333333333333
 31
0.0
1001
AcDbBlockRepETag
1070
     1
1071
       25
1005
503
  0
LINE
  5
504
330
4E7
100
AcDbEntity
  8
0
100
AcDbLine
 10
0.0
 20
297.0
 30
0.0
 11
25.0
 21
297.0
 31
0.0
1001
AcDbBlockRepETag
1070
     1
1071
       26
1005
504
  0
LINE
  5
505
330
4E7
100
AcDbEntity
  8
0
100
AcDbLine
 10
0.0
 20
287.0
 30
0.0
 11
0.0
 21
297.0
 31
0.0
1001
AcDbBlockRepETag
1070
     1
1071
       27
1005
505
  0
LINE
  5
506
330
4E7
100
AcDbEntity
  8
0
100
AcDbLine
 10
65.625
 20
287.0
 30
0.0
 11
65.625
 21
292.0
 31
0.0
1001
AcDbBlockRepETag
1070
     1
1071
       28
1005
506
  0
TEXT
  5
507
330
4E7
100
AcDbEntity
  8
0
100
AcDbText
 10
13.82144707381959
 20
263.9166666666666
 30
0.0
 40
3.0
  1
A
  7
Roman
 72
     1
 11
15.10716135953388
 21
263.9166666666666
 31
0.0
100
AcDbText
1001
AcDbBlockRepETag
1070
     1
1071
       29
1005
507
  0
TEXT
  5
508
330
4E7
100
AcDbEntity
  8
0
100
AcDbText
 10
40.34821428571429
 20
288.0
 30
0.0
 40
3.0
  1
1
  7
Roman
 72
     1
 11
41.5625
 21
288.0
 31
0.0
100
AcDbText
1001
AcDbBlockRepETag
1070
     1
1071
       30
1005
508
  0
TEXT
  5
509
330
4E7
100
AcDbEntity
  8
0
100
AcDbText
 10
136.3839285714286
 20
288.0
 30
0.0
 40
3.0
  1
3
  7
Roman
 72
     1
 11
137.8125
 21
288.0
 31
0.0
100
AcDbText
1001
AcDbBlockRepETag
1070
     1
1071
       31
1005
509
  0
LINE
  5
50A
330
4E7
100
AcDbEntity
  8
0
100
AcDbLine
 10
113.75
 20
287.0
 30
0.0
 11
113.75
 21
292.0
 31
0.0
1001
AcDbBlockRepETag
1070
     1
1071
       32
1005
50A
  0
TEXT
  5
50B
330
4E7
100
AcDbEntity
  8
0
100
AcDbText
 10
88.25892857142857
 20
288.0
 30
0.0
 40
3.0
  1
2
  7
Roman
 72
     1
 11
89.6875
 21
288.0
 31
0.0
100
AcDbText
1001
AcDbBlockRepETag
1070
     1
1071
       33
1005
50B
  0
LINE
  5
50C
330
4E7
100
AcDbEntity
  8
0
100
AcDbLine
 10
161.875
 20
287.0
 30
0.0
 11
161.875
 21
292.0
 31
0.0
1001
AcDbBlockRepETag
1070
     1
1071
       34
1005
50C
  0
TEXT
  5
50D
330
4E7
100
AcDbEntity
  8
0
100
AcDbText
 10
184.4375
 20
288.0
 30
0.0
 40
3.0
  1
4
  7
Roman
 72
     1
 11
185.9375
 21
288.0
 31
0.0
100
AcDbText
1001
AcDbBlockRepETag
1070
     1
1071
       35
1005
50D
  0
LINE
  5
50E
330
4E7
100
AcDbEntity
  8
0
100
AcDbLine
 10
402.5
 20
287.0
 30
0.0
 11
402.5
 21
10.0
 31
0.0
1001
AcDbBlockRepETag
1070
     1
1071
       36
1005
50E
  0
LINE
  5
50F
330
4E7
100
AcDbEntity
  8
0
100
AcDbLine
 10
210.0
 20
10.0
 30
0.0
 11
210.0
 21
0.0
 31
0.0
1001
AcDbBlockRepETag
1070
     1
1071
       37
1005
50F
  0
LINE
  5
510
330
4E7
100
AcDbEntity
  8
0
100
AcDbLine
 10
258.125
 20
10.0
 30
0.0
 11
258.125
 21
5.0
 31
0.0
1001
AcDbBlockRepETag
1070
     1
1071
       39
1005
510
  0
TEXT
  5
511
330
4E7
100
AcDbEntity
  8
0
100
AcDbText
 10
232.6339285714286
 20
6.019997240728746
 30
0.0
 40
3.0
  1
5
  7
Roman
 72
     1
 11
234.0625
 21
6.019997240728746
 31
0.0
100
AcDbText
1001
AcDbBlockRepETag
1070
     1
1071
       40
1005
511
  0
LINE
  5
512
330
4E7
100
AcDbEntity
  8
0
100
AcDbLine
 10
306.25
 20
10.0
 30
0.0
 11
306.25
 21
5.0
 31
0.0
1001
AcDbBlockRepETag
1070
     1
1071
       41
1005
512
  0
TEXT
  5
513
330
4E7
100
AcDbEntity
  8
0
100
AcDbText
 10
280.6875
 20
6.019997240728746
 30
0.0
 40
3.0
  1
6
  7
Roman
 72
     1
 11
282.1875
 21
6.019997240728746
 31
0.0
100
AcDbText
1001
AcDbBlockRepETag
1070
     1
1071
       42
1005
513
  0
TEXT
  5
514
330
4E7
100
AcDbEntity
  8
0
100
AcDbText
 10
328.8839285714285
 20
6.019997240728746
 30
0.0
 40
3.0
  1
7
  7
Roman
 72
     1
 11
330.3125
 21
6.019997240728746
 31
0.0
100
AcDbText
1001
AcDbBlockRepETag
1070
     1
1071
       43
1005
514
  0
LINE
  5
515
330
4E7
100
AcDbEntity
  8
0
100
AcDbLine
 10
354.375
 20
10.0
 30
0.0
 11
354.375
 21
5.0
 31
0.0
1001
AcDbBlockRepETag
1070
     1
1071
       44
1005
515
  0
TEXT
  5
516
330
4E7
100
AcDbEntity
  8
0
100
AcDbText
 10
377.0089285714286
 20
6.019997240728746
 30
0.0
 40
3.0
  1
8
  7
Roman
 72
     1
 11
378.4375
 21
6.019997240728746
 31
0.0
100
AcDbText
1001
AcDbBlockRepETag
1070
     1
1071
       45
1005
516
  0
LINE
  5
517
330
4E7
100
AcDbEntity
  8
0
100
AcDbLine
 10
420.0
 20
10.0
 30
0.0
 11
420.0
 21
0.0
 31
0.0
1001
AcDbBlockRepETag
1070
     1
1071
       46
1005
517
  0
LINE
  5
518
330
4E7
100
AcDbEntity
  8
0
100
AcDbLine
 10
420.0
 20
0.0
 30
0.0
 11
410.0
 21
0.0
 31
0.0
1001
AcDbBlockRepETag
1070
     1
1071
       47
1005
518
  0
LINE
  5
519
330
4E7
100
AcDbEntity
  8
0
 62
     0
380
     1
100
AcDbLine
 10
402.5
 20
49.00000000000036
 30
0.0
 11
402.5
 21
10.0
 31
0.0
1001
AcDbBlockRepETag
1070
     1
1071
       48
1005
519
  0
LINE
  5
51A
330
4E7
100
AcDbEntity
  8
0
 62
     0
380
     1
100
AcDbLine
 10
402.5
 20
10.0
 30
0.0
 11
402.5
 21
49.00000000000036
 31
0.0
1001
AcDbBlockRepETag
1070
     1
1071
       49
1005
51A
  0
TEXT
  5
51B
330
4E7
100
AcDbEntity
  8
0
100
AcDbText
 10
403.8708251683468
 20
33.08333333333334
 30
0.0
 40
3.0
  1
F
  7
Roman
 72
     1
 11
405.3708251683468
 21
33.08333333333334
 31
0.0
100
AcDbText
1001
AcDbBlockRepETag
1070
     1
1071
       50
1005
51B
  0
LINE
  5
51C
330
4E7
100
AcDbEntity
  8
0
100
AcDbLine
 10
402.5
 20
56.16666666666668
 30
0.0
 11
407.5
 21
56.16666666666668
 31
0.0
1001
AcDbBlockRepETag
1070
     1
1071
       51
1005
51C
  0
TEXT
  5
51D
330
4E7
100
AcDbEntity
  8
0
100
AcDbText
 10
403.8708251683468
 20
79.25
 30
0.0
 40
3.0
  1
E
  7
Roman
 72
     1
 11
405.3708251683468
 21
79.25
 31
0.0
100
AcDbText
1001
AcDbBlockRepETag
1070
     1
1071
       52
1005
51D
  0
LINE
  5
51E
330
4E7
100
AcDbEntity
  8
0
100
AcDbLine
 10
402.5
 20
102.3333333333333
 30
0.0
 11
407.5
 21
102.3333333333333
 31
0.0
1001
AcDbBlockRepETag
1070
     1
1071
       53
1005
51E
  0
TEXT
  5
51F
330
4E7
100
AcDbEntity
  8
0
100
AcDbText
 10
403.7993965969183
 20
125.4166666666666
 30
0.0
 40
3.0
  1
D
  7
Roman
 72
     1
 11
405.3708251683468
 21
125.4166666666666
 31
0.0
100
AcDbText
1001
AcDbBlockRepETag
1070
     1
1071
       54
1005
51F
  0
LINE
  5
520
330
4E7
100
AcDbEntity
  8
0
100
AcDbLine
 10
402.5
 20
148.5
 30
0.0
 11
420.0
 21
148.5
 31
0.0
1001
AcDbBlockRepETag
1070
     1
1071
       56
1005
520
  0
LINE
  5
521
330
4E7
100
AcDbEntity
  8
0
100
AcDbLine
 10
210.0
 20
287.0
 30
0.0
 11
210.0
 21
297.0
 31
0.0
1001
AcDbBlockRepETag
1070
     1
1071
       57
1005
521
  0
LINE
  5
522
330
4E7
100
AcDbEntity
  8
0
100
AcDbLine
 10
258.125
 20
287.0
 30
0.0
 11
258.125
 21
292.0
 31
0.0
1001
AcDbBlockRepETag
1070
     1
1071
       58
1005
522
  0
LINE
  5
523
330
4E7
100
AcDbEntity
  8
0
100
AcDbLine
 10
210.0
 20
287.0
 30
0.0
 11
210.0
 21
292.0
 31
0.0
1001
AcDbBlockRepETag
1070
     1
1071
       59
1005
523
  0
TEXT
  5
524
330
4E7
100
AcDbEntity
  8
0
100
AcDbText
 10
232.6339285714286
 20
288.0
 30
0.0
 40
3.0
  1
5
  7
Roman
 72
     1
 11
234.0625
 21
288.0
 31
0.0
100
AcDbText
1001
AcDbBlockRepETag
1070
     1
1071
       60
1005
524
  0
LINE
  5
525
330
4E7
100
AcDbEntity
  8
0
100
AcDbLine
 10
306.25
 20
287.0
 30
0.0
 11
306.25
 21
292.0
 31
0.0
1001
AcDbBlockRepETag
1070
     1
1071
       61
1005
525
  0
TEXT
  5
526
330
4E7
100
AcDbEntity
  8
0
100
AcDbText
 10
280.6875
 20
288.0
 30
0.0
 40
3.0
  1
6
  7
Roman
 72
     1
 11
282.1875
 21
288.0
 31
0.0
100
AcDbText
1001
AcDbBlockRepETag
1070
     1
1071
       62
1005
526
  0
TEXT
  5
527
330
4E7
100
AcDbEntity
  8
0
100
AcDbText
 10
328.8839285714285
 20
288.0
 30
0.0
 40
3.0
  1
7
  7
Roman
 72
     1
 11
330.3125
 21
288.0
 31
0.0
100
AcDbText
1001
AcDbBlockRepETag
1070
     1
1071
       63
1005
527
  0
TEXT
  5
528
330
4E7
100
AcDbEntity
  8
0
100
AcDbText
 10
403.8708251683468
 20
171.5833333333333
 30
0.0
 40
3.0
  1
C
  7
Roman
 72
     1
 11
405.3708251683468
 21
171.5833333333333
 31
0.0
100
AcDbText
1001
AcDbBlockRepETag
1070
     1
1071
       64
1005
528
  0
LINE
  5
529
330
4E7
100
AcDbEntity
  8
0
100
AcDbLine
 10
402.5
 20
194.6666666666667
 30
0.0
 11
407.5
 21
194.6666666666667
 31
0.0
1001
AcDbBlockRepETag
1070
     1
1071
       65
1005
529
  0
TEXT
  5
52A
330
4E7
100
AcDbEntity
  8
0
100
AcDbText
 10
403.7993965969183
 20
217.75
 30
0.0
 40
3.0
  1
B
  7
Roman
 72
     1
 11
405.3708251683468
 21
217.75
 31
0.0
100
AcDbText
1001
AcDbBlockRepETag
1070
     1
1071
       66
1005
52A
  0
LINE
  5
52B
330
4E7
100
AcDbEntity
  8
0
100
AcDbLine
 10
402.5
 20
240.8333333333334
 30
0.0
 11
407.5
 21
240.8333333333334
 31
0.0
1001
AcDbBlockRepETag
1070
     1
1071
       67
1005
52B
  0
LINE
  5
52C
330
4E7
100
AcDbEntity
  8
0
100
AcDbLine
 10
354.375
 20
287.0
 30
0.0
 11
354.375
 21
292.0
 31
0.0
1001
AcDbBlockRepETag
1070
     1
1071
       68
1005
52C
  0
TEXT
  5
52D
330
4E7
100
AcDbEntity
  8
0
100
AcDbText
 10
377.0089285714286
 20
288.0
 30
0.0
 40
3.0
  1
8
  7
Roman
 72
     1
 11
378.4375
 21
288.0
 31
0.0
100
AcDbText
1001
AcDbBlockRepETag
1070
     1
1071
       69
1005
52D
  0
LINE
  5
52E
330
4E7
100
AcDbEntity
  8
0
100
AcDbLine
 10
420.0
 20
297.0
 30
0.0
 11
420.0
 21
287.0
 31
0.0
1001
AcDbBlockRepETag
1070
     1
1071
       70
1005
52E
  0
TEXT
  5
52F
330
4E7
100
AcDbEntity
  8
0
100
AcDbText
 10
404.0851108826325
 20
263.9166666666666
 30
0.0
 40
3.0
  1
A
  7
Roman
 72
     1
 11
405.3708251683468
 21
263.9166666666666
 31
0.0
100
AcDbText
1001
AcDbBlockRepETag
1070
     1
1071
       71
1005
52F
  0
LINE
  5
530
330
4E7
100
AcDbEntity
  8
0
100
AcDbLine
 10
410.0
 20
297.0
 30
0.0
 11
420.0
 21
297.0
 31
0.0
1001
AcDbBlockRepETag
1070
     1
1071
       72
1005
530
  0
LINE
  5
531
330
4E7
100
AcDbEntity
  8
0
100
AcDbLine
 10
286.4978723404242
 20
10.0
 30
0.0
 11
286.4978723404242
 21
10.0
 31
0.0
1001
AcDbBlockRepETag
1070
     1
1071
      161
1005
531
  0
LINE
  5
532
330
4E7
100
AcDbEntity
  8
0
100
AcDbLine
 10
285.4978723404242
 20
10.0
 30
0.0
 11
285.4978723404242
 21
46.0
 31
0.0
1001
AcDbBlockRepETag
1070
     1
1071
      162
1005
532
  0
LINE
  5
533
330
4E7
100
AcDbEntity
  8
0
100
AcDbLine
 10
402.4978723404242
 20
19.0
 30
0.0
 11
285.4978723404242
 21
19.0
 31
0.0
1001
AcDbBlockRepETag
1070
     1
1071
      166
1005
533
  0
LINE
  5
534
330
4E7
100
AcDbEntity
  8
0
100
AcDbLine
 10
336.4978723404242
 20
10.0
 30
0.0
 11
336.4978723404242
 21
19.0
 31
0.0
1001
AcDbBlockRepETag
1070
     1
1071
      167
1005
534
  0
LINE
  5
535
330
4E7
100
AcDbEntity
  8
0
100
AcDbLine
 10
325.4978723404242
 20
28.0
 30
0.0
 11
285.4978723404242
 21
28.0
 31
0.0
1001
AcDbBlockRepETag
1070
     1
1071
      168
1005
535
  0
LINE
  5
536
330
4E7
100
AcDbEntity
  8
0
100
AcDbLine
 10
402.4978723404242
 20
37.0
 30
0.0
 11
285.4978723404242
 21
37.0
 31
0.0
1001
AcDbBlockRepETag
1070
     1
1071
      169
1005
536
  0
LINE
  5
537
330
4E7
100
AcDbEntity
  8
0
100
AcDbLine
 10
402.4978723404242
 20
46.0
 30
0.0
 11
285.4978723404242
 21
46.0
 31
0.0
1001
AcDbBlockRepETag
1070
     1
1071
      170
1005
537
  0
MTEXT
  5
538
330
4E7
100
AcDbEntity
  8
0
100
AcDbMText
 10
310.9978723404242
 20
14.5
 30
0.0
 40
4.0
 41
51.0
 71
     5
 72
     5
  1
富国石油株式会社
 73
     1
 44
1.0
1001
AcDbBlockRepETag
1070
     1
1071
      171
1005
538
1001
ACAD
1000
MTEXTBEGIN
1070
    73
1070
     1
1070
    44
1040
1.0
1070
    74
1070
     0
1000
MTEXTEND
  0
MTEXT
  5
539
102
{ACAD_XDICTIONARY
360
6FDC
102
}
330
4E7
100
AcDbEntity
  8
0
100
AcDbMText
 10
288.4779634407957
 20
23.5
 30
0.0
 40
2.0
 41
3.96018220074299
 71
     5
 72
     5
  1
検\P図
 73
     1
 44
1.0
1001
AcDbBlockRepETag
1070
     1
1071
      172
1005
539
1001
ACAD
1000
MTEXTBEGIN
1070
    73
1070
     1
1070
    44
1040
1.0
1070
    74
1070
     0
1000
MTEXTEND
1000
ACAD_MTEXT_DEFINED_HEIGHT_BEGIN
1070
    46
1040
9.0
1000
ACAD_MTEXT_DEFINED_HEIGHT_END
  0
MTEXT
  5
53A
330
4E7
100
AcDbEntity
  8
0
100
AcDbMText
 10
288.4779634407957
 20
32.5
 30
0.0
 40
2.0
 41
3.96018220074299
 71
     5
 72
     5
  1
確\P認
 73
     1
 44
1.0
1001
AcDbBlockRepETag
1070
     1
1071
      173
1005
53A
1001
ACAD
1000
MTEXTBEGIN
1070
    73
1070
     1
1070
    44
1040
1.0
1070
    74
1070
     0
1000
MTEXTEND
1000
ACAD_MTEXT_DEFINED_HEIGHT_BEGIN
1070
    46
1040
9.0
1000
ACAD_MTEXT_DEFINED_HEIGHT_END
  0
MTEXT
  5
53B
330
4E7
100
AcDbEntity
  8
0
100
AcDbMText
 10
288.4779634407957
 20
41.5
 30
0.0
 40
2.0
 41
3.96018220074299
 71
     5
 72
     5
  1
縮\P尺
 73
     1
 44
1.0
1001
AcDbBlockRepETag
1070
     1
1071
      174
1005
53B
1001
ACAD
1000
MTEXTBEGIN
1070
    73
1070
     1
1070
    44
1040
1.0
1070
    74
1070
     0
1000
MTEXTEND
1000
ACAD_MTEXT_DEFINED_HEIGHT_BEGIN
1070
    46
1040
9.0
1000
ACAD_MTEXT_DEFINED_HEIGHT_END
  0
LINE
  5
53C
330
4E7
100
AcDbEntity
  8
0
100
AcDbLine
 10
305.4978723404242
 20
19.0
 30
0.0
 11
305.4978723404242
 21
46.0
 31
0.0
1001
AcDbBlockRepETag
1070
     1
1071
      175
1005
53C
  0
LINE
  5
53D
330
4E7
100
AcDbEntity
  8
0
100
AcDbLine
 10
325.4978723404242
 20
19.0
 30
0.0
 11
325.4978723404242
 21
46.0
 31
0.0
1001
AcDbBlockRepETag
1070
     1
1071
      176
1005
53D
  0
LINE
  5
53E
330
4E7
100
AcDbEntity
  8
0
100
AcDbLine
 10
357.4978723404242
 20
37.0
 30
0.0
 11
357.4978723404242
 21
46.0
 31
0.0
1001
AcDbBlockRepETag
1070
     1
1071
      194
1005
53E
  0
MTEXT
  5
53F
330
4E7
100
AcDbEntity
  8
0
100
AcDbMText
 10
308.4779634407957
 20
32.5
 30
0.0
 40
2.0
 41
3.96018220074299
 71
     5
 72
     5
  1
設\P計
 73
     1
 44
1.0
1001
AcDbBlockRepETag
1070
     1
1071
      177
1005
53F
1001
ACAD
1000
MTEXTBEGIN
1070
    73
1070
     1
1070
    44
1040
1.0
1070
    74
1070
     0
1000
MTEXTEND
1000
ACAD_MTEXT_DEFINED_HEIGHT_BEGIN
1070
    46
1040
9.0
1000
ACAD_MTEXT_DEFINED_HEIGHT_END
  0
MTEXT
  5
540
330
4E7
100
AcDbEntity
  8
0
100
AcDbMText
 10
308.4779634407957
 20
23.5
 30
0.0
 40
2.0
 41
3.96018220074299
 71
     5
 72
     5
  1
製\P図
 73
     1
 44
1.0
1001
AcDbBlockRepETag
1070
     1
1071
      178
1005
540
1001
ACAD
1000
MTEXTBEGIN
1070
    73
1070
     1
1070
    44
1040
1.0
1070
    74
1070
     0
1000
MTEXTEND
1000
ACAD_MTEXT_DEFINED_HEIGHT_BEGIN
1070
    46
1040
9.0
1000
ACAD_MTEXT_DEFINED_HEIGHT_END
  0
MTEXT
  5
541
330
4E7
100
AcDbEntity
  8
0
100
AcDbMText
 10
328.4779634407957
 20
41.5
 30
0.0
 40
2.0
 41
3.96018220074299
 71
     5
 72
     5
  1
材\P料
 73
     1
 44
1.0
1001
AcDbBlockRepETag
1070
     1
1071
      179
1005
541
1001
ACAD
1000
MTEXTBEGIN
1070
    73
1070
     1
1070
    44
1040
1.0
1070
    74
1070
     0
1000
MTEXTEND
1000
ACAD_MTEXT_DEFINED_HEIGHT_BEGIN
1070
    46
1040
9.0
1000
ACAD_MTEXT_DEFINED_HEIGHT_END
  0
LINE
  5
542
330
4E7
100
AcDbEntity
  8
0
  6
HIDDEN2
 48
0.5
100
AcDbLine
 10
402.4978723404242
 20
32.5
 30
0.0
 11
325.4978723404242
 21
32.5
 31
0.0
1001
AcDbBlockRepETag
1070
     1
1071
      180
1005
542
  0
POINT
  5
543
330
4E7
100
AcDbEntity
  8
0
100
AcDbPoint
 10
311.2478723404242
 20
37.0
 30
0.0
1001
AcDbBlockRepETag
1070
     1
1071
      189
1005
543
  0
POINT
  5
544
330
4E7
100
AcDbEntity
  8
0
100
AcDbPoint
 10
311.2478723404242
 20
28.0
 30
0.0
1001
AcDbBlockRepETag
1070
     1
1071
      190
1005
544
  0
LINE
  5
545
330
4E7
100
AcDbEntity
  8
0
100
AcDbLine
 10
17.5
 20
10.0
 30
0.0
 11
17.5
 21
287.0
 31
0.0
1001
AcDbBlockRepETag
1070
     1
1071
       74
1005
545
  0
ENDBLK
  5
546
330
4E7
100
AcDbEntity
  8
0
100
AcDbBlockEnd
  0
BLOCK
  5
6F0
330
6ED
100
AcDbEntity
  8
0
100
AcDbBlockBegin
  2
JIS A4 title block (landscape)
 70
     2
 10
0.0
 20
0.0
 30
0.0
  3
JIS A4 title block (landscape)
  1

  4
JIS A3 title block and attributes
  0
LINE
  5
92E
330
6ED
100
AcDbEntity
  8
0
100
AcDbLine
 10
0.0
 20
297.0
 30
0.0
 11
25.0
 21
297.0
 31
0.0
1001
AcDbBlockRepETag
1070
     1
1071
       26
1005
92E
  0
LINE
  5
92F
330
6ED
100
AcDbEntity
  8
0
100
AcDbLine
 10
0.0
 20
287.0
 30
0.0
 11
0.0
 21
297.0
 31
0.0
1001
AcDbBlockRepETag
1070
     1
1071
       27
1005
92F
  0
LINE
  5
989
330
6ED
100
AcDbEntity
  8
0
100
AcDbLine
 10
279.5
 20
97.0
 30
0.0
 11
17.5
 21
97.0
 31
0.0
1001
AcDbBlockRepETag
1070
     1
1071
        0
1005
989
  0
LINE
  5
98A
330
6ED
100
AcDbEntity
  8
0
100
AcDbLine
 10
17.5
 20
287.0
 30
0.0
 11
279.5
 21
287.0
 31
0.0
1001
AcDbBlockRepETag
1070
     1
1071
        1
1005
98A
  0
LINE
  5
98B
330
6ED
100
AcDbEntity
  8
0
100
AcDbLine
 10
17.5
 20
97.0
 30
0.0
 11
17.5
 21
287.0
 31
0.0
1001
AcDbBlockRepETag
1070
     1
1071
        2
1005
98B
  0
LINE
  5
98C
330
6ED
100
AcDbEntity
  8
0
100
AcDbLine
 10
25.0
 20
87.0
 30
0.0
 11
0.0
 21
87.0
 31
0.0
1001
AcDbBlockRepETag
1070
     1
1071
        3
1005
98C
  0
LINE
  5
98D
330
6ED
100
AcDbEntity
  8
0
100
AcDbLine
 10
0.0
 20
87.0
 30
0.0
 11
0.0
 21
97.0
 31
0.0
1001
AcDbBlockRepETag
1070
     1
1071
        4
1005
98D
  0
LINE
  5
98E
330
6ED
100
AcDbEntity
  8
0
100
AcDbLine
 10
61.16666666666668
 20
97.0
 30
0.0
 11
61.16666666666668
 21
92.0
 31
0.0
1001
AcDbBlockRepETag
1070
     1
1071
        5
1005
98E
  0
TEXT
  5
98F
330
6ED
100
AcDbEntity
  8
0
100
AcDbText
 10
38.11904761904761
 20
93.23033810098564
 30
0.0
 40
3.0
  1
1
  7
Roman
 72
     1
 11
39.33333333333332
 21
93.23033810098564
 31
0.0
100
AcDbText
1001
AcDbBlockRepETag
1070
     1
1071
        6
1005
98F
  0
ATTDEF
  5
990
330
6ED
100
AcDbEntity
  8
0
 62
     0
100
AcDbText
 10
11.5
 20
97.0
 30
0.0
 40
3.0
  1

 50
90.0
  7
Roman
100
AcDbAttributeDefinition
  3
Author:
  2
USER
 70
     8
1001
AcDbBlockRepETag
1070
     1
1071
        7
1005
0
  0
TEXT
  5
991
330
6ED
100
AcDbEntity
  8
0
100
AcDbText
 10
13.87568307432493
 20
120.75
 30
0.0
 40
3.0
  1
D
  7
Roman
 72
     1
 11
15.4471116457535
 21
120.75
 31
0.0
100
AcDbText
1001
AcDbBlockRepETag
1070
     1
1071
        8
1005
991
  0
LINE
  5
992
330
6ED
100
AcDbEntity
  8
0
100
AcDbLine
 10
17.5
 20
192.0
 30
0.0
 11
0.0
 21
192.0
 31
0.0
1001
AcDbBlockRepETag
1070
     1
1071
        9
1005
992
  0
ATTDEF
  5
993
330
6ED
100
AcDbEntity
  8
0
 62
     0
100
AcDbText
 10
11.5
 20
157.0
 30
0.0
 40
3.0
  1

 50
90.0
  7
Roman
100
AcDbAttributeDefinition
  3
Revision date:
  2
REVDATE
 70
     8
1001
AcDbBlockRepETag
1070
     1
1071
       10
1005
0
  0
LINE
  5
994
330
6ED
100
AcDbEntity
  8
0
100
AcDbLine
 10
17.5
 20
144.5
 30
0.0
 11
12.5
 21
144.5
 31
0.0
1001
AcDbBlockRepETag
1070
     1
1071
       11
1005
994
  0
TEXT
  5
995
330
6ED
100
AcDbEntity
  8
0
100
AcDbText
 10
13.9471116457535
 20
168.25
 30
0.0
 40
3.0
  1
C
  7
Roman
 72
     1
 11
15.4471116457535
 21
168.25
 31
0.0
100
AcDbText
1001
AcDbBlockRepETag
1070
     1
1071
       12
1005
995
  0
ATTDEF
  5
996
330
6ED
100
AcDbEntity
  8
0
 62
     0
100
AcDbText
 10
11.5
 20
205.0
 30
0.0
 40
3.0
  1

 50
90.0
  7
Roman
100
AcDbAttributeDefinition
  3
File name:
  2
FNAME
 70
     8
1001
AcDbBlockRepETag
1070
     1
1071
       13
1005
0
  0
LINE
  5
997
330
6ED
100
AcDbEntity
  8
0
100
AcDbLine
 10
17.5
 20
192.0
 30
0.0
 11
12.5
 21
192.0
 31
0.0
1001
AcDbBlockRepETag
1070
     1
1071
       14
1005
997
  0
TEXT
  5
998
330
6ED
100
AcDbEntity
  8
0
100
AcDbText
 10
13.87568307432493
 20
215.75
 30
0.0
 40
3.0
  1
B
  7
Roman
 72
     1
 11
15.4471116457535
 21
215.75
 31
0.0
100
AcDbText
1001
AcDbBlockRepETag
1070
     1
1071
       15
1005
998
  0
LINE
  5
999
330
6ED
100
AcDbEntity
  8
0
100
AcDbLine
 10
104.8333333333333
 20
97.0
 30
0.0
 11
104.8333333333333
 21
92.0
 31
0.0
1001
AcDbBlockRepETag
1070
     1
1071
       16
1005
999
  0
TEXT
  5
99A
330
6ED
100
AcDbEntity
  8
0
100
AcDbText
 10
81.57142857142856
 20
93.23033810098564
 30
0.0
 40
3.0
  1
2
  7
Roman
 72
     1
 11
83.0
 21
93.23033810098564
 31
0.0
100
AcDbText
1001
AcDbBlockRepETag
1070
     1
1071
       17
1005
99A
  0
TEXT
  5
99B
330
6ED
100
AcDbEntity
  8
0
100
AcDbText
 10
125.2380952380953
 20
93.23033810098564
 30
0.0
 40
3.0
  1
3
  7
Roman
 72
     1
 11
126.6666666666667
 21
93.23033810098564
 31
0.0
100
AcDbText
1001
AcDbBlockRepETag
1070
     1
1071
       18
1005
99B
  0
LINE
  5
99C
330
6ED
100
AcDbEntity
  8
0
100
AcDbLine
 10
148.5
 20
97.0
 30
0.0
 11
148.5
 21
87.0
 31
0.0
1001
AcDbBlockRepETag
1070
     1
1071
       19
1005
99C
  0
LINE
  5
99D
330
6ED
100
AcDbEntity
  8
0
100
AcDbLine
 10
148.5
 20
97.0
 30
0.0
 11
148.5
 21
92.0
 31
0.0
1001
AcDbBlockRepETag
1070
     1
1071
       20
1005
99D
  0
LINE
  5
99E
330
6ED
100
AcDbEntity
  8
0
100
AcDbLine
 10
192.1666666666667
 20
97.0
 30
0.0
 11
192.1666666666667
 21
92.0
 31
0.0
1001
AcDbBlockRepETag
1070
     1
1071
       21
1005
99E
  0
TEXT
  5
99F
330
6ED
100
AcDbEntity
  8
0
100
AcDbText
 10
168.8333333333333
 20
93.23033810098564
 30
0.0
 40
3.0
  1
4
  7
Roman
 72
     1
 11
170.3333333333333
 21
93.23033810098564
 31
0.0
100
AcDbText
1001
AcDbBlockRepETag
1070
     1
1071
       22
1005
99F
  0
LINE
  5
9A0
330
6ED
100
AcDbEntity
  8
0
100
AcDbLine
 10
17.5
 20
239.5
 30
0.0
 11
12.5
 21
239.5
 31
0.0
1001
AcDbBlockRepETag
1070
     1
1071
       25
1005
9A0
  0
TEXT
  5
9A1
330
6ED
100
AcDbEntity
  8
0
100
AcDbText
 10
14.16139736003921
 20
263.25
 30
0.0
 40
3.0
  1
A
  7
Roman
 72
     1
 11
15.4471116457535
 21
263.25
 31
0.0
100
AcDbText
1001
AcDbBlockRepETag
1070
     1
1071
       75
1005
9A1
  0
TEXT
  5
9A2
330
6ED
100
AcDbEntity
  8
0
100
AcDbText
 10
38.11904761904761
 20
288.0
 30
0.0
 40
3.0
  1
1
  7
Roman
 72
     1
 11
39.33333333333332
 21
288.0
 31
0.0
100
AcDbText
1001
AcDbBlockRepETag
1070
     1
1071
       76
1005
9A2
  0
LINE
  5
9A3
330
6ED
100
AcDbEntity
  8
0
100
AcDbLine
 10
61.16666666666666
 20
287.0
 30
0.0
 11
61.16666666666666
 21
292.0
 31
0.0
1001
AcDbBlockRepETag
1070
     1
1071
       28
1005
9A3
  0
TEXT
  5
9A4
330
6ED
100
AcDbEntity
  8
0
100
AcDbText
 10
81.57142857142856
 20
288.0
 30
0.0
 40
3.0
  1
2
  7
Roman
 72
     1
 11
83.0
 21
288.0
 31
0.0
100
AcDbText
1001
AcDbBlockRepETag
1070
     1
1071
       29
1005
9A4
  0
LINE
  5
9A5
330
6ED
100
AcDbEntity
  8
0
100
AcDbLine
 10
104.8333333333333
 20
287.0
 30
0.0
 11
104.8333333333333
 21
292.0
 31
0.0
1001
AcDbBlockRepETag
1070
     1
1071
       30
1005
9A5
  0
TEXT
  5
9A6
330
6ED
100
AcDbEntity
  8
0
100
AcDbText
 10
125.2380952380953
 20
288.0
 30
0.0
 40
3.0
  1
3
  7
Roman
 72
     1
 11
126.6666666666667
 21
288.0
 31
0.0
100
AcDbText
1001
AcDbBlockRepETag
1070
     1
1071
       31
1005
9A6
  0
TEXT
  5
9A7
330
6ED
100
AcDbEntity
  8
0
100
AcDbText
 10
168.8333333333333
 20
288.0
 30
0.0
 40
3.0
  1
4
  7
Roman
 72
     1
 11
170.3333333333333
 21
288.0
 31
0.0
100
AcDbText
1001
AcDbBlockRepETag
1070
     1
1071
       32
1005
9A7
  0
LINE
  5
9A8
330
6ED
100
AcDbEntity
  8
0
100
AcDbLine
 10
148.5
 20
287.0
 30
0.0
 11
148.5
 21
297.0
 31
0.0
1001
AcDbBlockRepETag
1070
     1
1071
       33
1005
9A8
  0
LINE
  5
9A9
330
6ED
100
AcDbEntity
  8
0
100
AcDbLine
 10
148.5
 20
287.0
 30
0.0
 11
148.5
 21
292.0
 31
0.0
1001
AcDbBlockRepETag
1070
     1
1071
       34
1005
9A9
  0
LINE
  5
9AA
330
6ED
100
AcDbEntity
  8
0
100
AcDbLine
 10
192.1666666666666
 20
287.0
 30
0.0
 11
192.1666666666666
 21
292.0
 31
0.0
1001
AcDbBlockRepETag
1070
     1
1071
       35
1005
9AA
  0
LINE
  5
9AB
330
6ED
100
AcDbEntity
  8
0
100
AcDbLine
 10
279.5
 20
287.0
 30
0.0
 11
279.5
 21
97.0
 31
0.0
1001
AcDbBlockRepETag
1070
     1
1071
       36
1005
9AB
  0
LINE
  5
9AC
330
6ED
100
AcDbEntity
  8
0
100
AcDbLine
 10
235.8333333333334
 20
97.0
 30
0.0
 11
235.8333333333334
 21
92.0
 31
0.0
1001
AcDbBlockRepETag
1070
     1
1071
       37
1005
9AC
  0
TEXT
  5
9AD
330
6ED
100
AcDbEntity
  8
0
100
AcDbText
 10
212.5714285714286
 20
93.23033810098564
 30
0.0
 40
3.0
  1
5
  7
Roman
 72
     1
 11
214.0
 21
93.23033810098564
 31
0.0
100
AcDbText
1001
AcDbBlockRepETag
1070
     1
1071
       38
1005
9AD
  0
TEXT
  5
9AE
330
6ED
100
AcDbEntity
  8
0
100
AcDbText
 10
256.1666666666667
 20
93.23033810098564
 30
0.0
 40
3.0
  1
6
  7
Roman
 72
     1
 11
257.6666666666667
 21
93.23033810098564
 31
0.0
100
AcDbText
1001
AcDbBlockRepETag
1070
     1
1071
       39
1005
9AE
  0
LINE
  5
9AF
330
6ED
100
AcDbEntity
  8
0
100
AcDbLine
 10
297.0
 20
97.0
 30
0.0
 11
297.0
 21
87.0
 31
0.0
1001
AcDbBlockRepETag
1070
     1
1071
       40
1005
9AF
  0
LINE
  5
9B0
330
6ED
100
AcDbEntity
  8
0
100
AcDbLine
 10
297.0
 20
87.0
 30
0.0
 11
287.0
 21
87.0
 31
0.0
1001
AcDbBlockRepETag
1070
     1
1071
       41
1005
9B0
  0
TEXT
  5
9B1
330
6ED
100
AcDbEntity
  8
0
100
AcDbText
 10
280.1673438822666
 20
120.75
 30
0.0
 40
3.0
  1
D
  7
Roman
 72
     1
 11
281.7387724536952
 21
120.75
 31
0.0
100
AcDbText
1001
AcDbBlockRepETag
1070
     1
1071
       42
1005
9B1
  0
LINE
  5
9B2
330
6ED
100
AcDbEntity
  8
0
100
AcDbLine
 10
279.5
 20
144.5
 30
0.0
 11
284.5
 21
144.5
 31
0.0
1001
AcDbBlockRepETag
1070
     1
1071
       43
1005
9B2
  0
TEXT
  5
9B3
330
6ED
100
AcDbEntity
  8
0
100
AcDbText
 10
280.2387724536952
 20
168.25
 30
0.0
 40
3.0
  1
C
  7
Roman
 72
     1
 11
281.7387724536952
 21
168.25
 31
0.0
100
AcDbText
1001
AcDbBlockRepETag
1070
     1
1071
       44
1005
9B3
  0
LINE
  5
9B4
330
6ED
100
AcDbEntity
  8
0
100
AcDbLine
 10
279.5
 20
192.0
 30
0.0
 11
297.0
 21
192.0
 31
0.0
1001
AcDbBlockRepETag
1070
     1
1071
       45
1005
9B4
  0
LINE
  5
9B5
330
6ED
100
AcDbEntity
  8
0
100
AcDbLine
 10
279.5
 20
192.0
 30
0.0
 11
284.5
 21
192.0
 31
0.0
1001
AcDbBlockRepETag
1070
     1
1071
       46
1005
9B5
  0
TEXT
  5
9B6
330
6ED
100
AcDbEntity
  8
0
100
AcDbText
 10
280.1673438822666
 20
215.75
 30
0.0
 40
3.0
  1
B
  7
Roman
 72
     1
 11
281.7387724536952
 21
215.75
 31
0.0
100
AcDbText
1001
AcDbBlockRepETag
1070
     1
1071
       47
1005
9B6
  0
TEXT
  5
9B7
330
6ED
100
AcDbEntity
  8
0
100
AcDbText
 10
212.5714285714286
 20
288.0
 30
0.0
 40
3.0
  1
5
  7
Roman
 72
     1
 11
214.0
 21
288.0
 31
0.0
100
AcDbText
1001
AcDbBlockRepETag
1070
     1
1071
       48
1005
9B7
  0
LINE
  5
9B8
330
6ED
100
AcDbEntity
  8
0
100
AcDbLine
 10
235.8333333333333
 20
287.0
 30
0.0
 11
235.8333333333333
 21
292.0
 31
0.0
1001
AcDbBlockRepETag
1070
     1
1071
       49
1005
9B8
  0
TEXT
  5
9B9
330
6ED
100
AcDbEntity
  8
0
100
AcDbText
 10
256.1666666666667
 20
288.0
 30
0.0
 40
3.0
  1
6
  7
Roman
 72
     1
 11
257.6666666666667
 21
288.0
 31
0.0
100
AcDbText
1001
AcDbBlockRepETag
1070
     1
1071
       50
1005
9B9
  0
LINE
  5
9BA
330
6ED
100
AcDbEntity
  8
0
100
AcDbLine
 10
279.5
 20
239.5
 30
0.0
 11
284.5
 21
239.5
 31
0.0
1001
AcDbBlockRepETag
1070
     1
1071
       51
1005
9BA
  0
TEXT
  5
9BB
330
6ED
100
AcDbEntity
  8
0
100
AcDbText
 10
280.4530581679809
 20
263.25
 30
0.0
 40
3.0
  1
A
  7
Roman
 72
     1
 11
281.7387724536952
 21
263.25
 31
0.0
100
AcDbText
1001
AcDbBlockRepETag
1070
     1
1071
       52
1005
9BB
  0
LINE
  5
9BC
330
6ED
100
AcDbEntity
  8
0
100
AcDbLine
 10
287.0
 20
297.0
 30
0.0
 11
297.0
 21
297.0
 31
0.0
1001
AcDbBlockRepETag
1070
     1
1071
       53
1005
9BC
  0
LINE
  5
9BD
330
6ED
100
AcDbEntity
  8
0
100
AcDbLine
 10
297.0
 20
297.0
 30
0.0
 11
297.0
 21
287.0
 31
0.0
1001
AcDbBlockRepETag
1070
     1
1071
       54
1005
9BD
  0
LINE
  5
9BE
330
6ED
100
AcDbEntity
  8
0
100
AcDbLine
 10
163.4978723404242
 20
97.0
 30
0.0
 11
163.4978723404242
 21
97.0
 31
0.0
1001
AcDbBlockRepETag
1070
     1
1071
      161
1005
9BE
  0
LINE
  5
9BF
330
6ED
100
AcDbEntity
  8
0
100
AcDbLine
 10
162.4978723404242
 20
97.0
 30
0.0
 11
162.4978723404242
 21
133.0
 31
0.0
1001
AcDbBlockRepETag
1070
     1
1071
      162
1005
9BF
  0
LINE
  5
9C0
330
6ED
100
AcDbEntity
  8
0
100
AcDbLine
 10
279.4978723404242
 20
106.0
 30
0.0
 11
162.4978723404242
 21
106.0
 31
0.0
1001
AcDbBlockRepETag
1070
     1
1071
      166
1005
9C0
  0
LINE
  5
9C1
330
6ED
100
AcDbEntity
  8
0
100
AcDbLine
 10
213.4978723404242
 20
97.0
 30
0.0
 11
213.4978723404242
 21
106.0
 31
0.0
1001
AcDbBlockRepETag
1070
     1
1071
      167
1005
9C1
  0
LINE
  5
9C2
330
6ED
100
AcDbEntity
  8
0
100
AcDbLine
 10
202.4978723404242
 20
115.0
 30
0.0
 11
162.4978723404242
 21
115.0
 31
0.0
1001
AcDbBlockRepETag
1070
     1
1071
      168
1005
9C2
  0
LINE
  5
9C3
330
6ED
100
AcDbEntity
  8
0
100
AcDbLine
 10
279.4978723404242
 20
124.0
 30
0.0
 11
162.4978723404242
 21
124.0
 31
0.0
1001
AcDbBlockRepETag
1070
     1
1071
      169
1005
9C3
  0
LINE
  5
9C4
330
6ED
100
AcDbEntity
  8
0
100
AcDbLine
 10
279.4978723404242
 20
133.0
 30
0.0
 11
162.4978723404242
 21
133.0
 31
0.0
1001
AcDbBlockRepETag
1070
     1
1071
      170
1005
9C4
  0
MTEXT
  5
9C5
330
6ED
100
AcDbEntity
  8
0
100
AcDbMText
 10
187.997872340424
 20
101.5
 30
0.0
 40
4.0
 41
51.0
 71
     5
 72
     5
  1
富国石油株式会社
 73
     1
 44
1.0
1001
AcDbBlockRepETag
1070
     1
1071
      171
1005
9C5
1001
ACAD
1000
MTEXTBEGIN
1070
    73
1070
     1
1070
    44
1040
1.0
1070
    74
1070
     0
1000
MTEXTEND
  0
MTEXT
  5
9C6
102
{ACAD_XDICTIONARY
360
6FDE
102
}
330
6ED
100
AcDbEntity
  8
0
100
AcDbMText
 10
165.4779634407957
 20
110.5
 30
0.0
 40
2.0
 41
3.96018220074299
 71
     5
 72
     5
  1
検\P図
 73
     1
 44
1.0
1001
AcDbBlockRepETag
1070
     1
1071
      172
1005
9C6
1001
ACAD
1000
MTEXTBEGIN
1070
    73
1070
     1
1070
    44
1040
1.0
1070
    74
1070
     0
1000
MTEXTEND
1000
ACAD_MTEXT_DEFINED_HEIGHT_BEGIN
1070
    46
1040
9.0
1000
ACAD_MTEXT_DEFINED_HEIGHT_END
  0
MTEXT
  5
9C7
330
6ED
100
AcDbEntity
  8
0
100
AcDbMText
 10
165.4779634407957
 20
119.5
 30
0.0
 40
2.0
 41
3.96018220074299
 71
     5
 72
     5
  1
確\P認
 73
     1
 44
1.0
1001
AcDbBlockRepETag
1070
     1
1071
      173
1005
9C7
1001
ACAD
1000
MTEXTBEGIN
1070
    73
1070
     1
1070
    44
1040
1.0
1070
    74
1070
     0
1000
MTEXTEND
1000
ACAD_MTEXT_DEFINED_HEIGHT_BEGIN
1070
    46
1040
9.0
1000
ACAD_MTEXT_DEFINED_HEIGHT_END
  0
MTEXT
  5
9C8
330
6ED
100
AcDbEntity
  8
0
100
AcDbMText
 10
165.4779634407957
 20
128.5
 30
0.0
 40
2.0
 41
3.96018220074299
 71
     5
 72
     5
  1
縮\P尺
 73
     1
 44
1.0
1001
AcDbBlockRepETag
1070
     1
1071
      174
1005
9C8
1001
ACAD
1000
MTEXTBEGIN
1070
    73
1070
     1
1070
    44
1040
1.0
1070
    74
1070
     0
1000
MTEXTEND
1000
ACAD_MTEXT_DEFINED_HEIGHT_BEGIN
1070
    46
1040
9.0
1000
ACAD_MTEXT_DEFINED_HEIGHT_END
  0
LINE
  5
9C9
330
6ED
100
AcDbEntity
  8
0
100
AcDbLine
 10
182.4978723404242
 20
106.0
 30
0.0
 11
182.4978723404242
 21
133.0
 31
0.0
1001
AcDbBlockRepETag
1070
     1
1071
      175
1005
9C9
  0
LINE
  5
9CA
330
6ED
100
AcDbEntity
  8
0
100
AcDbLine
 10
202.4978723404242
 20
106.0
 30
0.0
 11
202.4978723404242
 21
133.0
 31
0.0
1001
AcDbBlockRepETag
1070
     1
1071
      176
1005
9CA
  0
LINE
  5
9CB
330
6ED
100
AcDbEntity
  8
0
100
AcDbLine
 10
234.4978723404242
 20
124.0
 30
0.0
 11
234.4978723404242
 21
133.0
 31
0.0
1001
AcDbBlockRepETag
1070
     1
1071
      194
1005
9CB
  0
MTEXT
  5
9CC
330
6ED
100
AcDbEntity
  8
0
100
AcDbMText
 10
185.4779634407956
 20
119.5
 30
0.0
 40
2.0
 41
3.96018220074299
 71
     5
 72
     5
  1
設\P計
 73
     1
 44
1.0
1001
AcDbBlockRepETag
1070
     1
1071
      177
1005
9CC
1001
ACAD
1000
MTEXTBEGIN
1070
    73
1070
     1
1070
    44
1040
1.0
1070
    74
1070
     0
1000
MTEXTEND
1000
ACAD_MTEXT_DEFINED_HEIGHT_BEGIN
1070
    46
1040
9.0
1000
ACAD_MTEXT_DEFINED_HEIGHT_END
  0
MTEXT
  5
9CD
330
6ED
100
AcDbEntity
  8
0
100
AcDbMText
 10
185.4779634407956
 20
110.5
 30
0.0
 40
2.0
 41
3.96018220074299
 71
     5
 72
     5
  1
製\P図
 73
     1
 44
1.0
1001
AcDbBlockRepETag
1070
     1
1071
      178
1005
9CD
1001
ACAD
1000
MTEXTBEGIN
1070
    73
1070
     1
1070
    44
1040
1.0
1070
    74
1070
     0
1000
MTEXTEND
1000
ACAD_MTEXT_DEFINED_HEIGHT_BEGIN
1070
    46
1040
9.0
1000
ACAD_MTEXT_DEFINED_HEIGHT_END
  0
MTEXT
  5
9CE
330
6ED
100
AcDbEntity
  8
0
100
AcDbMText
 10
205.4779634407957
 20
128.5
 30
0.0
 40
2.0
 41
3.96018220074299
 71
     5
 72
     5
  1
材\P料
 73
     1
 44
1.0
1001
AcDbBlockRepETag
1070
     1
1071
      179
1005
9CE
1001
ACAD
1000
MTEXTBEGIN
1070
    73
1070
     1
1070
    44
1040
1.0
1070
    74
1070
     0
1000
MTEXTEND
1000
ACAD_MTEXT_DEFINED_HEIGHT_BEGIN
1070
    46
1040
9.0
1000
ACAD_MTEXT_DEFINED_HEIGHT_END
  0
LINE
  5
9CF
330
6ED
100
AcDbEntity
  8
0
  6
HIDDEN2
 48
0.5
100
AcDbLine
 10
279.4978723404242
 20
119.5
 30
0.0
 11
202.4978723404242
 21
119.5
 31
0.0
1001
AcDbBlockRepETag
1070
     1
1071
      180
1005
9CF
  0
POINT
  5
9D0
330
6ED
100
AcDbEntity
  8
0
100
AcDbPoint
 10
188.2478723404242
 20
124.0
 30
0.0
1001
AcDbBlockRepETag
1070
     1
1071
      189
1005
9D0
  0
POINT
  5
9D1
330
6ED
100
AcDbEntity
  8
0
100
AcDbPoint
 10
188.2478723404242
 20
115.0
 30
0.0
1001
AcDbBlockRepETag
1070
     1
1071
      190
1005
9D1
  0
ENDBLK
  5
74C
330
6ED
100
AcDbEntity
  8
0
100
AcDbBlockEnd
  0
BLOCK
  5
616B
330
6161
100
AcDbEntity
  8
0
100
AcDbBlockBegin
  2
*D4
 70
     1
 10
0.0
 20
0.0
 30
0.0
  3
*D4
  1

  0
LINE
  5
6B18
330
6161
100
AcDbEntity
  8
0
  6
HIDDEN
 62
     0
370
    -2
100
AcDbLine
 10
-120.4191249628282
 20
1834.119052913203
 30
0.0
 11
-157.0827635482767
 21
1834.119052913203
 31
0.0
  0
LINE
  5
6B19
330
6161
100
AcDbEntity
  8
0
  6
HIDDEN
 62
     0
370
    -2
100
AcDbLine
 10
-122.9191249628283
 20
1869.119052913203
 30
0.0
 11
-157.0827635482767
 21
1869.119052913203
 31
0.0
  0
LINE
  5
6B1A
330
6161
100
AcDbEntity
  8
0
  6
HIDDEN
 62
     0
370
    -2
100
AcDbLine
 10
-156.0827635482767
 20
1842.119052913203
 30
0.0
 11
-156.0827635482767
 21
1845.696352152797
 31
0.0
  0
LINE
  5
6B1B
330
6161
100
AcDbEntity
  8
0
  6
HIDDEN
 62
     0
370
    -2
100
AcDbLine
 10
-156.0827635482767
 20
1861.119052913203
 30
0.0
 11
-156.0827635482767
 21
1859.696352154929
 31
0.0
  0
MTEXT
  5
6B1C
330
6161
100
AcDbEntity
  8
0
  6
HIDDEN
 62
     0
370
    -3
100
AcDbMText
 10
-160.8622065628965
 20
1852.69643557088
 30
0.0
 40
8.0
 41
0.0
 71
     5
 72
     1
  1
\A1;Ｃ
 11
0.9999999998476914
 21
-0.000017453292519
 31
0.0
 73
     1
 44
1.0
1001
ACAD
1000
MTEXTBEGIN
1070
    73
1070
     1
1070
    44
1040
1.0
1070
    74
1070
     0
1000
MTEXTEND
  0
INSERT
  5
6B1D
330
6161
100
AcDbEntity
  8
0
  6
HIDDEN
 62
     0
370
    -2
100
AcDbBlockReference
  2
_Open30
 10
-156.0827635482767
 20
1834.119052913203
 30
0.0
 41
8.0
 42
8.0
 43
8.0
 50
270.0
  0
INSERT
  5
6B1E
330
6161
100
AcDbEntity
  8
0
  6
HIDDEN
 62
     0
370
    -2
100
AcDbBlockReference
  2
_Open30
 10
-156.0827635482767
 20
1869.119052913203
 30
0.0
 41
8.0
 42
8.0
 43
8.0
 50
90.0
  0
POINT
  5
6B1F
330
6161
100
AcDbEntity
  8
Defpoints
  6
HIDDEN
 62
     0
100
AcDbPoint
 10
-119.4191249628282
 20
1834.119052913203
 30
0.0
  0
POINT
  5
6B20
330
6161
100
AcDbEntity
  8
Defpoints
  6
HIDDEN
 62
     0
100
AcDbPoint
 10
-121.9191249628283
 20
1869.119052913203
 30
0.0
  0
POINT
  5
6B21
330
6161
100
AcDbEntity
  8
Defpoints
  6
HIDDEN
 62
     0
100
AcDbPoint
 10
-156.0827635482767
 20
1869.119052913203
 30
0.0
  0
ENDBLK
  5
616C
330
6161
100
AcDbEntity
  8
0
100
AcDbBlockEnd
  0
BLOCK
  5
6177
330
616D
100
AcDbEntity
  8
0
100
AcDbBlockBegin
  2
*D5
 70
     1
 10
0.0
 20
0.0
 30
0.0
  3
*D5
  1

  0
LINE
  5
6B0E
330
616D
100
AcDbEntity
  8
0
  6
HIDDEN
 62
     0
370
    -2
100
AcDbLine
 10
-120.4191249628282
 20
1834.119052913203
 30
0.0
 11
-157.0827635482767
 21
1834.119052913203
 31
0.0
  0
LINE
  5
6B0F
330
616D
100
AcDbEntity
  8
0
  6
HIDDEN
 62
     0
370
    -2
100
AcDbLine
 10
-120.4191249628282
 20
1781.119052913203
 30
0.0
 11
-157.0827635482767
 21
1781.119052913203
 31
0.0
  0
LINE
  5
6B10
330
616D
100
AcDbEntity
  8
0
  6
HIDDEN
 62
     0
370
    -2
100
AcDbLine
 10
-156.0827635482767
 20
1826.119052913203
 30
0.0
 11
-156.0827635482767
 21
1818.224532519097
 31
0.0
  0
LINE
  5
6B11
330
616D
100
AcDbEntity
  8
0
  6
HIDDEN
 62
     0
370
    -2
100
AcDbLine
 10
-156.0827635482767
 20
1789.119052913203
 30
0.0
 11
-156.0827635482767
 21
1804.224532516964
 31
0.0
  0
MTEXT
  5
6B12
330
616D
100
AcDbEntity
  8
0
  6
HIDDEN
 62
     0
370
    -3
100
AcDbMText
 10
-160.4514952312606
 20
1811.224608766783
 30
0.0
 40
8.0
 41
0.0
 71
     5
 72
     1
  1
\A1;Ｂ
 11
0.9999999998476914
 21
-0.000017453292519
 31
0.0
 73
     1
 44
1.0
1001
ACAD
1000
MTEXTBEGIN
1070
    73
1070
     1
1070
    44
1040
1.0
1070
    74
1070
     0
1000
MTEXTEND
  0
INSERT
  5
6B13
330
616D
100
AcDbEntity
  8
0
  6
HIDDEN
 62
     0
370
    -2
100
AcDbBlockReference
  2
_Open30
 10
-156.0827635482767
 20
1834.119052913203
 30
0.0
 41
8.0
 42
8.0
 43
8.0
 50
90.0
  0
INSERT
  5
6B14
330
616D
100
AcDbEntity
  8
0
  6
HIDDEN
 62
     0
370
    -2
100
AcDbBlockReference
  2
_Open30
 10
-156.0827635482767
 20
1781.119052913203
 30
0.0
 41
8.0
 42
8.0
 43
8.0
 50
270.0
  0
POINT
  5
6B15
330
616D
100
AcDbEntity
  8
Defpoints
  6
HIDDEN
 62
     0
100
AcDbPoint
 10
-119.4191249628282
 20
1834.119052913203
 30
0.0
  0
POINT
  5
6B16
330
616D
100
AcDbEntity
  8
Defpoints
  6
HIDDEN
 62
     0
100
AcDbPoint
 10
-119.4191249628282
 20
1781.119052913203
 30
0.0
  0
POINT
  5
6B17
330
616D
100
AcDbEntity
  8
Defpoints
  6
HIDDEN
 62
     0
100
AcDbPoint
 10
-156.0827635482767
 20
1781.119052913203
 30
0.0
  0
ENDBLK
  5
6178
330
616D
100
AcDbEntity
  8
0
100
AcDbBlockEnd
  0
BLOCK
  5
6183
330
6179
100
AcDbEntity
  8
0
100
AcDbBlockBegin
  2
*D6
 70
     1
 10
0.0
 20
0.0
 30
0.0
  3
*D6
  1

  0
LINE
  5
6B35
330
6179
100
AcDbEntity
  8
0
  6
HIDDEN
 62
     0
370
    -2
100
AcDbLine
 10
-37.4371013079649
 20
1870.119052913203
 30
0.0
 11
-37.4371013079649
 21
1880.204387897008
 31
0.0
  0
LINE
  5
6B36
330
6179
100
AcDbEntity
  8
0
  6
HIDDEN
 62
     0
370
    -2
100
AcDbLine
 10
-57.4371013079649
 20
1835.119052913203
 30
0.0
 11
-57.4371013079649
 21
1880.204387897008
 31
0.0
  0
LINE
  5
6B37
330
6179
100
AcDbEntity
  8
0
  6
HIDDEN
 62
     0
370
    -2
100
AcDbLine
 10
-29.43710130796489
 20
1879.204387897008
 30
0.0
 11
-21.4371013079649
 21
1879.204387897008
 31
0.0
  0
LINE
  5
6B38
330
6179
100
AcDbEntity
  8
0
  6
HIDDEN
 62
     0
370
    -2
100
AcDbLine
 10
-65.43710130796489
 20
1879.204387897008
 30
0.0
 11
-73.43710130796489
 21
1879.204387897008
 31
0.0
  0
LINE
  5
6B39
330
6179
100
AcDbEntity
  8
0
  6
HIDDEN
 62
     0
370
    -2
100
AcDbLine
 10
-37.4371013079649
 20
1879.204387897008
 30
0.0
 11
-57.4371013079649
 21
1879.204387897008
 31
0.0
  0
INSERT
  5
6B3A
330
6179
100
AcDbEntity
  8
0
  6
HIDDEN
 62
     0
370
    -2
100
AcDbBlockReference
  2
_Open30
 10
-37.4371013079649
 20
1879.204387897008
 30
0.0
 41
8.0
 42
8.0
 43
8.0
 50
180.0
  0
INSERT
  5
6B3B
330
6179
100
AcDbEntity
  8
0
  6
HIDDEN
 62
     0
370
    -2
100
AcDbBlockReference
  2
_Open30
 10
-57.4371013079649
 20
1879.204387897008
 30
0.0
 41
8.0
 42
8.0
 43
8.0
  0
MTEXT
  5
6B3C
330
6179
100
AcDbEntity
  8
0
  6
HIDDEN
 62
     0
370
    -3
100
AcDbMText
 10
-47.43710130796489
 20
1886.204387897008
 30
0.0
 40
8.0
 41
0.0
 71
     5
 72
     1
  1
\A1;Ｄ
 73
     1
 44
1.0
1001
ACAD
1000
MTEXTBEGIN
1070
    73
1070
     1
1070
    44
1040
1.0
1070
    74
1070
     0
1000
MTEXTEND
  0
POINT
  5
6B3D
330
6179
100
AcDbEntity
  8
Defpoints
  6
HIDDEN
 62
     0
100
AcDbPoint
 10
-37.4371013079649
 20
1869.119052913203
 30
0.0
  0
POINT
  5
6B3E
330
6179
100
AcDbEntity
  8
Defpoints
  6
HIDDEN
 62
     0
100
AcDbPoint
 10
-57.4371013079649
 20
1834.119052913203
 30
0.0
  0
POINT
  5
6B3F
330
6179
100
AcDbEntity
  8
Defpoints
  6
HIDDEN
 62
     0
100
AcDbPoint
 10
-57.4371013079649
 20
1879.204387897008
 30
0.0
  0
ENDBLK
  5
6184
330
6179
100
AcDbEntity
  8
0
100
AcDbBlockEnd
  0
BLOCK
  5
618F
330
6185
100
AcDbEntity
  8
0
100
AcDbBlockBegin
  2
*D7
 70
     1
 10
0.0
 20
0.0
 30
0.0
  3
*D7
  1

  0
LINE
  5
6AFB
330
6185
100
AcDbEntity
  8
0
  6
HIDDEN
 62
     0
370
    -2
100
AcDbLine
 10
-119.4191249628282
 20
1870.119052913203
 30
0.0
 11
-119.4191249628282
 21
1880.119052913203
 31
0.0
  0
LINE
  5
6AFC
330
6185
100
AcDbEntity
  8
0
  6
HIDDEN
 62
     0
370
    -2
100
AcDbLine
 10
-144.4191249628282
 20
1836.190481484631
 30
0.0
 11
-144.4191249628282
 21
1880.119052913203
 31
0.0
  0
LINE
  5
6AFD
330
6185
100
AcDbEntity
  8
0
  6
HIDDEN
 62
     0
370
    -2
100
AcDbLine
 10
-127.4191249628283
 20
1879.119052913203
 30
0.0
 11
-136.4191249628283
 21
1879.119052913203
 31
0.0
  0
INSERT
  5
6AFE
330
6185
100
AcDbEntity
  8
0
  6
HIDDEN
 62
     0
370
    -2
100
AcDbBlockReference
  2
_Open30
 10
-119.4191249628282
 20
1879.119052913203
 30
0.0
 41
8.0
 42
8.0
 43
8.0
  0
INSERT
  5
6AFF
330
6185
100
AcDbEntity
  8
0
  6
HIDDEN
 62
     0
370
    -2
100
AcDbBlockReference
  2
_Open30
 10
-144.4191249628282
 20
1879.119052913203
 30
0.0
 41
8.0
 42
8.0
 43
8.0
 50
180.0
  0
MTEXT
  5
6B00
330
6185
100
AcDbEntity
  8
0
  6
HIDDEN
 62
     0
370
    -3
100
AcDbMText
 10
-131.9191249628282
 20
1886.119052913203
 30
0.0
 40
8.0
 41
0.0
 71
     5
 72
     1
  1
\A1;Ｇ
 73
     1
 44
1.0
1001
ACAD
1000
MTEXTBEGIN
1070
    73
1070
     1
1070
    44
1040
1.0
1070
    74
1070
     0
1000
MTEXTEND
  0
POINT
  5
6B01
330
6185
100
AcDbEntity
  8
Defpoints
  6
HIDDEN
 62
     0
100
AcDbPoint
 10
-119.4191249628282
 20
1869.119052913203
 30
0.0
  0
POINT
  5
6B02
330
6185
100
AcDbEntity
  8
Defpoints
  6
HIDDEN
 62
     0
100
AcDbPoint
 10
-144.4191249628282
 20
1835.190481484631
 30
0.0
  0
POINT
  5
6B03
330
6185
100
AcDbEntity
  8
Defpoints
  6
HIDDEN
 62
     0
100
AcDbPoint
 10
-144.4191249628282
 20
1879.119052913203
 30
0.0
  0
ENDBLK
  5
6190
330
6185
100
AcDbEntity
  8
0
100
AcDbBlockEnd
  0
BLOCK
  5
619B
330
6191
100
AcDbEntity
  8
0
100
AcDbBlockBegin
  2
*D8
 70
     1
 10
0.0
 20
0.0
 30
0.0
  3
*D8
  1

  0
LINE
  5
6AF2
330
6191
100
AcDbEntity
  8
0
  6
HIDDEN
 62
     0
370
    -2
100
AcDbLine
 10
-119.4191249628282
 20
1870.119052913203
 30
0.0
 11
-119.4191249628282
 21
1880.119052913203
 31
0.0
  0
LINE
  5
6AF3
330
6191
100
AcDbEntity
  8
0
  6
HIDDEN
 62
     0
370
    -2
100
AcDbLine
 10
-94.41912496282828
 20
1836.190481484631
 30
0.0
 11
-94.41912496282828
 21
1880.119052913203
 31
0.0
  0
LINE
  5
6AF4
330
6191
100
AcDbEntity
  8
0
  6
HIDDEN
 62
     0
370
    -2
100
AcDbLine
 10
-111.4191249628283
 20
1879.119052913203
 30
0.0
 11
-102.4191249628283
 21
1879.119052913203
 31
0.0
  0
INSERT
  5
6AF5
330
6191
100
AcDbEntity
  8
0
  6
HIDDEN
 62
     0
370
    -2
100
AcDbBlockReference
  2
_Open30
 10
-119.4191249628282
 20
1879.119052913203
 30
0.0
 41
8.0
 42
8.0
 43
8.0
 50
180.0
  0
INSERT
  5
6AF6
330
6191
100
AcDbEntity
  8
0
  6
HIDDEN
 62
     0
370
    -2
100
AcDbBlockReference
  2
_Open30
 10
-94.41912496282828
 20
1879.119052913203
 30
0.0
 41
8.0
 42
8.0
 43
8.0
  0
MTEXT
  5
6AF7
330
6191
100
AcDbEntity
  8
0
  6
HIDDEN
 62
     0
370
    -3
100
AcDbMText
 10
-106.9191249628282
 20
1886.119052913203
 30
0.0
 40
8.0
 41
0.0
 71
     5
 72
     1
  1
\A1;Ｇ
 73
     1
 44
1.0
1001
ACAD
1000
MTEXTBEGIN
1070
    73
1070
     1
1070
    44
1040
1.0
1070
    74
1070
     0
1000
MTEXTEND
  0
POINT
  5
6AF8
330
6191
100
AcDbEntity
  8
Defpoints
  6
HIDDEN
 62
     0
100
AcDbPoint
 10
-119.4191249628282
 20
1869.119052913203
 30
0.0
  0
POINT
  5
6AF9
330
6191
100
AcDbEntity
  8
Defpoints
  6
HIDDEN
 62
     0
100
AcDbPoint
 10
-94.41912496282828
 20
1835.190481484631
 30
0.0
  0
POINT
  5
6AFA
330
6191
100
AcDbEntity
  8
Defpoints
  6
HIDDEN
 62
     0
100
AcDbPoint
 10
-94.41912496282828
 20
1879.119052913203
 30
0.0
  0
ENDBLK
  5
619C
330
6191
100
AcDbEntity
  8
0
100
AcDbBlockEnd
  0
BLOCK
  5
61A7
330
619D
100
AcDbEntity
  8
0
100
AcDbBlockBegin
  2
*D9
 70
     1
 10
0.0
 20
0.0
 30
0.0
  3
*D9
  1

  0
LINE
  5
6B04
330
619D
100
AcDbEntity
  8
0
  6
HIDDEN
 62
     0
370
    -2
100
AcDbLine
 10
-120.4191249628282
 20
1869.119052913203
 30
0.0
 11
-170.2818080761992
 21
1869.119052913203
 31
0.0
  0
LINE
  5
6B05
330
619D
100
AcDbEntity
  8
0
  6
HIDDEN
 62
     0
370
    -2
100
AcDbLine
 10
-120.4191249628282
 20
1781.119052913203
 30
0.0
 11
-170.2818080761992
 21
1781.119052913203
 31
0.0
  0
LINE
  5
6B06
330
619D
100
AcDbEntity
  8
0
  6
HIDDEN
 62
     0
370
    -2
100
AcDbLine
 10
-169.2818080761992
 20
1861.119052913203
 30
0.0
 11
-169.2818080761992
 21
1833.417171941824
 31
0.0
  0
LINE
  5
6B07
330
619D
100
AcDbEntity
  8
0
  6
HIDDEN
 62
     0
370
    -2
100
AcDbLine
 10
-169.2818080761992
 20
1789.119052913203
 30
0.0
 11
-169.2818080761992
 21
1819.417171939692
 31
0.0
  0
MTEXT
  5
6B08
330
619D
100
AcDbEntity
  8
0
  6
HIDDEN
 62
     0
370
    -3
100
AcDbMText
 10
-174.210353973129
 20
1826.417257960111
 30
0.0
 40
8.0
 41
0.0
 71
     5
 72
     1
  1
\A1;Ａ
 11
0.9999999998476914
 21
-0.000017453292519
 31
0.0
 73
     1
 44
1.0
1001
ACAD
1000
MTEXTBEGIN
1070
    73
1070
     1
1070
    44
1040
1.0
1070
    74
1070
     0
1000
MTEXTEND
  0
INSERT
  5
6B09
330
619D
100
AcDbEntity
  8
0
  6
HIDDEN
 62
     0
370
    -2
100
AcDbBlockReference
  2
_Open30
 10
-169.2818080761992
 20
1869.119052913203
 30
0.0
 41
8.0
 42
8.0
 43
8.0
 50
90.0
  0
INSERT
  5
6B0A
330
619D
100
AcDbEntity
  8
0
  6
HIDDEN
 62
     0
370
    -2
100
AcDbBlockReference
  2
_Open30
 10
-169.2818080761992
 20
1781.119052913203
 30
0.0
 41
8.0
 42
8.0
 43
8.0
 50
270.0
  0
POINT
  5
6B0B
330
619D
100
AcDbEntity
  8
Defpoints
  6
HIDDEN
 62
     0
100
AcDbPoint
 10
-119.4191249628282
 20
1869.119052913203
 30
0.0
  0
POINT
  5
6B0C
330
619D
100
AcDbEntity
  8
Defpoints
  6
HIDDEN
 62
     0
100
AcDbPoint
 10
-119.4191249628282
 20
1781.119052913203
 30
0.0
  0
POINT
  5
6B0D
330
619D
100
AcDbEntity
  8
Defpoints
  6
HIDDEN
 62
     0
100
AcDbPoint
 10
-169.2818080761992
 20
1781.119052913203
 30
0.0
  0
ENDBLK
  5
61A8
330
619D
100
AcDbEntity
  8
0
100
AcDbBlockEnd
  0
BLOCK
  5
61B2
330
61A9
100
AcDbEntity
  8
0
100
AcDbBlockBegin
  2
*D10
 70
     1
 10
0.0
 20
0.0
 30
0.0
  3
*D10
  1

  0
LINE
  5
6BBD
330
61A9
100
AcDbEntity
  8
0
  6
HIDDEN
 62
     0
370
    -2
100
AcDbLine
 10
-13.53402581714999
 20
1814.088297355199
 30
0.0
 11
-21.53402581715011
 21
1814.088297355199
 31
0.0
  0
LINE
  5
6BBE
330
61A9
100
AcDbEntity
  8
0
  6
HIDDEN
 62
     0
370
    -2
100
AcDbLine
 10
-21.53402581715011
 20
1814.088297355199
 30
0.0
 11
-30.42929280711451
 21
1829.46331181155
 31
0.0
  0
LINE
  5
6BBF
330
61A9
100
AcDbEntity
  8
0
  6
HIDDEN
 62
     0
370
    -2
100
AcDbLine
 10
-40.44490980881312
 20
1846.774794014852
 30
0.0
 11
-44.45115660949272
 21
1853.699386896173
 31
0.0
  0
MTEXT
  5
6BC0
330
61A9
100
AcDbEntity
  8
0
  6
HIDDEN
 62
     0
370
    -3
100
AcDbMText
 10
-7.772604497353312
 20
1814.088297355199
 30
0.0
 40
8.0
 41
0.0
 71
     5
 72
     1
  1
\A1;Ｆ
 11
0.9999999998476914
 21
-0.000017453292519
 31
0.0
 73
     1
 44
1.0
1001
ACAD
1000
MTEXTBEGIN
1070
    73
1070
     1
1070
    44
1040
1.0
1070
    74
1070
     0
1000
MTEXTEND
  0
LINE
  5
6BC1
330
61A9
100
AcDbEntity
  8
0
  6
HIDDEN
 62
     0
370
    -2
100
AcDbLine
 10
-36.4386630081334
 20
1839.850201133531
 30
0.0
 11
-34.43553960779411
 21
1836.387904692871
 31
0.0
  0
INSERT
  5
6BC2
330
61A9
100
AcDbEntity
  8
0
  6
HIDDEN
 62
     0
370
    -2
100
AcDbBlockReference
  2
_Open30
 10
-36.4386630081334
 20
1839.850201133531
 30
0.0
 41
8.0
 42
8.0
 43
8.0
 50
300.0516740861932
  0
INSERT
  5
6BC3
330
61A9
100
AcDbEntity
  8
0
  6
HIDDEN
 62
     0
370
    -2
100
AcDbBlockReference
  2
_Open30
 10
-34.43553960779411
 20
1836.387904692871
 30
0.0
 41
8.0
 42
8.0
 43
8.0
 50
120.0516740861932
  0
POINT
  5
6BC4
330
61A9
100
AcDbEntity
  8
Defpoints
  6
HIDDEN
 62
     0
100
AcDbPoint
 10
-34.43553960779411
 20
1836.387904692871
 30
0.0
  0
POINT
  5
6BC5
330
61A9
100
AcDbEntity
  8
Defpoints
  6
HIDDEN
 62
     0
100
AcDbPoint
 10
-36.4386630081334
 20
1839.850201133531
 30
0.0
  0
ENDBLK
  5
61B3
330
61A9
100
AcDbEntity
  8
0
100
AcDbBlockEnd
  0
BLOCK
  5
61BD
330
61B4
100
AcDbEntity
  8
0
100
AcDbBlockBegin
  2
*D11
 70
     1
 10
0.0
 20
0.0
 30
0.0
  3
*D11
  1

  0
LINE
  5
6BB4
330
61B4
100
AcDbEntity
  8
0
  6
HIDDEN
 62
     0
370
    -2
100
AcDbLine
 10
-88.43432407028343
 20
1811.844956414388
 30
0.0
 11
-96.43432407028342
 21
1811.844956414388
 31
0.0
  0
LINE
  5
6BB5
330
61B4
100
AcDbEntity
  8
0
  6
HIDDEN
 62
     0
370
    -2
100
AcDbLine
 10
-96.43432407028342
 20
1811.844956414388
 30
0.0
 11
-112.2379049023649
 21
1827.15988066047
 31
0.0
  0
LINE
  5
6BB6
330
61B4
100
AcDbEntity
  8
0
  6
HIDDEN
 62
     0
370
    -2
100
AcDbLine
 10
-126.600345023291
 20
1841.078225165935
 30
0.0
 11
-132.3453210716613
 21
1846.64556296812
 31
0.0
  0
MTEXT
  5
6BB7
330
61B4
100
AcDbEntity
  8
0
  6
HIDDEN
 62
     0
370
    -3
100
AcDbMText
 10
-82.38863879109578
 20
1811.844956414388
 30
0.0
 40
8.0
 41
0.0
 71
     5
 72
     1
  1
\A1;Ｅ
 11
0.9999999998476914
 21
-0.000017453292519
 31
0.0
 73
     1
 44
1.0
1001
ACAD
1000
MTEXTBEGIN
1070
    73
1070
     1
1070
    44
1040
1.0
1070
    74
1070
     0
1000
MTEXTEND
  0
LINE
  5
6BB8
330
61B4
100
AcDbEntity
  8
0
  6
HIDDEN
 62
     0
370
    -2
100
AcDbLine
 10
-120.8553689749204
 20
1835.510887363749
 30
0.0
 11
-117.9828809507354
 21
1832.727218462656
 31
0.0
  0
INSERT
  5
6BB9
330
61B4
100
AcDbEntity
  8
0
  6
HIDDEN
 62
     0
370
    -2
100
AcDbBlockReference
  2
_Open30
 10
-120.8553689749204
 20
1835.510887363749
 30
0.0
 41
8.0
 42
8.0
 43
8.0
 50
315.8996466561861
  0
INSERT
  5
6BBA
330
61B4
100
AcDbEntity
  8
0
  6
HIDDEN
 62
     0
370
    -2
100
AcDbBlockReference
  2
_Open30
 10
-117.9828809507354
 20
1832.727218462656
 30
0.0
 41
8.0
 42
8.0
 43
8.0
 50
135.899646656186
  0
POINT
  5
6BBB
330
61B4
100
AcDbEntity
  8
Defpoints
  6
HIDDEN
 62
     0
100
AcDbPoint
 10
-117.9828809507354
 20
1832.727218462656
 30
0.0
  0
POINT
  5
6BBC
330
61B4
100
AcDbEntity
  8
Defpoints
  6
HIDDEN
 62
     0
100
AcDbPoint
 10
-120.8553689749204
 20
1835.510887363749
 30
0.0
  0
ENDBLK
  5
61BE
330
61B4
100
AcDbEntity
  8
0
100
AcDbBlockEnd
  0
BLOCK
  5
61CB
330
61BF
100
AcDbEntity
  8
0
100
AcDbBlockBegin
  2
*D12
 70
     1
 10
0.0
 20
0.0
 30
0.0
  3
*D12
  1

  0
LINE
  5
6B2A
330
61BF
100
AcDbEntity
  8
0
  6
HIDDEN
 62
     0
370
    -2
100
AcDbLine
 10
-94.04797121834914
 20
1836.119052913202
 30
0.0
 11
-80.31906242748187
 21
1836.119052913202
 31
0.0
  0
LINE
  5
6B2B
330
61BF
100
AcDbEntity
  8
0
  6
HIDDEN
 62
     0
370
    -2
100
AcDbLine
 10
-93.41912496282828
 20
1840.119052913203
 30
0.0
 11
-80.31906242748187
 21
1840.119052913203
 31
0.0
  0
LINE
  5
6B2C
330
61BF
100
AcDbEntity
  8
0
  6
HIDDEN
 62
     0
370
    -2
100
AcDbLine
 10
-81.31906242748186
 20
1828.119052913203
 30
0.0
 11
-81.31906242748186
 21
1820.119052913202
 31
0.0
  0
LINE
  5
6B2D
330
61BF
100
AcDbEntity
  8
0
  6
HIDDEN
 62
     0
370
    -2
100
AcDbLine
 10
-81.31906242748186
 20
1848.119052913203
 30
0.0
 11
-81.31906242748186
 21
1856.119052913203
 31
0.0
  0
MTEXT
  5
6B2E
330
61BF
100
AcDbEntity
  8
0
  6
HIDDEN
 62
     0
100
AcDbMText
 10
-80.87138808012559
 20
1862.787905980951
 30
0.0
 40
8.0
 41
0.0
 71
     5
 72
     1
  1
\A1;Ｆ
 11
0.9999999998476914
 21
-0.000017453292519
 31
0.0
 73
     1
 44
1.0
1001
ACAD
1000
MTEXTBEGIN
1070
    73
1070
     1
1070
    44
1040
1.0
1070
    74
1070
     0
1000
MTEXTEND
  0
LINE
  5
6B2F
330
61BF
100
AcDbEntity
  8
0
  6
HIDDEN
 62
     0
370
    -2
100
AcDbLine
 10
-81.31906242748186
 20
1836.119052913202
 30
0.0
 11
-81.31906242748186
 21
1840.119052913203
 31
0.0
  0
INSERT
  5
6B30
330
61BF
100
AcDbEntity
  8
0
  6
HIDDEN
 62
     0
370
    -2
100
AcDbBlockReference
  2
_Open30
 10
-81.31906242748186
 20
1836.119052913202
 30
0.0
 41
8.0
 42
8.0
 43
8.0
 50
90.0
  0
INSERT
  5
6B31
330
61BF
100
AcDbEntity
  8
0
  6
HIDDEN
 62
     0
370
    -2
100
AcDbBlockReference
  2
_Open30
 10
-81.31906242748186
 20
1840.119052913203
 30
0.0
 41
8.0
 42
8.0
 43
8.0
 50
270.0
  0
POINT
  5
6B32
330
61BF
100
AcDbEntity
  8
Defpoints
  6
HIDDEN
 62
     0
100
AcDbPoint
 10
-95.04797121834913
 20
1836.119052913202
 30
0.0
  0
POINT
  5
6B33
330
61BF
100
AcDbEntity
  8
Defpoints
  6
HIDDEN
 62
     0
100
AcDbPoint
 10
-94.41912496282828
 20
1840.119052913203
 30
0.0
  0
POINT
  5
6B34
330
61BF
100
AcDbEntity
  8
Defpoints
  6
HIDDEN
 62
     0
100
AcDbPoint
 10
-81.31906242748186
 20
1840.119052913203
 30
0.0
  0
ENDBLK
  5
61CC
330
61BF
100
AcDbEntity
  8
0
100
AcDbBlockEnd
  0
BLOCK
  5
622A
330
621E
100
AcDbEntity
  8
0
100
AcDbBlockBegin
  2
*D13
 70
     1
 10
0.0
 20
0.0
 30
0.0
  3
*D13
  1

  0
LINE
  5
6B48
330
621E
100
AcDbEntity
  8
0
  6
HIDDEN
 62
     0
370
    -2
100
AcDbLine
 10
-22.41269373343983
 20
1832.119052913203
 30
0.0
 11
-17.21719737858306
 21
1832.119052913203
 31
0.0
  0
LINE
  5
6B49
330
621E
100
AcDbEntity
  8
0
  6
HIDDEN
 62
     0
370
    -2
100
AcDbLine
 10
-19.99321239381315
 20
1836.119052913203
 30
0.0
 11
-17.21719737858306
 21
1836.119052913203
 31
0.0
  0
LINE
  5
6B4A
330
621E
100
AcDbEntity
  8
0
  6
HIDDEN
 62
     0
370
    -2
100
AcDbLine
 10
-18.21719737858306
 20
1824.119052913203
 30
0.0
 11
-18.21719737858306
 21
1816.119052913203
 31
0.0
  0
LINE
  5
6B4B
330
621E
100
AcDbEntity
  8
0
  6
HIDDEN
 62
     0
370
    -2
100
AcDbLine
 10
-18.21719737858306
 20
1844.119052913203
 30
0.0
 11
-18.21719737858305
 21
1852.119052913203
 31
0.0
  0
MTEXT
  5
6B4C
330
621E
100
AcDbEntity
  8
0
  6
HIDDEN
 62
     0
100
AcDbMText
 10
-18.07158139356852
 20
1859.444932526353
 30
0.0
 40
8.0
 41
0.0
 71
     5
 72
     1
  1
\A1;Ｅ
 11
0.9999999998476914
 21
-0.000017453292519
 31
0.0
 73
     1
 44
1.0
1001
ACAD
1000
MTEXTBEGIN
1070
    73
1070
     1
1070
    44
1040
1.0
1070
    74
1070
     0
1000
MTEXTEND
  0
LINE
  5
6B4D
330
621E
100
AcDbEntity
  8
0
  6
HIDDEN
 62
     0
370
    -2
100
AcDbLine
 10
-18.21719737858306
 20
1832.119052913203
 30
0.0
 11
-18.21719737858306
 21
1836.119052913203
 31
0.0
  0
INSERT
  5
6B4E
330
621E
100
AcDbEntity
  8
0
  6
HIDDEN
 62
     0
370
    -2
100
AcDbBlockReference
  2
_Open30
 10
-18.21719737858306
 20
1832.119052913203
 30
0.0
 41
8.0
 42
8.0
 43
8.0
 50
90.0
  0
INSERT
  5
6B4F
330
621E
100
AcDbEntity
  8
0
  6
HIDDEN
 62
     0
370
    -2
100
AcDbBlockReference
  2
_Open30
 10
-18.21719737858306
 20
1836.119052913203
 30
0.0
 41
8.0
 42
8.0
 43
8.0
 50
270.0
  0
POINT
  5
6B50
330
621E
100
AcDbEntity
  8
Defpoints
  6
HIDDEN
 62
     0
100
AcDbPoint
 10
-23.41269373343983
 20
1832.119052913203
 30
0.0
  0
POINT
  5
6B51
330
621E
100
AcDbEntity
  8
Defpoints
  6
HIDDEN
 62
     0
100
AcDbPoint
 10
-20.99321239381315
 20
1836.119052913203
 30
0.0
  0
POINT
  5
6B52
330
621E
100
AcDbEntity
  8
Defpoints
  6
HIDDEN
 62
     0
100
AcDbPoint
 10
-18.21719737858306
 20
1836.119052913203
 30
0.0
  0
ENDBLK
  5
622B
330
621E
100
AcDbEntity
  8
0
100
AcDbBlockEnd
  0
BLOCK
  5
6608
330
65FE
100
AcDbEntity
  8
0
100
AcDbBlockBegin
  2
*D14
 70
     1
 10
0.0
 20
0.0
 30
0.0
  3
*D14
  1

  0
LINE
  5
6E98
330
65FE
100
AcDbEntity
  8
0
  6
HIDDEN
 62
     0
370
    -2
100
AcDbLine
 10
95.07718076814986
 20
1841.327052913203
 30
0.0
 11
53.42728733508039
 21
1841.327052913203
 31
0.0
  0
LINE
  5
6E99
330
65FE
100
AcDbEntity
  8
0
  6
HIDDEN
 62
     0
370
    -2
100
AcDbLine
 10
92.2371807681498
 20
1881.087052913203
 30
0.0
 11
53.42728733508039
 21
1881.087052913203
 31
0.0
  0
LINE
  5
6E9A
330
65FE
100
AcDbEntity
  8
0
  6
HIDDEN
 62
     0
370
    -2
100
AcDbLine
 10
54.42728733508039
 20
1849.327052913203
 30
0.0
 11
54.42728733508039
 21
1873.087052913203
 31
0.0
  0
MTEXT
  5
6E9B
330
65FE
100
AcDbEntity
  8
0
  6
HIDDEN
 62
     0
370
    -3
100
AcDbMText
 10
47.50592618062228
 20
1859.260210317046
 30
0.0
 40
8.0
 41
0.0
 71
     5
 72
     1
  1
\A1;Ｃ
 11
0.9999999998476914
 21
-0.000017453292519
 31
0.0
 73
     1
 44
1.0
1001
ACAD
1000
MTEXTBEGIN
1070
    73
1070
     1
1070
    44
1040
1.0
1070
    74
1070
     0
1000
MTEXTEND
  0
INSERT
  5
6E9C
330
65FE
100
AcDbEntity
  8
0
  6
HIDDEN
 62
     0
370
    -2
100
AcDbBlockReference
  2
_Open30
 10
54.42728733508039
 20
1841.327052913203
 30
0.0
 41
8.0
 42
8.0
 43
8.0
 50
270.0
  0
INSERT
  5
6E9D
330
65FE
100
AcDbEntity
  8
0
  6
HIDDEN
 62
     0
370
    -2
100
AcDbBlockReference
  2
_Open30
 10
54.42728733508039
 20
1881.087052913203
 30
0.0
 41
8.0
 42
8.0
 43
8.0
 50
90.0
  0
POINT
  5
6E9E
330
65FE
100
AcDbEntity
  8
Defpoints
  6
HIDDEN
 62
     0
100
AcDbPoint
 10
96.07718076814986
 20
1841.327052913203
 30
0.0
  0
POINT
  5
6E9F
330
65FE
100
AcDbEntity
  8
Defpoints
  6
HIDDEN
 62
     0
100
AcDbPoint
 10
93.23718076814982
 20
1881.087052913203
 30
0.0
  0
POINT
  5
6EA0
330
65FE
100
AcDbEntity
  8
Defpoints
  6
HIDDEN
 62
     0
100
AcDbPoint
 10
54.42728733508039
 20
1881.087052913203
 30
0.0
  0
ENDBLK
  5
6609
330
65FE
100
AcDbEntity
  8
0
100
AcDbBlockEnd
  0
BLOCK
  5
6614
330
660A
100
AcDbEntity
  8
0
100
AcDbBlockBegin
  2
*D15
 70
     1
 10
0.0
 20
0.0
 30
0.0
  3
*D15
  1

  0
LINE
  5
6EAB
330
660A
100
AcDbEntity
  8
0
  6
HIDDEN
 62
     0
370
    -2
100
AcDbLine
 10
95.07718076814986
 20
1841.327052913203
 30
0.0
 11
53.42728733508039
 21
1841.327052913203
 31
0.0
  0
LINE
  5
6EAC
330
660A
100
AcDbEntity
  8
0
  6
HIDDEN
 62
     0
370
    -2
100
AcDbLine
 10
95.07718076814986
 20
1781.119052913203
 30
0.0
 11
53.42728733508035
 21
1781.119052913203
 31
0.0
  0
LINE
  5
6EAD
330
660A
100
AcDbEntity
  8
0
  6
HIDDEN
 62
     0
370
    -2
100
AcDbLine
 10
54.42728733508038
 20
1833.327052913203
 30
0.0
 11
54.42728733508037
 21
1789.119052913203
 31
0.0
  0
MTEXT
  5
6EAE
330
660A
100
AcDbEntity
  8
0
  6
HIDDEN
 62
     0
370
    -3
100
AcDbMText
 10
47.79396670206279
 20
1808.305397353228
 30
0.0
 40
8.0
 41
0.0
 71
     5
 72
     1
  1
\A1;Ｂ
 11
0.9999999998476914
 21
-0.000017453292519
 31
0.0
 73
     1
 44
1.0
1001
ACAD
1000
MTEXTBEGIN
1070
    73
1070
     1
1070
    44
1040
1.0
1070
    74
1070
     0
1000
MTEXTEND
  0
INSERT
  5
6EAF
330
660A
100
AcDbEntity
  8
0
  6
HIDDEN
 62
     0
370
    -2
100
AcDbBlockReference
  2
_Open30
 10
54.42728733508038
 20
1841.327052913203
 30
0.0
 41
8.0
 42
8.0
 43
8.0
 50
90.0
  0
INSERT
  5
6EB0
330
660A
100
AcDbEntity
  8
0
  6
HIDDEN
 62
     0
370
    -2
100
AcDbBlockReference
  2
_Open30
 10
54.42728733508037
 20
1781.119052913203
 30
0.0
 41
8.0
 42
8.0
 43
8.0
 50
270.0
  0
POINT
  5
6EB1
330
660A
100
AcDbEntity
  8
Defpoints
  6
HIDDEN
 62
     0
100
AcDbPoint
 10
96.07718076814986
 20
1841.327052913203
 30
0.0
  0
POINT
  5
6EB2
330
660A
100
AcDbEntity
  8
Defpoints
  6
HIDDEN
 62
     0
100
AcDbPoint
 10
96.07718076814986
 20
1781.119052913203
 30
0.0
  0
POINT
  5
6EB3
330
660A
100
AcDbEntity
  8
Defpoints
  6
HIDDEN
 62
     0
100
AcDbPoint
 10
54.42728733508037
 20
1781.119052913203
 30
0.0
  0
ENDBLK
  5
6615
330
660A
100
AcDbEntity
  8
0
100
AcDbBlockEnd
  0
BLOCK
  5
6620
330
6616
100
AcDbEntity
  8
0
100
AcDbBlockBegin
  2
*D16
 70
     1
 10
0.0
 20
0.0
 30
0.0
  3
*D16
  1

  0
LINE
  5
6E71
330
6616
100
AcDbEntity
  8
0
  6
HIDDEN
 62
     0
370
    -2
100
AcDbLine
 10
201.2841538071065
 20
1882.087052913203
 30
0.0
 11
201.2841538071065
 21
1893.543993454805
 31
0.0
  0
LINE
  5
6E72
330
6616
100
AcDbEntity
  8
0
  6
HIDDEN
 62
     0
370
    -2
100
AcDbLine
 10
178.5641538071065
 20
1842.327052913203
 30
0.0
 11
178.5641538071065
 21
1893.543993454805
 31
0.0
  0
LINE
  5
6E73
330
6616
100
AcDbEntity
  8
0
  6
HIDDEN
 62
     0
370
    -2
100
AcDbLine
 10
193.2841538071065
 20
1892.543993454805
 30
0.0
 11
186.5641538071065
 21
1892.543993454805
 31
0.0
  0
INSERT
  5
6E74
330
6616
100
AcDbEntity
  8
0
  6
HIDDEN
 62
     0
370
    -2
100
AcDbBlockReference
  2
_Open30
 10
201.2841538071065
 20
1892.543993454805
 30
0.0
 41
8.0
 42
8.0
 43
8.0
  0
INSERT
  5
6E75
330
6616
100
AcDbEntity
  8
0
  6
HIDDEN
 62
     0
370
    -2
100
AcDbBlockReference
  2
_Open30
 10
178.5641538071065
 20
1892.543993454805
 30
0.0
 41
8.0
 42
8.0
 43
8.0
 50
180.0
  0
MTEXT
  5
6E76
330
6616
100
AcDbEntity
  8
0
  6
HIDDEN
 62
     0
370
    -3
100
AcDbMText
 10
189.9241538071065
 20
1899.543993454805
 30
0.0
 40
8.0
 41
0.0
 71
     5
 72
     1
  1
\A1;Ｄ
 73
     1
 44
1.0
1001
ACAD
1000
MTEXTBEGIN
1070
    73
1070
     1
1070
    44
1040
1.0
1070
    74
1070
     0
1000
MTEXTEND
  0
POINT
  5
6E77
330
6616
100
AcDbEntity
  8
Defpoints
  6
HIDDEN
 62
     0
100
AcDbPoint
 10
201.2841538071065
 20
1881.087052913203
 30
0.0
  0
POINT
  5
6E78
330
6616
100
AcDbEntity
  8
Defpoints
  6
HIDDEN
 62
     0
100
AcDbPoint
 10
178.5641538071065
 20
1841.327052913203
 30
0.0
  0
POINT
  5
6E79
330
6616
100
AcDbEntity
  8
Defpoints
  6
HIDDEN
 62
     0
100
AcDbPoint
 10
178.5641538071065
 20
1892.543993454805
 30
0.0
  0
ENDBLK
  5
6621
330
6616
100
AcDbEntity
  8
0
100
AcDbBlockEnd
  0
BLOCK
  5
662C
330
6622
100
AcDbEntity
  8
0
100
AcDbBlockBegin
  2
*D17
 70
     1
 10
0.0
 20
0.0
 30
0.0
  3
*D17
  1

  0
LINE
  5
6B7A
330
6622
100
AcDbEntity
  8
0
  6
HIDDEN
 62
     0
370
    -2
100
AcDbLine
 10
96.07718076814986
 20
1882.087052913203
 30
0.0
 11
96.07718076814986
 21
1893.447052913203
 31
0.0
  0
LINE
  5
6B7B
330
6622
100
AcDbEntity
  8
0
  6
HIDDEN
 62
     0
370
    -2
100
AcDbLine
 10
67.67718076814983
 20
1843.544195770346
 30
0.0
 11
67.67718076814983
 21
1893.447052913203
 31
0.0
  0
LINE
  5
6B7C
330
6622
100
AcDbEntity
  8
0
  6
HIDDEN
 62
     0
370
    -2
100
AcDbLine
 10
88.07718076814985
 20
1892.447052913203
 30
0.0
 11
75.67718076814981
 21
1892.447052913203
 31
0.0
  0
INSERT
  5
6B7D
330
6622
100
AcDbEntity
  8
0
  6
HIDDEN
 62
     0
370
    -2
100
AcDbBlockReference
  2
_Open30
 10
96.07718076814986
 20
1892.447052913203
 30
0.0
 41
8.0
 42
8.0
 43
8.0
  0
INSERT
  5
6B7E
330
6622
100
AcDbEntity
  8
0
  6
HIDDEN
 62
     0
370
    -2
100
AcDbBlockReference
  2
_Open30
 10
67.67718076814983
 20
1892.447052913203
 30
0.0
 41
8.0
 42
8.0
 43
8.0
 50
180.0
  0
MTEXT
  5
6B7F
330
6622
100
AcDbEntity
  8
0
  6
HIDDEN
 62
     0
370
    -3
100
AcDbMText
 10
81.87718076814983
 20
1899.447052913203
 30
0.0
 40
8.0
 41
0.0
 71
     5
 72
     1
  1
\A1;Ｇ
 73
     1
 44
1.0
1001
ACAD
1000
MTEXTBEGIN
1070
    73
1070
     1
1070
    44
1040
1.0
1070
    74
1070
     0
1000
MTEXTEND
  0
POINT
  5
6B80
330
6622
100
AcDbEntity
  8
Defpoints
  6
HIDDEN
 62
     0
100
AcDbPoint
 10
96.07718076814986
 20
1881.087052913203
 30
0.0
  0
POINT
  5
6B81
330
6622
100
AcDbEntity
  8
Defpoints
  6
HIDDEN
 62
     0
100
AcDbPoint
 10
67.67718076814983
 20
1842.544195770345
 30
0.0
  0
POINT
  5
6B82
330
6622
100
AcDbEntity
  8
Defpoints
  6
HIDDEN
 62
     0
100
AcDbPoint
 10
67.67718076814983
 20
1892.447052913203
 30
0.0
  0
ENDBLK
  5
662D
330
6622
100
AcDbEntity
  8
0
100
AcDbBlockEnd
  0
BLOCK
  5
6638
330
662E
100
AcDbEntity
  8
0
100
AcDbBlockBegin
  2
*D18
 70
     1
 10
0.0
 20
0.0
 30
0.0
  3
*D18
  1

  0
LINE
  5
6B71
330
662E
100
AcDbEntity
  8
0
  6
HIDDEN
 62
     0
370
    -2
100
AcDbLine
 10
96.07718076814986
 20
1882.087052913203
 30
0.0
 11
96.07718076814986
 21
1893.447052913203
 31
0.0
  0
LINE
  5
6B72
330
662E
100
AcDbEntity
  8
0
  6
HIDDEN
 62
     0
370
    -2
100
AcDbLine
 10
124.4771807681498
 20
1843.544195770346
 30
0.0
 11
124.4771807681498
 21
1893.447052913203
 31
0.0
  0
LINE
  5
6B73
330
662E
100
AcDbEntity
  8
0
  6
HIDDEN
 62
     0
370
    -2
100
AcDbLine
 10
104.0771807681498
 20
1892.447052913203
 30
0.0
 11
116.4771807681498
 21
1892.447052913203
 31
0.0
  0
INSERT
  5
6B74
330
662E
100
AcDbEntity
  8
0
  6
HIDDEN
 62
     0
370
    -2
100
AcDbBlockReference
  2
_Open30
 10
96.07718076814986
 20
1892.447052913203
 30
0.0
 41
8.0
 42
8.0
 43
8.0
 50
180.0
  0
INSERT
  5
6B75
330
662E
100
AcDbEntity
  8
0
  6
HIDDEN
 62
     0
370
    -2
100
AcDbBlockReference
  2
_Open30
 10
124.4771807681498
 20
1892.447052913203
 30
0.0
 41
8.0
 42
8.0
 43
8.0
  0
MTEXT
  5
6B76
330
662E
100
AcDbEntity
  8
0
  6
HIDDEN
 62
     0
370
    -3
100
AcDbMText
 10
110.2771807681498
 20
1899.447052913203
 30
0.0
 40
8.0
 41
0.0
 71
     5
 72
     1
  1
\A1;Ｇ
 73
     1
 44
1.0
1001
ACAD
1000
MTEXTBEGIN
1070
    73
1070
     1
1070
    44
1040
1.0
1070
    74
1070
     0
1000
MTEXTEND
  0
POINT
  5
6B77
330
662E
100
AcDbEntity
  8
Defpoints
  6
HIDDEN
 62
     0
100
AcDbPoint
 10
96.07718076814986
 20
1881.087052913203
 30
0.0
  0
POINT
  5
6B78
330
662E
100
AcDbEntity
  8
Defpoints
  6
HIDDEN
 62
     0
100
AcDbPoint
 10
124.4771807681498
 20
1842.544195770345
 30
0.0
  0
POINT
  5
6B79
330
662E
100
AcDbEntity
  8
Defpoints
  6
HIDDEN
 62
     0
100
AcDbPoint
 10
124.4771807681498
 20
1892.447052913203
 30
0.0
  0
ENDBLK
  5
6639
330
662E
100
AcDbEntity
  8
0
100
AcDbBlockEnd
  0
BLOCK
  5
6644
330
663A
100
AcDbEntity
  8
0
100
AcDbBlockBegin
  2
*D19
 70
     1
 10
0.0
 20
0.0
 30
0.0
  3
*D19
  1

  0
LINE
  5
6EC8
330
663A
100
AcDbEntity
  8
0
  6
HIDDEN
 62
     0
370
    -2
100
AcDbLine
 10
95.07718076814986
 20
1881.087052913203
 30
0.0
 11
33.9762234005848
 21
1881.087052913203
 31
0.0
  0
LINE
  5
6EC9
330
663A
100
AcDbEntity
  8
0
  6
HIDDEN
 62
     0
370
    -2
100
AcDbLine
 10
95.07718076814986
 20
1781.119052913203
 30
0.0
 11
33.97622340058479
 21
1781.119052913203
 31
0.0
  0
LINE
  5
6ECA
330
663A
100
AcDbEntity
  8
0
  6
HIDDEN
 62
     0
370
    -2
100
AcDbLine
 10
34.9762234005848
 20
1873.087052913203
 30
0.0
 11
34.97622340058479
 21
1789.119052913203
 31
0.0
  0
MTEXT
  5
6ECB
330
663A
100
AcDbEntity
  8
0
  6
HIDDEN
 62
     0
370
    -3
100
AcDbMText
 10
27.76694140773907
 20
1831.08386802046
 30
0.0
 40
8.0
 41
0.0
 71
     5
 72
     1
  1
\A1;Ａ
 11
0.9999999998476914
 21
-0.000017453292519
 31
0.0
 73
     1
 44
1.0
1001
ACAD
1000
MTEXTBEGIN
1070
    73
1070
     1
1070
    44
1040
1.0
1070
    74
1070
     0
1000
MTEXTEND
  0
INSERT
  5
6ECC
330
663A
100
AcDbEntity
  8
0
  6
HIDDEN
 62
     0
370
    -2
100
AcDbBlockReference
  2
_Open30
 10
34.9762234005848
 20
1881.087052913203
 30
0.0
 41
8.0
 42
8.0
 43
8.0
 50
90.0
  0
INSERT
  5
6ECD
330
663A
100
AcDbEntity
  8
0
  6
HIDDEN
 62
     0
370
    -2
100
AcDbBlockReference
  2
_Open30
 10
34.97622340058479
 20
1781.119052913203
 30
0.0
 41
8.0
 42
8.0
 43
8.0
 50
270.0
  0
POINT
  5
6ECE
330
663A
100
AcDbEntity
  8
Defpoints
  6
HIDDEN
 62
     0
100
AcDbPoint
 10
96.07718076814986
 20
1881.087052913203
 30
0.0
  0
POINT
  5
6ECF
330
663A
100
AcDbEntity
  8
Defpoints
  6
HIDDEN
 62
     0
100
AcDbPoint
 10
96.07718076814986
 20
1781.119052913203
 30
0.0
  0
POINT
  5
6ED0
330
663A
100
AcDbEntity
  8
Defpoints
  6
HIDDEN
 62
     0
100
AcDbPoint
 10
34.97622340058479
 20
1781.119052913203
 30
0.0
  0
ENDBLK
  5
6645
330
663A
100
AcDbEntity
  8
0
100
AcDbBlockEnd
  0
BLOCK
  5
664F
330
6646
100
AcDbEntity
  8
0
100
AcDbBlockBegin
  2
*D20
 70
     1
 10
0.0
 20
0.0
 30
0.0
  3
*D20
  1

  0
LINE
  5
6F33
330
6646
100
AcDbEntity
  8
0
  6
HIDDEN
 62
     0
370
    -2
100
AcDbLine
 10
239.2227937993672
 20
1799.091861093502
 30
0.0
 11
231.2227937993674
 21
1799.091861093502
 31
0.0
  0
LINE
  5
6F34
330
6646
100
AcDbEntity
  8
0
  6
HIDDEN
 62
     0
370
    -2
100
AcDbLine
 10
231.2227937993674
 20
1799.091861093502
 30
0.0
 11
208.7852377002958
 21
1837.029635287165
 31
0.0
  0
LINE
  5
6F35
330
6646
100
AcDbEntity
  8
0
  6
HIDDEN
 62
     0
370
    -2
100
AcDbLine
 10
198.327069913919
 20
1854.712470539237
 30
0.0
 11
194.2545746700025
 21
1861.598309811852
 31
0.0
  0
MTEXT
  5
6F36
330
6646
100
AcDbEntity
  8
0
  6
HIDDEN
 62
     0
370
    -3
100
AcDbMText
 10
244.9842151191641
 20
1799.091861093502
 30
0.0
 40
8.0
 41
0.0
 71
     5
 72
     1
  1
\A1;Ｆ
 11
0.9999999998476914
 21
-0.000017453292519
 31
0.0
 73
     1
 44
1.0
1001
ACAD
1000
MTEXTBEGIN
1070
    73
1070
     1
1070
    44
1040
1.0
1070
    74
1070
     0
1000
MTEXTEND
  0
LINE
  5
6F37
330
6646
100
AcDbEntity
  8
0
  6
HIDDEN
 62
     0
370
    -2
100
AcDbLine
 10
202.3995651578356
 20
1847.826631266623
 30
0.0
 11
204.7127424563794
 21
1843.915474559779
 31
0.0
  0
INSERT
  5
6F38
330
6646
100
AcDbEntity
  8
0
  6
HIDDEN
 62
     0
370
    -2
100
AcDbBlockReference
  2
_Open30
 10
202.3995651578356
 20
1847.826631266623
 30
0.0
 41
8.0
 42
8.0
 43
8.0
 50
300.601363920671
  0
INSERT
  5
6F39
330
6646
100
AcDbEntity
  8
0
  6
HIDDEN
 62
     0
370
    -2
100
AcDbBlockReference
  2
_Open30
 10
204.7127424563794
 20
1843.915474559779
 30
0.0
 41
8.0
 42
8.0
 43
8.0
 50
120.601363920671
  0
POINT
  5
6F3A
330
6646
100
AcDbEntity
  8
Defpoints
  6
HIDDEN
 62
     0
100
AcDbPoint
 10
204.7127424563794
 20
1843.915474559779
 30
0.0
  0
POINT
  5
6F3B
330
6646
100
AcDbEntity
  8
Defpoints
  6
HIDDEN
 62
     0
100
AcDbPoint
 10
202.3995651578356
 20
1847.826631266623
 30
0.0
  0
ENDBLK
  5
6650
330
6646
100
AcDbEntity
  8
0
100
AcDbBlockEnd
  0
BLOCK
  5
665A
330
6651
100
AcDbEntity
  8
0
100
AcDbBlockBegin
  2
*D21
 70
     1
 10
0.0
 20
0.0
 30
0.0
  3
*D21
  1

  0
LINE
  5
6E68
330
6651
100
AcDbEntity
  8
0
  6
HIDDEN
 62
     0
370
    -2
100
AcDbLine
 10
128.8922999288566
 20
1799.041122214255
 30
0.0
 11
120.8922999288565
 21
1799.041122214255
 31
0.0
  0
LINE
  5
6E69
330
6651
100
AcDbEntity
  8
0
  6
HIDDEN
 62
     0
370
    -2
100
AcDbLine
 10
120.8922999288565
 20
1799.041122214255
 30
0.0
 11
101.2761120085496
 21
1832.467871350688
 31
0.0
  0
LINE
  5
6E6A
330
6651
100
AcDbEntity
  8
0
  6
HIDDEN
 62
     0
370
    -2
100
AcDbLine
 10
90.87824952775113
 20
1850.186234475717
 30
0.0
 11
86.82923765828105
 21
1857.085908589824
 31
0.0
  0
MTEXT
  5
6E6B
330
6651
100
AcDbEntity
  8
0
  6
HIDDEN
 62
     0
370
    -3
100
AcDbMText
 10
134.9379852080442
 20
1799.041122214255
 30
0.0
 40
8.0
 41
0.0
 71
     5
 72
     1
  1
\A1;Ｅ
 11
0.9999999998476914
 21
-0.000017453292519
 31
0.0
 73
     1
 44
1.0
1001
ACAD
1000
MTEXTBEGIN
1070
    73
1070
     1
1070
    44
1040
1.0
1070
    74
1070
     0
1000
MTEXTEND
  0
LINE
  5
6E6C
330
6651
100
AcDbEntity
  8
0
  6
HIDDEN
 62
     0
370
    -2
100
AcDbLine
 10
94.92726139722115
 20
1843.286560361608
 30
0.0
 11
97.22710013907956
 21
1839.367545464796
 31
0.0
  0
INSERT
  5
6E6D
330
6651
100
AcDbEntity
  8
0
  6
HIDDEN
 62
     0
370
    -2
100
AcDbBlockReference
  2
_Open30
 10
94.92726139722115
 20
1843.286560361608
 30
0.0
 41
8.0
 42
8.0
 43
8.0
 50
300.4061594469185
  0
INSERT
  5
6E6E
330
6651
100
AcDbEntity
  8
0
  6
HIDDEN
 62
     0
370
    -2
100
AcDbBlockReference
  2
_Open30
 10
97.22710013907956
 20
1839.367545464796
 30
0.0
 41
8.0
 42
8.0
 43
8.0
 50
120.4061594469185
  0
POINT
  5
6E6F
330
6651
100
AcDbEntity
  8
Defpoints
  6
HIDDEN
 62
     0
100
AcDbPoint
 10
97.22710013907956
 20
1839.367545464796
 30
0.0
  0
POINT
  5
6E70
330
6651
100
AcDbEntity
  8
Defpoints
  6
HIDDEN
 62
     0
100
AcDbPoint
 10
94.92726139722115
 20
1843.286560361608
 30
0.0
  0
ENDBLK
  5
665B
330
6651
100
AcDbEntity
  8
0
100
AcDbBlockEnd
  0
BLOCK
  5
6668
330
665C
100
AcDbEntity
  8
0
100
AcDbBlockBegin
  2
*D22
 70
     1
 10
0.0
 20
0.0
 30
0.0
  3
*D22
  1

  0
LINE
  5
6F26
330
665C
100
AcDbEntity
  8
0
  6
HIDDEN
 62
     0
370
    -2
100
AcDbLine
 10
124.7628114218781
 20
1843.599052913203
 30
0.0
 11
134.9575119404949
 21
1843.599052913203
 31
0.0
  0
LINE
  5
6F27
330
665C
100
AcDbEntity
  8
0
  6
HIDDEN
 62
     0
370
    -2
100
AcDbLine
 10
125.4771807681498
 20
1848.143052913203
 30
0.0
 11
134.9575119404949
 21
1848.143052913203
 31
0.0
  0
LINE
  5
6F28
330
665C
100
AcDbEntity
  8
0
  6
HIDDEN
 62
     0
370
    -2
100
AcDbLine
 10
133.9575119404949
 20
1835.599052913203
 30
0.0
 11
133.9575119404949
 21
1827.599052913203
 31
0.0
  0
LINE
  5
6F29
330
665C
100
AcDbEntity
  8
0
  6
HIDDEN
 62
     0
370
    -2
100
AcDbLine
 10
133.957511940495
 20
1856.143052913203
 30
0.0
 11
133.957511940495
 21
1864.143052913203
 31
0.0
  0
LINE
  5
6F2A
330
665C
100
AcDbEntity
  8
0
  6
HIDDEN
 62
     0
370
    -2
100
AcDbLine
 10
141.9575119404949
 20
1899.821527609583
 30
0.0
 11
133.957511940495
 21
1899.821527609583
 31
0.0
  0
LINE
  5
6F2B
330
665C
100
AcDbEntity
  8
0
  6
HIDDEN
 62
     0
370
    -2
100
AcDbLine
 10
133.957511940495
 20
1899.821527609583
 30
0.0
 11
133.957511940495
 21
1864.143052913203
 31
0.0
  0
MTEXT
  5
6F2C
330
665C
100
AcDbEntity
  8
0
  6
HIDDEN
 62
     0
100
AcDbMText
 10
147.7189332602916
 20
1899.821527609583
 30
0.0
 40
8.0
 41
0.0
 71
     5
 72
     1
  1
\A1;Ｆ
 11
0.9999999998476914
 21
-0.000017453292519
 31
0.0
 73
     1
 44
1.0
1001
ACAD
1000
MTEXTBEGIN
1070
    73
1070
     1
1070
    44
1040
1.0
1070
    74
1070
     0
1000
MTEXTEND
  0
LINE
  5
6F2D
330
665C
100
AcDbEntity
  8
0
  6
HIDDEN
 62
     0
370
    -2
100
AcDbLine
 10
133.9575119404949
 20
1843.599052913203
 30
0.0
 11
133.9575119404949
 21
1848.143052913203
 31
0.0
  0
INSERT
  5
6F2E
330
665C
100
AcDbEntity
  8
0
  6
HIDDEN
 62
     0
370
    -2
100
AcDbBlockReference
  2
_Open30
 10
133.9575119404949
 20
1843.599052913203
 30
0.0
 41
8.0
 42
8.0
 43
8.0
 50
90.0
  0
INSERT
  5
6F2F
330
665C
100
AcDbEntity
  8
0
  6
HIDDEN
 62
     0
370
    -2
100
AcDbBlockReference
  2
_Open30
 10
133.9575119404949
 20
1848.143052913203
 30
0.0
 41
8.0
 42
8.0
 43
8.0
 50
270.0
  0
POINT
  5
6F30
330
665C
100
AcDbEntity
  8
Defpoints
  6
HIDDEN
 62
     0
100
AcDbPoint
 10
123.7628114218781
 20
1843.599052913203
 30
0.0
  0
POINT
  5
6F31
330
665C
100
AcDbEntity
  8
Defpoints
  6
HIDDEN
 62
     0
100
AcDbPoint
 10
124.4771807681498
 20
1848.143052913203
 30
0.0
  0
POINT
  5
6F32
330
665C
100
AcDbEntity
  8
Defpoints
  6
HIDDEN
 62
     0
100
AcDbPoint
 10
133.9575119404949
 20
1848.143052913203
 30
0.0
  0
ENDBLK
  5
6669
330
665C
100
AcDbEntity
  8
0
100
AcDbBlockEnd
  0
BLOCK
  5
6676
330
666A
100
AcDbEntity
  8
0
100
AcDbBlockBegin
  2
*D23
 70
     1
 10
0.0
 20
0.0
 30
0.0
  3
*D23
  1

  0
LINE
  5
6EF2
330
666A
100
AcDbEntity
  8
0
  6
HIDDEN
 62
     0
370
    -2
100
AcDbLine
 10
218.2158808117669
 20
1839.055052913203
 30
0.0
 11
224.1179646708843
 21
1839.055052913203
 31
0.0
  0
LINE
  5
6EF3
330
666A
100
AcDbEntity
  8
0
  6
HIDDEN
 62
     0
370
    -2
100
AcDbLine
 10
220.9644116135829
 20
1843.599052913203
 30
0.0
 11
224.1179646708843
 21
1843.599052913203
 31
0.0
  0
LINE
  5
6EF4
330
666A
100
AcDbEntity
  8
0
  6
HIDDEN
 62
     0
370
    -2
100
AcDbLine
 10
223.1179646708842
 20
1831.055052913203
 30
0.0
 11
223.1179646708842
 21
1823.055052913203
 31
0.0
  0
LINE
  5
6EF5
330
666A
100
AcDbEntity
  8
0
  6
HIDDEN
 62
     0
370
    -2
100
AcDbLine
 10
223.1179646708842
 20
1851.599052913203
 30
0.0
 11
223.1179646708843
 21
1859.599052913203
 31
0.0
  0
LINE
  5
6EF6
330
666A
100
AcDbEntity
  8
0
  6
HIDDEN
 62
     0
370
    -2
100
AcDbLine
 10
231.1179646708843
 20
1899.230180255647
 30
0.0
 11
223.1179646708843
 21
1899.230180255647
 31
0.0
  0
LINE
  5
6EF7
330
666A
100
AcDbEntity
  8
0
  6
HIDDEN
 62
     0
370
    -2
100
AcDbLine
 10
223.1179646708843
 20
1899.230180255647
 30
0.0
 11
223.1179646708843
 21
1859.599052913203
 31
0.0
  0
MTEXT
  5
6EF8
330
666A
100
AcDbEntity
  8
0
  6
HIDDEN
 62
     0
100
AcDbMText
 10
237.1636499500718
 20
1899.230180255647
 30
0.0
 40
8.0
 41
0.0
 71
     5
 72
     1
  1
\A1;Ｅ
 11
0.9999999998476914
 21
-0.000017453292519
 31
0.0
 73
     1
 44
1.0
1001
ACAD
1000
MTEXTBEGIN
1070
    73
1070
     1
1070
    44
1040
1.0
1070
    74
1070
     0
1000
MTEXTEND
  0
LINE
  5
6EF9
330
666A
100
AcDbEntity
  8
0
  6
HIDDEN
 62
     0
370
    -2
100
AcDbLine
 10
223.1179646708842
 20
1839.055052913203
 30
0.0
 11
223.1179646708842
 21
1843.599052913203
 31
0.0
  0
INSERT
  5
6EFA
330
666A
100
AcDbEntity
  8
0
  6
HIDDEN
 62
     0
370
    -2
100
AcDbBlockReference
  2
_Open30
 10
223.1179646708842
 20
1839.055052913203
 30
0.0
 41
8.0
 42
8.0
 43
8.0
 50
90.0
  0
INSERT
  5
6EFB
330
666A
100
AcDbEntity
  8
0
  6
HIDDEN
 62
     0
370
    -2
100
AcDbBlockReference
  2
_Open30
 10
223.1179646708842
 20
1843.599052913203
 30
0.0
 41
8.0
 42
8.0
 43
8.0
 50
270.0
  0
POINT
  5
6EFC
330
666A
100
AcDbEntity
  8
Defpoints
  6
HIDDEN
 62
     0
100
AcDbPoint
 10
217.215880811767
 20
1839.055052913203
 30
0.0
  0
POINT
  5
6EFD
330
666A
100
AcDbEntity
  8
Defpoints
  6
HIDDEN
 62
     0
100
AcDbPoint
 10
219.9644116135829
 20
1843.599052913203
 30
0.0
  0
POINT
  5
6EFE
330
666A
100
AcDbEntity
  8
Defpoints
  6
HIDDEN
 62
     0
100
AcDbPoint
 10
223.1179646708842
 20
1843.599052913203
 30
0.0
  0
ENDBLK
  5
6677
330
666A
100
AcDbEntity
  8
0
100
AcDbBlockEnd
  0
ENDSEC
  0
SECTION
  2
ENTITIES
  0
CIRCLE
  5
658E
330
1F
100
AcDbEntity
  8
Object
370
    -3
100
AcDbCircle
 10
96.07718076814986
 20
1841.327052913203
 30
0.0
 40
2.271999999999998
  0
ARC
  5
658F
330
1F
100
AcDbEntity
  8
Object
370
    -3
100
AcDbCircle
 10
96.07718076814986
 20
1841.327052913203
 30
0.0
 40
7.099999999999997
100
AcDbArc
 50
161.3370751150472
 51
227.1563569564161
  0
ARC
  5
6590
330
1F
100
AcDbEntity
  8
Object
370
    -3
100
AcDbCircle
 10
96.07718076814986
 20
1841.327052913203
 30
0.0
 40
7.099999999999997
100
AcDbArc
 50
312.8436430435839
 51
18.66292488495276
  0
ARC
  5
6591
330
1F
100
AcDbEntity
  8
Object
370
    -3
100
AcDbCircle
 10
96.07718076814986
 20
1878.247052913203
 30
0.0
 40
2.839999999999998
100
AcDbArc
 50
0.0
 51
180.0
  0
ARC
  5
6592
330
1F
100
AcDbEntity
  8
Object
370
    -3
100
AcDbCircle
 10
96.07718076814986
 20
1783.959052913203
 30
0.0
 40
2.839999999999998
100
AcDbArc
 50
180.0
 51
0.0
  0
LINE
  5
6593
330
1F
100
AcDbEntity
  8
Object
370
    -3
100
AcDbLine
 10
93.23718076814982
 20
1878.247052913203
 30
0.0
 11
91.35011556384013
 21
1848.143052913203
 31
0.0
  0
LINE
  5
6594
330
1F
100
AcDbEntity
  8
Object
370
    -3
100
AcDbLine
 10
91.24918076814985
 20
1836.121246923733
 30
0.0
 11
93.23718076814982
 21
1783.959052913203
 31
0.0
  0
LINE
  5
6595
330
1F
100
AcDbEntity
  8
Object
370
    -3
100
AcDbLine
 10
98.9171807681498
 20
1783.959052913203
 30
0.0
 11
100.9051807681498
 21
1836.121246923733
 31
0.0
  0
LINE
  5
6596
330
1F
100
AcDbEntity
  8
Object
370
    -3
100
AcDbLine
 10
100.8042459724595
 20
1848.143052913203
 30
0.0
 11
98.9171807681498
 21
1878.247052913203
 31
0.0
  0
LINE
  5
6597
330
1F
100
AcDbEntity
  8
Object
370
    -3
100
AcDbLine
 10
103.1771807681498
 20
1841.327052913203
 30
0.0
 11
104.5971807681498
 21
1842.463052913203
 31
0.0
  0
LINE
  5
6598
330
1F
100
AcDbEntity
  8
Object
370
    -3
100
AcDbLine
 10
108.5731807681498
 20
1842.463052913203
 30
0.0
 11
123.3411807681498
 21
1841.428098735305
 31
0.0
  0
HATCH
  5
6599
330
1F
100
AcDbEntity
  8
塗潰し
100
AcDbHatch
 10
0.0
 20
0.0
 30
0.0
210
0.0
220
0.0
230
1.0
  2
ANSI37
 70
     0
 71
     1
 91
        1
 92
        7
 72
     1
 73
     1
 93
       25
 10
108.5731807681498
 20
1848.143052913203
 42
0.0
 10
108.5731807681498
 20
1847.575052913203
 42
0.0
 10
104.5971807681498
 20
1847.575052913203
 42
0.0
 10
104.5971807681498
 20
1848.143052913203
 42
0.0
 10
96.07718076814986
 20
1848.143052913203
 42
0.0
 10
87.55718076814982
 20
1848.143052913203
 42
0.0
 10
87.55718076814984
 20
1847.575052913203
 42
0.0
 10
83.58118076814982
 20
1847.575052913203
 42
0.0
 10
83.58118076814982
 20
1848.143052913203
 42
0.0
 10
81.70587918084912
 20
1848.143052913203
 42
0.0
 10
78.35457982052492
 20
1848.143052913203
 42
0.0
 10
78.35457982052492
 20
1843.599052913203
 42
0.0
 10
81.70587918084908
 20
1843.599052913203
 42
0.0
 10
83.58118076814982
 20
1843.599052913203
 42
0.0
 10
83.5811807681498
 20
1844.735052913204
 42
0.0
 10
87.55718076814982
 20
1844.735052913204
 42
0.0
 10
87.55718076814982
 20
1843.599052913203
 42
0.0
 10
96.07718076814986
 20
1843.599052913203
 42
0.0
 10
104.5971807681498
 20
1843.599052913203
 42
0.0
 10
104.5971807681498
 20
1844.735052913204
 42
0.0
 10
108.5731807681498
 20
1844.735052913204
 42
0.0
 10
108.5731807681498
 20
1843.599052913203
 42
0.0
 10
128.7829153672421
 20
1843.599052913203
 42
-0.1940325948852954
 10
130.1571807681498
 20
1845.871052913203
 42
0.1940325948853078
 10
131.5314461690578
 20
1848.143052913203
 42
0.0
 97
       23
330
65DE
330
659E
330
65C6
330
659A
330
65E1
330
65CD
330
65D6
330
65D1
330
65E2
330
65FB
330
65E5
330
65E4
330
65D0
330
65EC
330
65CE
330
65E3
330
65DF
330
659B
330
65EB
330
659D
330
65E0
330
65F9
330
65FA
 75
     0
 76
     1
 52
0.0
 41
0.568
 77
     0
 78
     2
 53
45.0
 43
231.7373067259228
 44
-242.2321911961955
 45
-1.275196369191819
 46
1.275196369191819
 79
     0
 53
135.0
 43
231.7373067259228
 44
-242.2321911961955
 45
-1.275196369191819
 46
-1.275196369191819
 79
     0
 47
0.1201756584953826
 98
        1
 10
119.9517977103348
 20
1845.946549866549
1001
ACAD
1010
0.0
1020
0.0
1030
0.0
  0
LINE
  5
659A
102
{ACAD_REACTORS
330
6599
102
}
330
1F
100
AcDbEntity
  8
Object
370
    -3
100
AcDbLine
 10
104.5971807681498
 20
1850.983052913203
 30
0.0
 11
104.5971807681498
 21
1847.575052913203
 31
0.0
  0
LINE
  5
659B
102
{ACAD_REACTORS
330
6599
102
}
330
1F
100
AcDbEntity
  8
Object
370
    -3
100
AcDbLine
 10
104.5971807681498
 20
1844.735052913204
 30
0.0
 11
104.5971807681498
 21
1840.759052913203
 31
0.0
  0
LINE
  5
659C
330
1F
100
AcDbEntity
  8
Object
370
    -3
100
AcDbLine
 10
104.5971807681498
 20
1840.759052913203
 30
0.0
 11
108.5731807681498
 21
1840.759052913203
 31
0.0
  0
LINE
  5
659D
102
{ACAD_REACTORS
330
6599
102
}
330
1F
100
AcDbEntity
  8
Object
370
    -3
100
AcDbLine
 10
108.5731807681498
 20
1840.759052913203
 30
0.0
 11
108.5731807681498
 21
1844.735052913204
 31
0.0
  0
LINE
  5
659E
102
{ACAD_REACTORS
330
6599
102
}
330
1F
100
AcDbEntity
  8
Object
370
    -3
100
AcDbLine
 10
108.5731807681498
 20
1847.575052913203
 30
0.0
 11
108.5731807681498
 21
1850.983052913203
 31
0.0
  0
LINE
  5
659F
330
1F
100
AcDbEntity
  8
Object
370
    -3
100
AcDbLine
 10
201.2841538071065
 20
1781.119052913203
 30
0.0
 11
198.4441538071065
 21
1781.119052913203
 31
0.0
  0
LINE
  5
65A0
330
1F
100
AcDbEntity
  8
Object
370
    -3
100
AcDbLine
 10
198.4441538071065
 20
1781.119052913203
 30
0.0
 11
198.4441538071065
 21
1840.915742568375
 31
0.0
  0
LINE
  5
65A1
330
1F
100
AcDbEntity
  8
Object
370
    -3
100
AcDbLine
 10
198.4441538071065
 20
1850.82636325803
 30
0.0
 11
198.4441538071065
 21
1881.087052913203
 31
0.0
  0
LINE
  5
65A2
330
1F
100
AcDbEntity
  8
Object
370
    -3
100
AcDbLine
 10
198.4441538071065
 20
1881.087052913203
 30
0.0
 11
201.2841538071065
 21
1881.087052913203
 31
0.0
  0
LINE
  5
65A3
330
1F
100
AcDbEntity
  8
Object
370
    -3
100
AcDbLine
 10
201.2841538071065
 20
1881.087052913203
 30
0.0
 11
201.2841538071065
 21
1850.630501189065
 31
0.0
  0
HATCH
  5
65A4
330
1F
100
AcDbEntity
  8
塗潰し
100
AcDbHatch
 10
0.0
 20
0.0
 30
0.0
210
0.0
220
0.0
230
1.0
  2
ANSI31
 70
     0
 71
     1
 91
        1
 92
        7
 72
     1
 73
     1
 93
        7
 10
217.2158808117668
 20
1839.055052913202
 42
-0.194032594885374
 10
218.5901462126747
 20
1841.327052913203
 42
0.1940325948853327
 10
219.9644116135829
 20
1843.599052913203
 42
0.0
 10
212.6441538071065
 20
1843.599052913203
 42
0.0
 10
212.6441538071065
 20
1841.895052913203
 42
0.0
 10
201.2841538071065
 20
1841.11160463734
 42
0.0
 10
201.2841538071065
 20
1839.055052913202
 42
0.0
 97
        7
330
65FD
330
65DC
330
65B1
330
65B0
330
65A5
330
65DD
330
65FC
 75
     0
 76
     1
 52
0.0
 41
0.568
 77
     0
 78
     1
 53
45.0
 43
207.1878739786947
 44
-242.2321911961955
 45
-1.275196369191819
 46
1.275196369191819
 79
     0
 47
0.0847964369581906
 98
        1
 10
213.8965883638547
 20
1840.52317399445
1001
ACAD
1010
0.0
1020
0.0
1030
0.0
  0
LINE
  5
65A5
102
{ACAD_REACTORS
330
65A4
102
}
330
1F
100
AcDbEntity
  8
Object
370
    -3
100
AcDbLine
 10
201.2841538071065
 20
1841.11160463734
 30
0.0
 11
201.2841538071065
 21
1781.119052913203
 31
0.0
  0
LINE
  5
65A6
330
1F
100
AcDbEntity
  8
Object
370
    -3
100
AcDbLine
 10
198.4441538071065
 20
1783.391052913203
 30
0.0
 11
196.1721538071064
 21
1783.391052913203
 31
0.0
  0
LINE
  5
65A7
330
1F
100
AcDbEntity
  8
Object
370
    -3
100
AcDbLine
 10
196.1721538071064
 20
1783.391052913203
 30
0.0
 11
190.4353538071065
 21
1836.215052913203
 31
0.0
  0
LINE
  5
65A8
330
1F
100
AcDbEntity
  8
Object
370
    -3
100
AcDbLine
 10
190.8936710484858
 20
1846.439052913203
 30
0.0
 11
196.1721538071064
 21
1878.815052913203
 31
0.0
  0
LINE
  5
65A9
330
1F
100
AcDbEntity
  8
Object
370
    -3
100
AcDbLine
 10
196.1721538071064
 20
1878.815052913203
 30
0.0
 11
198.4441538071065
 21
1878.815052913203
 31
0.0
  0
LINE
  5
65AA
330
1F
100
AcDbEntity
  8
Object
370
    -3
100
AcDbLine
 10
190.4353538071065
 20
1836.215052913203
 30
0.0
 11
182.5401538071059
 21
1836.215052913203
 31
0.0
  0
LINE
  5
65AB
330
1F
100
AcDbEntity
  8
Object
370
    -3
100
AcDbLine
 10
178.5641538071065
 20
1840.191052913204
 30
0.0
 11
178.5641538071065
 21
1842.463052913203
 31
0.0
  0
LINE
  5
65AC
330
1F
100
AcDbEntity
  8
Object
370
    -3
100
AcDbLine
 10
182.5401538071052
 20
1846.439052913203
 30
0.0
 11
190.8936710484858
 21
1846.439052913203
 31
0.0
  0
LINE
  5
65AD
330
1F
100
AcDbEntity
  8
Object
370
    -3
100
AcDbLine
 10
182.5401538071052
 20
1846.439052913203
 30
0.0
 11
178.5641538071065
 21
1842.463052913203
 31
0.0
  0
LINE
  5
65AE
330
1F
100
AcDbEntity
  8
Object
370
    -3
100
AcDbLine
 10
178.5641538071065
 20
1840.191052913203
 30
0.0
 11
182.5401538071054
 21
1836.215052913204
 31
0.0
  0
ARC
  5
65AF
330
1F
100
AcDbEntity
  8
Object
370
    -3
100
AcDbCircle
 10
203.5561538071065
 20
1845.871052913203
 30
0.0
 40
2.271999999999998
100
AcDbArc
 50
48.59037789072718
 51
329.9999999999995
  0
LINE
  5
65B0
102
{ACAD_REACTORS
330
65A4
102
}
330
1F
100
AcDbEntity
  8
Object
370
    -3
100
AcDbLine
 10
196.1721538071064
 20
1840.759052913203
 30
0.0
 11
212.6441538071065
 21
1841.895052913203
 31
0.0
  0
LINE
  5
65B1
102
{ACAD_REACTORS
330
65A4
102
}
330
1F
100
AcDbEntity
  8
Object
370
    -3
100
AcDbLine
 10
212.6441538071065
 20
1841.895052913203
 30
0.0
 11
212.6441538071065
 21
1843.599052913203
 31
0.0
  0
LINE
  5
65B2
330
1F
100
AcDbEntity
  8
Object
370
    -3
100
AcDbLine
 10
212.6441538071065
 20
1843.599052913203
 30
0.0
 11
205.5237635245047
 21
1844.735052913203
 31
0.0
  0
LINE
  5
65B3
330
1F
100
AcDbEntity
  8
Object
370
    -3
100
AcDbLine
 10
205.0589405517911
 20
1847.575052913203
 30
0.0
 11
212.6441538071065
 21
1848.143052913203
 31
0.0
  0
LINE
  5
65B4
330
1F
100
AcDbEntity
  8
Object
370
    -3
100
AcDbLine
 10
212.6441538071065
 20
1848.143052913203
 30
0.0
 11
212.6441538071065
 21
1849.847052913203
 31
0.0
  0
LINE
  5
65B5
330
1F
100
AcDbEntity
  8
Object
370
    -3
100
AcDbLine
 10
212.6441538071065
 20
1849.847052913203
 30
0.0
 11
196.1721538071064
 21
1850.983052913203
 31
0.0
  0
LINE
  5
65B6
330
1F
100
AcDbEntity
  8
Object
370
    -3
100
AcDbLine
 10
197.8761538071065
 20
1848.792195770345
 30
0.0
 11
197.8761538071065
 21
1841.408195770345
 31
0.0
  0
LINE
  5
65B7
330
1F
100
AcDbEntity
  8
Object
370
    -3
100
AcDbLine
 10
197.8761538071065
 20
1841.408195770345
 30
0.0
 11
201.2841538071065
 21
1841.408195770345
 31
0.0
  0
LINE
  5
65B8
330
1F
100
AcDbEntity
  8
Object
370
    -3
100
AcDbLine
 10
197.8761538071065
 20
1848.792195770345
 30
0.0
 11
201.2841538071065
 21
1848.792195770345
 31
0.0
  0
LINE
  5
65B9
330
1F
100
AcDbEntity
  8
Object
370
    -3
100
AcDbLine
 10
197.8761538071065
 20
1843.677493692345
 30
0.0
 11
201.2841538071065
 21
1843.677493692345
 31
0.0
  0
DIMENSION
  5
65BA
330
1F
100
AcDbEntity
  8
0
  6
HIDDEN
370
    -3
100
AcDbDimension
  2
*D14
 10
54.42728733508039
 20
1881.087052913203
 30
0.0
 11
47.50592618062228
 21
1859.260210317046
 31
0.0
 70
   160
  1
Ｃ
 71
     5
 42
39.76000000000022
 53
359.999
  3
JIS
100
AcDbAlignedDimension
 13
96.07718076814986
 23
1841.327052913203
 33
0.0
 14
93.23718076814982
 24
1881.087052913203
 34
0.0
 50
90.0
100
AcDbRotatedDimension
1001
ACAD
1000
DSTYLE
1002
{
1070
   140
1040
8.0
1070
    41
1040
8.0
1070
   147
1040
3.0
1070
   173
1070
     1
1070
   279
1070
     2
1070
   343
1005
33F
1070
   344
1005
33F
1002
}
  0
DIMENSION
  5
65BB
330
1F
100
AcDbEntity
  8
0
  6
HIDDEN
370
    -3
100
AcDbDimension
  2
*D15
 10
54.42728733508037
 20
1781.119052913203
 30
0.0
 11
47.79396670206279
 21
1808.305397353228
 31
0.0
 70
   160
  1
Ｂ
 71
     5
 42
60.20799999999986
 53
359.999
  3
JIS
100
AcDbAlignedDimension
 13
96.07718076814986
 23
1841.327052913203
 33
0.0
 14
96.07718076814986
 24
1781.119052913203
 34
0.0
 50
90.0
100
AcDbRotatedDimension
1001
ACAD
1000
DSTYLE
1002
{
1070
   140
1040
8.0
1070
    41
1040
8.0
1070
   147
1040
3.0
1070
   173
1070
     1
1070
   279
1070
     2
1070
   343
1005
33F
1070
   344
1005
33F
1002
}
  0
LINE
  5
65BC
330
1F
100
AcDbEntity
  8
Object
370
    -3
100
AcDbLine
 10
196.1721538071064
 20
1850.983052913203
 30
0.0
 11
193.9001538071065
 21
1845.871052913203
 31
0.0
  0
LINE
  5
65BD
330
1F
100
AcDbEntity
  8
Object
370
    -3
100
AcDbLine
 10
195.0361538071065
 20
1843.599052913203
 30
0.0
 11
196.1721538071064
 21
1840.759052913203
 31
0.0
  0
LINE
  5
65BE
330
1F
100
AcDbEntity
  8
Object
370
    -3
100
AcDbLine
 10
197.8761538071065
 20
1842.747052913203
 30
0.0
 11
193.9001538071065
 21
1845.871052913203
 31
0.0
  0
LINE
  5
65BF
330
1F
100
AcDbEntity
  8
Object
370
    -3
100
AcDbLine
 10
197.8761538071065
 20
1842.747052913203
 30
0.0
 11
195.0361538071065
 21
1843.599052913203
 31
0.0
  0
LINE
  5
65C0
330
1F
100
AcDbEntity
  8
Object
370
    -3
100
AcDbLine
 10
195.0361538071065
 20
1843.599052913203
 30
0.0
 11
193.3321538071065
 21
1842.747052913203
 31
0.0
  0
LINE
  5
65C1
330
1F
100
AcDbEntity
  8
Object
370
    -3
100
AcDbLine
 10
193.3321538071065
 20
1842.747052913203
 30
0.0
 11
193.9001538071065
 21
1845.871052913203
 31
0.0
  0
DIMENSION
  5
65C2
330
1F
100
AcDbEntity
  8
0
  6
HIDDEN
370
    -3
100
AcDbDimension
  2
*D16
 10
178.5641538071065
 20
1892.543993454805
 30
0.0
 11
189.9241538071065
 21
1899.543993454805
 31
0.0
 70
    32
  1
Ｄ
 71
     5
 42
22.72
  3
JIS
100
AcDbAlignedDimension
 13
201.2841538071065
 23
1881.087052913203
 33
0.0
 14
178.5641538071065
 24
1841.327052913203
 34
0.0
100
AcDbRotatedDimension
1001
ACAD
1000
DSTYLE
1002
{
1070
   343
1005
33F
1070
   173
1070
     1
1070
   344
1005
33F
1070
   147
1040
3.0
1070
   140
1040
8.0
1070
    41
1040
8.0
1002
}
  0
LINE
  5
65C3
330
1F
100
AcDbEntity
  8
Object
370
    -3
100
AcDbLine
 10
110.4484823554525
 20
1848.143052913203
 30
0.0
 11
108.5731807681498
 21
1848.792195770345
 31
0.0
  0
LINE
  5
65C4
330
1F
100
AcDbEntity
  8
Object
370
    -3
100
AcDbLine
 10
104.5971807681498
 20
1850.983052913203
 30
0.0
 11
108.5731807681498
 21
1850.983052913203
 31
0.0
  0
LINE
  5
65C5
330
1F
100
AcDbEntity
  8
Object
370
    -3
100
AcDbLine
 10
104.5971807681498
 20
1841.895052913203
 30
0.0
 11
108.5731807681498
 21
1841.895052913203
 31
0.0
  0
LINE
  5
65C6
102
{ACAD_REACTORS
330
6599
102
}
330
1F
100
AcDbEntity
  8
Object
370
    -3
100
AcDbLine
 10
104.5971807681498
 20
1847.575052913203
 30
0.0
 11
108.5731807681498
 21
1847.575052913203
 31
0.0
  0
LINE
  5
65C7
330
1F
100
AcDbEntity
  8
Object
370
    -3
100
AcDbLine
 10
104.5971807681498
 20
1848.143052913203
 30
0.0
 11
108.5731807681498
 21
1848.143052913203
 31
0.0
  0
LINE
  5
65C8
330
1F
100
AcDbEntity
  8
Object
370
    -3
100
AcDbLine
 10
104.5971807681498
 20
1849.847052913203
 30
0.0
 11
108.5731807681498
 21
1849.847052913203
 31
0.0
  0
ARC
  5
65C9
330
1F
100
AcDbEntity
  8
Object
370
    -3
100
AcDbCircle
 10
123.3411807681498
 20
1842.544195770345
 30
0.0
 40
1.135999999999999
100
AcDbArc
 50
270.0
 51
68.2132107017525
  0
LINE
  5
65CA
330
1F
100
AcDbEntity
  8
Object
370
    -3
100
AcDbLine
 10
104.5971807681498
 20
1848.792195770345
 30
0.0
 11
103.9161722904371
 21
1848.143052913203
 31
0.0
  0
LINE
  5
65CB
330
1F
100
AcDbEntity
  8
Object
370
    -3
100
AcDbLine
 10
88.97718076814982
 20
1841.327052913203
 30
0.0
 11
87.55718076814982
 21
1842.463052913203
 31
0.0
  0
LINE
  5
65CC
330
1F
100
AcDbEntity
  8
Object
370
    -3
100
AcDbLine
 10
83.58118076814982
 20
1842.463052913203
 30
0.0
 11
68.81318076814982
 21
1841.428098735305
 31
0.0
  0
LINE
  5
65CD
102
{ACAD_REACTORS
330
6599
102
}
330
1F
100
AcDbEntity
  8
Object
370
    -3
100
AcDbLine
 10
87.55718076814979
 20
1850.983052913203
 30
0.0
 11
87.55718076814982
 21
1847.575052913203
 31
0.0
  0
LINE
  5
65CE
102
{ACAD_REACTORS
330
6599
102
}
330
1F
100
AcDbEntity
  8
Object
370
    -3
100
AcDbLine
 10
87.55718076814982
 20
1844.735052913204
 30
0.0
 11
87.55718076814982
 21
1840.759052913203
 31
0.0
  0
LINE
  5
65CF
330
1F
100
AcDbEntity
  8
Object
370
    -3
100
AcDbLine
 10
87.55718076814982
 20
1840.759052913203
 30
0.0
 11
83.58118076814982
 21
1840.759052913203
 31
0.0
  0
LINE
  5
65D0
102
{ACAD_REACTORS
330
6599
102
}
330
1F
100
AcDbEntity
  8
Object
370
    -3
100
AcDbLine
 10
83.58118076814982
 20
1840.759052913203
 30
0.0
 11
83.58118076814982
 21
1844.735052913204
 31
0.0
  0
LINE
  5
65D1
102
{ACAD_REACTORS
330
6599
102
}
330
1F
100
AcDbEntity
  8
Object
370
    -3
100
AcDbLine
 10
83.58118076814982
 20
1847.575052913203
 30
0.0
 11
83.5811807681498
 21
1850.983052913203
 31
0.0
  0
LINE
  5
65D2
330
1F
100
AcDbEntity
  8
Object
370
    -3
100
AcDbLine
 10
68.11087165321942
 20
1843.437088769022
 30
0.0
 11
78.35457982052492
 21
1846.982987750014
 31
0.0
  0
LINE
  5
65D3
330
1F
100
AcDbEntity
  8
Object
370
    -3
100
AcDbLine
 10
81.70587918084983
 20
1848.143052913203
 30
0.0
 11
83.5811807681498
 21
1848.792195770345
 31
0.0
  0
LINE
  5
65D4
330
1F
100
AcDbEntity
  8
Object
370
    -3
100
AcDbLine
 10
87.55718076814979
 20
1850.983052913203
 30
0.0
 11
83.5811807681498
 21
1850.983052913203
 31
0.0
  0
LINE
  5
65D5
330
1F
100
AcDbEntity
  8
Object
370
    -3
100
AcDbLine
 10
87.55718076814982
 20
1841.895052913203
 30
0.0
 11
83.58118076814982
 21
1841.895052913203
 31
0.0
  0
LINE
  5
65D6
102
{ACAD_REACTORS
330
6599
102
}
330
1F
100
AcDbEntity
  8
Object
370
    -3
100
AcDbLine
 10
87.55718076814982
 20
1847.575052913203
 30
0.0
 11
83.58118076814982
 21
1847.575052913203
 31
0.0
  0
LINE
  5
65D7
330
1F
100
AcDbEntity
  8
Object
370
    -3
100
AcDbLine
 10
87.55718076814979
 20
1848.143052913203
 30
0.0
 11
83.5811807681498
 21
1848.143052913203
 31
0.0
  0
LINE
  5
65D8
330
1F
100
AcDbEntity
  8
Object
370
    -3
100
AcDbLine
 10
87.55718076814979
 20
1849.847052913203
 30
0.0
 11
83.5811807681498
 21
1849.847052913203
 31
0.0
  0
ARC
  5
65D9
330
1F
100
AcDbEntity
  8
Object
370
    -3
100
AcDbCircle
 10
68.81318076814982
 20
1842.544195770345
 30
0.0
 40
1.135999999999999
100
AcDbArc
 50
111.7867892982475
 51
270.0
  0
LINE
  5
65DA
330
1F
100
AcDbEntity
  8
Object
370
    -3
100
AcDbLine
 10
87.55718076814979
 20
1848.792195770345
 30
0.0
 11
88.23818924586269
 21
1848.143052913203
 31
0.0
  0
DIMENSION
  5
65DB
330
1F
100
AcDbEntity
  8
0
  6
HIDDEN
370
    -3
100
AcDbDimension
  2
*D17
 10
67.67718076814983
 20
1892.447052913203
 30
0.0
 11
81.87718076814983
 21
1899.447052913203
 31
0.0
 70
    32
  1
Ｇ
 71
     5
 42
28.40000000000001
  3
JIS
100
AcDbAlignedDimension
 13
96.07718076814986
 23
1881.087052913203
 33
0.0
 14
67.67718076814983
 24
1842.544195770345
 34
0.0
100
AcDbRotatedDimension
1001
ACAD
1000
DSTYLE
1002
{
1070
   343
1005
33F
1070
   173
1070
     1
1070
   344
1005
33F
1070
   147
1040
3.0
1070
   140
1040
8.0
1070
    41
1040
8.0
1002
}
  0
LINE
  5
65DC
102
{ACAD_REACTORS
330
65A4
102
}
330
1F
100
AcDbEntity
  8
Object
 48
0.25
370
    -3
100
AcDbLine
 10
212.6441538071065
 20
1843.599052913203
 30
0.0
 11
219.9644116135829
 21
1843.599052913203
 31
0.0
  0
LINE
  5
65DD
102
{ACAD_REACTORS
330
65A4
102
}
330
1F
100
AcDbEntity
  8
Object
 48
0.25
370
    -3
100
AcDbLine
 10
217.2158808117669
 20
1839.055052913202
 30
0.0
 11
201.2841538071065
 21
1839.055052913202
 31
0.0
  0
LINE
  5
65DE
102
{ACAD_REACTORS
330
6599
102
}
330
1F
100
AcDbEntity
  8
Object
370
    -3
100
AcDbLine
 10
96.07718076814986
 20
1848.143052913203
 30
0.0
 11
131.531446169058
 21
1848.143052913203
 31
0.0
  0
LINE
  5
65DF
102
{ACAD_REACTORS
330
6599
102
}
330
1F
100
AcDbEntity
  8
Object
370
    -3
100
AcDbLine
 10
96.07718076814986
 20
1843.599052913203
 30
0.0
 11
104.5971807681498
 21
1843.599052913203
 31
0.0
  0
LINE
  5
65E0
102
{ACAD_REACTORS
330
6599
102
}
330
1F
100
AcDbEntity
  8
Object
370
    -3
100
AcDbLine
 10
108.5731807681498
 20
1843.599052913203
 30
0.0
 11
130.4231731737184
 21
1843.599052913203
 31
0.0
  0
LINE
  5
65E1
102
{ACAD_REACTORS
330
6599
102
}
330
1F
100
AcDbEntity
  8
Object
370
    -3
100
AcDbLine
 10
96.07718076814986
 20
1848.143052913203
 30
0.0
 11
81.70587918084912
 21
1848.143052913203
 31
0.0
  0
LINE
  5
65E2
102
{ACAD_REACTORS
330
6599
102
}
330
1F
100
AcDbEntity
  8
Object
370
    -3
100
AcDbLine
 10
81.70587918084912
 20
1848.143052913203
 30
0.0
 11
78.35457982052492
 21
1848.143052913203
 31
0.0
  0
LINE
  5
65E3
102
{ACAD_REACTORS
330
6599
102
}
330
1F
100
AcDbEntity
  8
Object
370
    -3
100
AcDbLine
 10
96.07718076814986
 20
1843.599052913203
 30
0.0
 11
87.55718076814982
 21
1843.599052913203
 31
0.0
  0
LINE
  5
65E4
102
{ACAD_REACTORS
330
6599
102
}
330
1F
100
AcDbEntity
  8
Object
370
    -3
100
AcDbLine
 10
83.58118076814982
 20
1843.599052913203
 30
0.0
 11
81.70587918084908
 21
1843.599052913203
 31
0.0
  0
LINE
  5
65E5
102
{ACAD_REACTORS
330
6599
102
}
330
1F
100
AcDbEntity
  8
Object
370
    -3
100
AcDbLine
 10
81.70587918084908
 20
1843.599052913203
 30
0.0
 11
78.35457982052492
 21
1843.599052913203
 31
0.0
  0
DIMENSION
  5
65E6
330
1F
100
AcDbEntity
  8
0
  6
HIDDEN
370
    -3
100
AcDbDimension
  2
*D18
 10
124.4771807681498
 20
1892.447052913203
 30
0.0
 11
110.2771807681498
 21
1899.447052913203
 31
0.0
 70
    32
  1
Ｇ
 71
     5
 42
28.40000000000001
  3
JIS
100
AcDbAlignedDimension
 13
96.07718076814986
 23
1881.087052913203
 33
0.0
 14
124.4771807681498
 24
1842.544195770345
 34
0.0
100
AcDbRotatedDimension
1001
ACAD
1000
DSTYLE
1002
{
1070
   343
1005
33F
1070
   173
1070
     1
1070
   344
1005
33F
1070
   147
1040
3.0
1070
   140
1040
8.0
1070
    41
1040
8.0
1002
}
  0
DIMENSION
  5
65E7
330
1F
100
AcDbEntity
  8
0
  6
HIDDEN
370
    -3
100
AcDbDimension
  2
*D19
 10
34.97622340058479
 20
1781.119052913203
 30
0.0
 11
27.76694140773907
 21
1831.08386802046
 31
0.0
 70
   160
  1
Ａ
 71
     5
 42
99.96800000000007
 53
359.999
  3
JIS
100
AcDbAlignedDimension
 13
96.07718076814986
 23
1881.087052913203
 33
0.0
 14
96.07718076814986
 24
1781.119052913203
 34
0.0
 50
90.0
100
AcDbRotatedDimension
1001
ACAD
1000
DSTYLE
1002
{
1070
   140
1040
8.0
1070
    41
1040
8.0
1070
   147
1040
3.0
1070
   173
1070
     1
1070
   279
1070
     2
1070
   343
1005
33F
1070
   344
1005
33F
1002
}
  0
LINE
  5
65E8
330
1F
100
AcDbEntity
  8
Object
370
    -3
100
AcDbLine
 10
201.2841538071065
 20
1848.792195770345
 30
0.0
 11
201.2841538071065
 21
1841.408195770345
 31
0.0
  0
LINE
  5
65E9
330
1F
100
AcDbEntity
  8
Object
370
    -3
100
AcDbLine
 10
104.5971807681498
 20
1843.599052913203
 30
0.0
 11
108.5731807681498
 21
1843.599052913203
 31
0.0
  0
LINE
  5
65EA
330
1F
100
AcDbEntity
  8
Object
370
    -3
100
AcDbLine
 10
87.55718076814982
 20
1843.599052913203
 30
0.0
 11
83.58118076814982
 21
1843.599052913203
 31
0.0
  0
LINE
  5
65EB
102
{ACAD_REACTORS
330
6599
102
}
330
1F
100
AcDbEntity
  8
Object
370
    -3
100
AcDbLine
 10
104.5971807681498
 20
1844.735052913204
 30
0.0
 11
108.5731807681498
 21
1844.735052913204
 31
0.0
  0
LINE
  5
65EC
102
{ACAD_REACTORS
330
6599
102
}
330
1F
100
AcDbEntity
  8
Object
370
    -3
100
AcDbLine
 10
87.55718076814982
 20
1844.735052913204
 30
0.0
 11
83.58118076814982
 21
1844.735052913204
 31
0.0
  0
HATCH
  5
65ED
330
1F
100
AcDbEntity
  8
塗潰し
100
AcDbHatch
 10
0.0
 20
0.0
 30
0.0
210
0.0
220
0.0
230
1.0
  2
ANSI37
 70
     0
 71
     1
 91
        1
 92
        7
 72
     1
 73
     1
 93
        2
 10
205.8281538071065
 20
1845.871052913203
 42
1.0
 10
201.2841538071065
 20
1845.871052913203
 42
1.0
 97
        1
330
65EE
 75
     0
 76
     1
 52
0.0
 41
0.568
 77
     0
 78
     2
 53
45.0
 43
207.1878739786947
 44
-242.2321911961955
 45
-1.275196369191819
 46
1.275196369191819
 79
     0
 53
135.0
 43
207.1878739786947
 44
-242.2321911961955
 45
-1.275196369191819
 46
-1.275196369191819
 79
     0
 47
0.0847964369581906
 98
        1
 10
204.0686615633592
 20
1845.724926086578
1001
ACAD
1010
0.0
1020
0.0
1030
0.0
  0
CIRCLE
  5
65EE
102
{ACAD_REACTORS
330
65ED
102
}
330
1F
100
AcDbEntity
  8
Object
370
    -3
100
AcDbCircle
 10
203.5561538071065
 20
1845.871052913203
 30
0.0
 40
2.271999999999998
  0
HATCH
  5
65EF
330
1F
100
AcDbEntity
  8
塗潰し
100
AcDbHatch
 10
0.0
 20
0.0
 30
0.0
210
0.0
220
0.0
230
1.0
  2
ANSI31
 70
     0
 71
     1
 91
        1
 92
        7
 72
     1
 73
     1
 93
        2
 10
98.34918076814986
 20
1841.327052913203
 42
1.0
 10
93.80518076814986
 20
1841.327052913203
 42
1.0
 97
        1
330
65F0
 75
     0
 76
     1
 52
0.0
 41
0.568
 77
     0
 78
     1
 53
45.0
 43
231.7373067259228
 44
-242.2321911961955
 45
-1.275196369191819
 46
1.275196369191819
 79
     0
 47
0.1363637754997564
 98
        1
 10
95.37356919266143
 20
1840.738877421578
1001
ACAD
1010
0.0
1020
0.0
1030
0.0
  0
CIRCLE
  5
65F0
102
{ACAD_REACTORS
330
65EF
102
}
330
1F
100
AcDbEntity
  8
Object
370
    -3
100
AcDbCircle
 10
96.07718076814986
 20
1841.327052913203
 30
0.0
 40
2.271999999999998
  0
DIMENSION
  5
65F1
330
1F
100
AcDbEntity
  8
0
  6
HIDDEN
370
    -3
100
AcDbDimension
  2
*D20
 10
202.3995651578356
 20
1847.826631266623
 30
0.0
 11
244.9842151191641
 21
1799.091861093502
 31
0.0
 70
   163
  1
Ｆ
 71
     5
 42
4.543999999998503
 53
359.999
  3
JIS
100
AcDbDiametricDimension
 15
204.7127424563794
 25
1843.915474559779
 35
0.0
 40
0.0
1001
ACAD
1000
DSTYLE
1002
{
1070
    41
1040
8.0
1070
   343
1005
33F
1070
   173
1070
     1
1070
   344
1005
33F
1070
   147
1040
3.0
1070
   140
1040
8.0
1070
   288
1070
     1
1002
}
  0
DIMENSION
  5
65F2
330
1F
100
AcDbEntity
  8
0
  6
HIDDEN
370
    -3
100
AcDbDimension
  2
*D21
 10
94.92726139722115
 20
1843.286560361608
 30
0.0
 11
134.9379852080442
 21
1799.041122214255
 31
0.0
 70
   163
  1
Ｅ
 71
     5
 42
4.543999999998731
 53
359.999
  3
JIS
100
AcDbDiametricDimension
 15
97.22710013907956
 25
1839.367545464796
 35
0.0
 40
0.0
1001
ACAD
1000
DSTYLE
1002
{
1070
    41
1040
8.0
1070
   343
1005
33F
1070
   173
1070
     1
1070
   344
1005
33F
1070
   147
1040
3.0
1070
   140
1040
8.0
1070
   288
1070
     1
1002
}
  0
DIMENSION
  5
65F3
330
1F
100
AcDbEntity
  8
0
  6
HIDDEN
100
AcDbDimension
  2
*D22
 10
133.9575119404949
 20
1848.143052913203
 30
0.0
 11
140.461657271579
 21
1899.821527609583
 31
0.0
 70
   160
  1
Ｆ
 71
     5
 42
4.544000000000322
 53
359.999
  3
JIS
100
AcDbAlignedDimension
 13
123.7628114218781
 23
1843.599052913203
 33
0.0
 14
124.4771807681498
 24
1848.143052913203
 34
0.0
 50
90.0
100
AcDbRotatedDimension
1001
ACAD
1000
DSTYLE
1002
{
1070
    41
1040
8.0
1070
   140
1040
8.0
1070
   147
1040
3.0
1070
   173
1070
     1
1070
   279
1070
     1
1070
   343
1005
33F
1070
   344
1005
33F
1002
}
  0
DIMENSION
  5
65F4
330
1F
100
AcDbEntity
  8
0
  6
HIDDEN
100
AcDbDimension
  2
*D23
 10
223.1179646708842
 20
1843.599052913203
 30
0.0
 11
225.3442220197207
 21
1899.230180255647
 31
0.0
 70
   160
  1
Ｅ
 71
     5
 42
4.543999999999869
 53
359.999
  3
JIS
100
AcDbAlignedDimension
 13
217.215880811767
 23
1839.055052913203
 33
0.0
 14
219.9644116135829
 24
1843.599052913203
 34
0.0
 50
90.0
100
AcDbRotatedDimension
1001
ACAD
1000
DSTYLE
1002
{
1070
    41
1040
8.0
1070
   140
1040
8.0
1070
   147
1040
3.0
1070
   173
1070
     1
1070
   279
1070
     1
1070
   343
1005
33F
1070
   344
1005
33F
1002
}
  0
MTEXT
  5
65F7
330
1F
100
AcDbEntity
  8
Object
100
AcDbMText
 10
134.8574856144736
 20
1893.769210445711
 30
0.0
 40
8.0
 41
65.32757731153987
 71
     1
 72
     5
  1
（縦鉄筋）
 73
     1
 44
1.0
1001
ACAD
1000
MTEXTBEGIN
1070
    73
1070
     1
1070
    44
1040
1.0
1070
    74
1070
     0
1000
MTEXTEND
  0
MTEXT
  5
65F8
330
1F
100
AcDbEntity
  8
Object
100
AcDbMText
 10
225.6988611602221
 20
1893.064382369818
 30
0.0
 40
8.0
 41
65.32757731153987
 71
     1
 72
     5
  1
（横鉄筋）
 73
     1
 44
1.0
1001
ACAD
1000
MTEXTBEGIN
1070
    73
1070
     1
1070
    44
1040
1.0
1070
    74
1070
     0
1000
MTEXTEND
  0
ARC
  5
65F9
102
{ACAD_REACTORS
330
6599
102
}
330
1F
100
AcDbEntity
  8
Object
100
AcDbCircle
 10
132.2871807681501
 20
1843.031052913203
 30
0.0
 40
3.55000000000018
100
AcDbArc
 50
126.8698976458477
 51
233.1301023541525
  0
ARC
  5
65FA
102
{ACAD_REACTORS
330
6599
102
}
330
1F
100
AcDbEntity
  8
Object
100
AcDbCircle
 10
128.0271807681501
 20
1848.711052913203
 30
0.0
 40
3.550000000000025
100
AcDbArc
 50
306.8698976458455
 51
53.13010235415252
  0
LINE
  5
65FB
102
{ACAD_REACTORS
330
6599
102
}
330
1F
100
AcDbEntity
  8
Object
100
AcDbLine
 10
78.35457982052492
 20
1843.599052913203
 30
0.0
 11
78.35457982052492
 21
1848.143052913203
 31
0.0
  0
ARC
  5
65FC
102
{ACAD_REACTORS
330
65A4
102
}
330
1F
100
AcDbEntity
  8
Object
100
AcDbCircle
 10
220.720146212675
 20
1838.487052913203
 30
0.0
 40
3.55000000000018
100
AcDbArc
 50
126.8698976458478
 51
233.1301023541542
  0
ARC
  5
65FD
102
{ACAD_REACTORS
330
65A4
102
}
330
1F
100
AcDbEntity
  8
Object
100
AcDbCircle
 10
216.460146212675
 20
1844.167052913203
 30
0.0
 40
3.550000000000025
100
AcDbArc
 50
306.8698976458454
 51
53.13010235415258
  0
MTEXT
  5
67FA
330
1F
100
AcDbEntity
  8
Object
100
AcDbMText
 10
116.6891863685234
 20
1791.906428811197
 30
0.0
 40
8.0
 41
65.32757731153987
 71
     1
 72
     5
  1
（横鉄筋）
 73
     1
 44
1.0
1001
ACAD
1000
MTEXTBEGIN
1070
    73
1070
     1
1070
    44
1040
1.0
1070
    74
1070
     0
1000
MTEXTEND
  0
MTEXT
  5
67FB
330
1F
100
AcDbEntity
  8
Object
100
AcDbMText
 10
226.5360997175409
 20
1793.179209608067
 30
0.0
 40
8.0
 41
65.32757731153987
 71
     1
 72
     5
  1
（縦鉄筋）
 73
     1
 44
1.0
1001
ACAD
1000
MTEXTBEGIN
1070
    73
1070
     1
1070
    44
1040
1.0
1070
    74
1070
     0
1000
MTEXTEND
  0
VIEWPORT
  5
6F84
102
{ACAD_XDICTIONARY
360
6FE1
102
}
330
6F83
100
AcDbEntity
 67
     1
  8
0
100
AcDbViewport
 10
208.7434860445623
 20
73.49610368425453
 30
0.0
 40
545.6282228064398
 41
351.0998998928396
 68
     1
 69
     1
 12
208.7434860445623
 22
73.49610368425453
 13
0.0
 23
0.0
 14
10.0
 24
10.0
 15
10.0
 25
10.0
 16
0.0
 26
0.0
 36
1.0
 17
0.0
 27
0.0
 37
0.0
 42
50.0
 43
0.0
 44
0.0
 45
351.0998998928396
 50
0.0
 51
0.0
 72
  1000
 90
   557152
  1

281
     0
 71
     1
 74
     0
110
0.0
120
0.0
130
0.0
111
1.0
121
0.0
131
0.0
112
0.0
122
1.0
132
0.0
 79
     0
146
0.0
  0
LWPOLYLINE
  5
6F85
102
{ACAD_REACTORS
330
6F86
102
}
330
6F83
100
AcDbEntity
 67
     1
  8
Viewport
100
AcDbPolyline
 90
        8
 70
     1
 43
0.0
 10
12.5
 20
202.0
 10
284.5
 20
202.0
 10
284.4978723404242
 20
34.0
 10
167.4978723404242
 20
34.0
 10
167.4978723404242
 20
7.0
 10
129.5
 20
7.0
 10
12.5
 20
7.0
 10
12.5
 20
31.0
  0
VIEWPORT
  5
6F86
102
{ACAD_XDICTIONARY
360
6FE3
102
}
330
6F83
100
AcDbEntity
 67
     1
  8
Viewport
100
AcDbViewport
 10
148.5
 20
104.5
 30
0.0
 40
272.0000000000001
 41
195.0
 68
     2
 69
     2
 12
147.3309498037727
 22
1838.945310947754
 13
0.0
 23
0.0
 14
10.0
 24
10.0
 15
10.0
 25
10.0
 16
0.0
 26
0.0
 36
1.0
 17
0.0
 27
0.0
 37
0.0
 42
50.0
 43
0.0
 44
0.0
 45
195.0000024363343
 50
0.0
 51
0.0
 72
   100
 90
    98368
340
6F85
  1

281
     0
 71
     1
 74
     0
110
0.0
120
0.0
130
0.0
111
1.0
121
0.0
131
0.0
112
0.0
122
1.0
132
0.0
 79
     0
146
0.0
  0
MTEXT
  5
6F87
330
6F83
100
AcDbEntity
 67
     1
  8
Object
370
    -3
100
AcDbMText
 10
225.9978723404242
 20
22.75
 30
0.0
 40
5.0
 41
117.0
 71
     5
 72
     5
  1
可変側溝　Ａ型
 73
     1
 44
1.0
1001
AcDbBlockRepETag
1070
     1
1071
       68
1005
6F87
1001
ACAD
1000
MTEXTBEGIN
1070
    73
1070
     1
1070
    44
1040
1.0
1070
    74
1070
     0
1000
MTEXTEND
1000
ACAD_MTEXT_DEFINED_HEIGHT_BEGIN
1070
    46
1040
13.5
1000
ACAD_MTEXT_DEFINED_HEIGHT_END
  0
LINE
  5
6F88
330
6F83
100
AcDbEntity
 67
     1
  8
0
100
AcDbLine
 10
12.5
 20
7.0
 30
0.0
 11
12.5
 21
202.0
 31
0.0
1001
AcDbBlockRepETag
1070
     1
1071
        2
1005
6F88
  0
LINE
  5
6F89
330
6F83
100
AcDbEntity
 67
     1
  8
0
100
AcDbLine
 10
25.0
 20
0.0
 30
0.0
 11
0.0
 21
0.0
 31
0.0
1001
AcDbBlockRepETag
1070
     1
1071
        3
1005
6F89
  0
LINE
  5
6F8A
330
6F83
100
AcDbEntity
 67
     1
  8
0
100
AcDbLine
 10
0.0
 20
0.0
 30
0.0
 11
0.0
 21
10.0
 31
0.0
1001
AcDbBlockRepETag
1070
     1
1071
        4
1005
6F8A
  0
LINE
  5
6F8B
330
6F83
100
AcDbEntity
 67
     1
  8
0
100
AcDbLine
 10
148.5
 20
6.0
 30
0.0
 11
148.5
 21
5.0
 31
0.0
1001
AcDbBlockRepETag
1070
     1
1071
       20
1005
6F8B
  0
LINE
  5
6F8C
330
6F83
100
AcDbEntity
 67
     1
  8
0
100
AcDbLine
 10
0.0
 20
210.0
 30
0.0
 11
25.0
 21
210.0
 31
0.0
1001
AcDbBlockRepETag
1070
     1
1071
       23
1005
6F8C
  0
LINE
  5
6F8D
330
6F83
100
AcDbEntity
 67
     1
  8
0
100
AcDbLine
 10
0.0
 20
200.0
 30
0.0
 11
0.0
 21
210.0
 31
0.0
1001
AcDbBlockRepETag
1070
     1
1071
       24
1005
6F8D
  0
LINE
  5
6F8E
330
6F83
100
AcDbEntity
 67
     1
  8
0
100
AcDbLine
 10
284.5
 20
202.0
 30
0.0
 11
284.5
 21
7.0
 31
0.0
1001
AcDbBlockRepETag
1070
     1
1071
       36
1005
6F8E
  0
LINE
  5
6F8F
330
6F83
100
AcDbEntity
 67
     1
  8
0
100
AcDbLine
 10
297.0
 20
10.0
 30
0.0
 11
297.0
 21
0.0
 31
0.0
1001
AcDbBlockRepETag
1070
     1
1071
       40
1005
6F8F
  0
LINE
  5
6F90
330
6F83
100
AcDbEntity
 67
     1
  8
0
100
AcDbLine
 10
297.0
 20
210.0
 30
0.0
 11
297.0
 21
200.0
 31
0.0
1001
AcDbBlockRepETag
1070
     1
1071
       54
1005
6F90
  0
LINE
  5
6F91
330
6F83
100
AcDbEntity
 67
     1
  8
0
100
AcDbLine
 10
272.0
 20
210.0
 30
0.0
 11
297.0
 21
210.0
 31
0.0
1001
AcDbBlockRepETag
1070
     1
1071
       55
1005
6F91
  0
LINE
  5
6F92
330
6F83
100
AcDbEntity
 67
     1
  8
0
100
AcDbLine
 10
272.0
 20
0.0
 30
0.0
 11
297.0
 21
0.0
 31
0.0
1001
AcDbBlockRepETag
1070
     1
1071
       56
1005
6F92
  0
LINE
  5
6F93
330
6F83
100
AcDbEntity
 67
     1
  8
0
100
AcDbLine
 10
284.5
 20
7.0
 30
0.0
 11
12.5
 21
7.0
 31
0.0
1001
AcDbBlockRepETag
1070
     1
1071
       57
1005
0
  0
LINE
  5
6F94
330
6F83
100
AcDbEntity
 67
     1
  8
0
100
AcDbLine
 10
12.5
 20
202.0
 30
0.0
 11
284.5
 21
202.0
 31
0.0
1001
AcDbBlockRepETag
1070
     1
1071
       58
1005
0
  0
LINE
  5
6F95
330
6F83
100
AcDbEntity
 67
     1
  8
0
 62
     0
380
     1
100
AcDbLine
 10
284.5
 20
7.0
 30
0.0
 11
284.5
 21
43.0
 31
0.0
1001
AcDbBlockRepETag
1070
     1
1071
       49
1005
6F95
  0
LINE
  5
6F96
330
6F83
100
AcDbEntity
 67
     1
  8
0
100
AcDbLine
 10
284.4978723404242
 20
16.0
 30
0.0
 11
167.4978723404242
 21
16.0
 31
0.0
1001
AcDbBlockRepETag
1070
     1
1071
      166
1005
6F96
  0
LINE
  5
6F97
330
6F83
100
AcDbEntity
 67
     1
  8
0
100
AcDbLine
 10
218.4978723404242
 20
7.0
 30
0.0
 11
218.4978723404242
 21
16.0
 31
0.0
1001
AcDbBlockRepETag
1070
     1
1071
      167
1005
6F97
  0
LINE
  5
6F98
330
6F83
100
AcDbEntity
 67
     1
  8
0
100
AcDbLine
 10
284.4978723404242
 20
34.0
 30
0.0
 11
167.4978723404242
 21
34.0
 31
0.0
1001
AcDbBlockRepETag
1070
     1
1071
      169
1005
6F98
  0
MTEXT
  5
6F99
330
6F83
100
AcDbEntity
 67
     1
  8
0
100
AcDbMText
 10
192.9978723404241
 20
11.5
 30
0.0
 40
4.0
 41
51.0
 71
     5
 72
     5
  1
富国石油株式会社
 73
     1
 44
1.0
1001
AcDbBlockRepETag
1070
     1
1071
      171
1005
6F99
1001
ACAD
1000
MTEXTBEGIN
1070
    73
1070
     1
1070
    44
1040
1.0
1070
    74
1070
     0
1000
MTEXTEND
  0
LINE
  5
6F9A
330
6F83
100
AcDbEntity
 67
     1
  8
0
  6
HIDDEN2
 48
0.5
100
AcDbLine
 10
284.4978723404242
 20
29.5
 30
0.0
 11
167.4978723404242
 21
29.5
 31
0.0
1001
AcDbBlockRepETag
1070
     1
1071
      180
1005
6F9A
  0
ENDSEC
  0
SECTION
  2
OBJECTS
  0
DICTIONARY
  5
C
330
0
100
AcDbDictionary
281
     1
  3
ACAD_COLOR
350
14D
  3
ACAD_GROUP
350
D
  3
ACAD_LAYOUT
350
1A
  3
ACAD_MATERIAL
350
14C
  3
ACAD_MLINESTYLE
350
17
  3
ACAD_PLOTSETTINGS
350
19
  3
ACAD_PLOTSTYLENAME
350
E
  3
ACAD_TABLESTYLE
350
17B
  3
ACAD_VISUALSTYLE
350
1D3
  3
AcadDim
350
2C28
  3
AcDbVariableDictionary
350
148
  3
DWGPROPS
350
6FD3
  0
DICTIONARY
  5
18A
330
2
100
AcDbDictionary
280
     1
281
     1
  3
ACAD_LAYERFILTERS
360
463
  3
ACAD_LAYERSTATES
360
18B
  3
ACLYDICTIONARY
360
462
  0
DICTIONARY
  5
B52
330
1F
100
AcDbDictionary
280
     1
281
     1
  3
ACAD_SORTENTS
360
B53
  0
DICTIONARY
  5
28E
330
AB
100
AcDbDictionary
280
     1
281
     1
  0
DICTIONARY
  5
4E8
330
4E7
100
AcDbDictionary
280
     1
281
     1
  3
ACAD_SORTENTS
360
6DE
  0
DICTIONARY
  5
930
330
6ED
100
AcDbDictionary
280
     1
281
     1
  3
ACAD_SORTENTS
360
931
  0
DICTIONARY
  5
6FDA
330
316
100
AcDbDictionary
280
     1
281
     1
  3
ACAD_MTEXT_RT
360
6FDB
  0
DICTIONARY
  5
6FDC
330
539
100
AcDbDictionary
280
     1
281
     1
  3
ACAD_MTEXT_RT
360
6FDD
  0
DICTIONARY
  5
6FDE
330
9C6
100
AcDbDictionary
280
     1
281
     1
  3
ACAD_MTEXT_RT
360
6FDF
  0
DICTIONARY
  5
6FE1
330
6F84
100
AcDbDictionary
280
     1
281
     1
  3
ACAD_XREC_ROUNDTRIP
360
6FE2
  0
DICTIONARY
  5
6FE3
330
6F86
100
AcDbDictionary
280
     1
281
     1
  3
ACAD_XREC_ROUNDTRIP
360
6FE4
  0
DICTIONARY
  5
14D
102
{ACAD_REACTORS
330
C
102
}
330
C
100
AcDbDictionary
281
     1
  0
DICTIONARY
  5
D
102
{ACAD_REACTORS
330
C
102
}
330
C
100
AcDbDictionary
281
     1
  0
DICTIONARY
  5
1A
102
{ACAD_REACTORS
330
C
102
}
330
C
100
AcDbDictionary
281
     1
  3
A4横
350
6F80
  3
Model
350
22
  0
DICTIONARY
  5
14C
102
{ACAD_REACTORS
330
C
102
}
330
C
100
AcDbDictionary
281
     1
  3
ByBlock
350
1D1
  3
ByLayer
350
1D0
  3
Global
350
1D2
  0
DICTIONARY
  5
17
102
{ACAD_REACTORS
330
C
102
}
330
C
100
AcDbDictionary
281
     1
  3
Standard
350
18
  0
DICTIONARY
  5
19
102
{ACAD_REACTORS
330
C
102
}
330
C
100
AcDbDictionary
281
     1
  3
JIS A4 title block (portrait) - no output device
350
11F
  0
ACDBDICTIONARYWDFLT
  5
E
102
{ACAD_REACTORS
330
C
102
}
330
C
100
AcDbDictionary
281
     1
  3
Normal
350
F
100
AcDbDictionaryWithDefault
340
F
  0
DICTIONARY
  5
17B
102
{ACAD_REACTORS
330
C
102
}
330
C
100
AcDbDictionary
281
     1
  3
Standard
350
17C
  0
DICTIONARY
  5
1D3
102
{ACAD_REACTORS
330
C
102
}
330
C
100
AcDbDictionary
281
     1
  3
2dWireframe
350
1D9
  3
3D Hidden
350
1DB
  3
3dWireframe
350
1DA
  3
Basic
350
1D8
  3
Brighten
350
1DF
  3
ColorChange
350
1E3
  3
Conceptual
350
1DC
  3
Dim
350
1DE
  3
Facepattern
350
1E2
  3
Flat
350
1D4
  3
FlatWithEdges
350
1D5
  3
Gouraud
350
1D6
  3
GouraudWithEdges
350
1D7
  3
Linepattern
350
1E1
  3
Realistic
350
1DD
  3
Thicken
350
1E0
  0
XRECORD
  5
2C28
102
{ACAD_REACTORS
330
C
102
}
330
C
100
AcDbXrecord
280
     1
 90
   990106
  3

 60
     0
 61
     0
 62
     1
 63
     3
 64
     0
 65
     0
 66
     0
 67
     3
 68
     1
 69
     0
 70
     0
 71
     0
 72
     0
 40
0.0
170
     0
  0
DICTIONARY
  5
148
102
{ACAD_REACTORS
330
C
102
}
330
C
100
AcDbDictionary
281
     1
  3
CTABLESTYLE
350
190
  3
DIMASSOC
350
14A
  3
HIDETEXT
350
149
  3
INDEXCTL
350
6F48
  3
PSOLHEIGHT
350
6FD2
  3
PSOLWIDTH
350
6FD1
  3
SORTENTS
350
6F47
  0
XRECORD
  5
6FD3
102
{ACAD_REACTORS
330
C
102
}
330
C
100
AcDbXrecord
280
     1
  1
DWGPROPS COOKIE
  2

  3

  4

  6

  7

  8
k-uehara
  9

300
=
301
=
302
=
303
=
304
=
305
=
306
=
307
=
308
=
309
=
 40
0.7643164004629631
 41
2454379.577641921
 42
2454937.502277963
  1

 90
        0
  0
DICTIONARY
  5
463
102
{ACAD_REACTORS
330
18A
102
}
330
18A
100
AcDbDictionary
281
     1
  0
DICTIONARY
  5
18B
102
{ACAD_REACTORS
330
18A
102
}
330
18A
100
AcDbDictionary
281
     1
  3
ACAD_VIEWS_元図１
350
6AC
  0
DICTIONARY
  5
462
102
{ACAD_REACTORS
330
18A
102
}
330
18A
100
AcDbDictionary
281
     1
1001
ACAD
1000
<All
  0
SORTENTSTABLE
  5
B53
102
{ACAD_REACTORS
330
B52
102
}
330
B52
100
AcDbSortentsTable
330
1F
  0
SORTENTSTABLE
  5
6DE
102
{ACAD_REACTORS
330
4E8
102
}
330
4E8
100
AcDbSortentsTable
330
4E7
  0
SORTENTSTABLE
  5
931
102
{ACAD_REACTORS
330
930
102
}
330
930
100
AcDbSortentsTable
330
6ED
  0
XRECORD
  5
6FDB
102
{ACAD_REACTORS
330
6FDA
102
}
330
6FDA
100
AcDbXrecord
280
     1
 40
476.0
  1
検^J図
  0
XRECORD
  5
6FDD
102
{ACAD_REACTORS
330
6FDC
102
}
330
6FDC
100
AcDbXrecord
280
     1
 40
476.0
  1
検^J図
  0
XRECORD
  5
6FDF
102
{ACAD_REACTORS
330
6FDE
102
}
330
6FDE
100
AcDbXrecord
280
     1
 40
476.0
  1
検^J図
  0
XRECORD
  5
6FE2
102
{ACAD_REACTORS
330
6FE1
102
}
330
6FE1
100
AcDbXrecord
280
     1
102
SHADEPLOT
 70
     0
  0
XRECORD
  5
6FE4
102
{ACAD_REACTORS
330
6FE3
102
}
330
6FE3
100
AcDbXrecord
280
     1
102
SHADEPLOT
 70
     0
  0
LAYOUT
  5
6F80
102
{ACAD_XDICTIONARY
360
6F81
102
}
102
{ACAD_REACTORS
330
1A
102
}
330
1A
100
AcDbPlotSettings
  1

  2
Canon iR C3200 LIPS
  4
A4
  6

 40
5.873749732971191
 41
5.873747825622557
 42
5.873748779296875
 43
5.873748779296875
 44
209.9733276367186
 45
296.9259948730469
 46
-5.893494129188382
 47
-5.919814586649977
 48
0.0
 49
0.0
140
0.0
141
0.0
142
1.0
143
1.0
 70
   692
 72
     1
 73
     1
 74
     1
  7
monochrome.ctb
 75
    16
147
1.0
148
0.0090630292066862
149
0.0064082024693448
100
AcDbLayout
  1
A4横
 70
     1
 71
     1
 10
0.037002778146416
 20
0.0133361937478469
 11
296.9629976511933
 21
209.9866638304666
 12
0.0
 22
0.0
 32
0.0
 14
0.0
 24
0.0
 34
0.0
 15
297.0
 25
210.0
 35
0.0
146
0.0
 13
0.0
 23
0.0
 33
0.0
 16
1.0
 26
0.0
 36
0.0
 17
0.0
 27
1.0
 37
0.0
 76
     0
330
6F83
331
6F84
1001
ACAD_PSEXT
1000
Canon iR C3200 LIPS
1000
Canon iR C3200 LIPS
1000
IP_128.1.1.200
1000

1070
     0
  0
LAYOUT
  5
22
102
{ACAD_XDICTIONARY
360
6FD4
102
}
102
{ACAD_REACTORS
330
1A
102
}
330
1A
100
AcDbPlotSettings
  1

  2
none_device
  4
ISO_A4_(210.00_x_297.00_MM)
  6

 40
7.5
 41
20.0
 42
7.5
 43
20.0
 44
210.0
 45
297.0
 46
0.0
 47
73.36421725239617
 48
0.0
 49
0.0
140
0.0
141
0.0
142
1.0
143
2.869813509774056
 70
 11956
 72
     1
 73
     0
 74
     0
  7

 75
     0
147
0.3484546980471668
148
1.967705816488884
149
9.729414201041008
100
AcDbLayout
  1
Model
 70
     1
 71
     0
 10
0.0
 20
0.0
 11
12.0
 21
9.0
 12
0.0
 22
0.0
 32
0.0
 14
0.0
 24
0.0
 34
0.0
 15
0.0
 25
0.0
 35
0.0
146
0.0
 13
0.0
 23
0.0
 33
0.0
 16
1.0
 26
0.0
 36
0.0
 17
0.0
 27
1.0
 37
0.0
 76
     0
330
1F
331
1B5
1001
ACAD_PSEXT
1000
None
1000
None
1000
Not applicable
1000
The layout will not be plotted unless a new plotter configuration name is selected.
1070
     0
  0
MATERIAL
  5
1D1
102
{ACAD_XDICTIONARY
360
6F57
102
}
102
{ACAD_REACTORS
330
14C
102
}
330
14C
100
AcDbMaterial
  1
ByBlock
  0
MATERIAL
  5
1D0
102
{ACAD_XDICTIONARY
360
6F55
102
}
102
{ACAD_REACTORS
330
14C
102
}
330
14C
100
AcDbMaterial
  1
ByLayer
  0
MATERIAL
  5
1D2
102
{ACAD_XDICTIONARY
360
6F59
102
}
102
{ACAD_REACTORS
330
14C
102
}
330
14C
100
AcDbMaterial
  1
Global
  0
MLINESTYLE
  5
18
102
{ACAD_REACTORS
330
17
102
}
330
17
100
AcDbMlineStyle
  2
STANDARD
 70
     0
  3

 62
   256
 51
90.0
 52
90.0
 71
     2
 49
0.5
 62
   256
  6
BYLAYER
 49
-0.5
 62
   256
  6
BYLAYER
  0
PLOTSETTINGS
  5
11F
102
{ACAD_XDICTIONARY
360
6FD6
102
}
102
{ACAD_REACTORS
330
19
102
}
330
19
100
AcDbPlotSettings
  1
JIS A4 title block (portrait) - no output device
  2
None
  4
ISO_A4_(210.00_x_297.00_MM)
  6

 40
7.549999999999998
 41
20.05
 42
7.549999999999998
 43
20.05
 44
210.0
 45
297.0
 46
-7.559999999999997
 47
-20.06
 48
0.0
 49
0.0
140
0.0
141
0.0
142
1.0
143
1.0
 70
   692
 72
     1
 73
     0
 74
     1
  7

 75
    16
147
1.0
148
0.0128164049386896
149
0.0090630292066862
  0
ACDBPLACEHOLDER
  5
F
102
{ACAD_REACTORS
330
E
102
}
330
E
  0
TABLESTYLE
  5
17C
102
{ACAD_XDICTIONARY
360
6FD8
102
}
102
{ACAD_REACTORS
330
17B
102
}
330
17B
100
AcDbTableStyle
  3
Standard
 70
     0
 71
     0
 40
1.5
 41
1.5
280
     0
281
     0
  7
Standard
140
4.5
170
     2
 62
     0
 63
     7
283
     0
274
    -2
284
     1
 64
     0
275
    -2
285
     1
 65
     0
276
    -2
286
     1
 66
     0
277
    -2
287
     1
 67
     0
278
    -2
288
     1
 68
     0
279
    -2
289
     1
 69
     0
  7
Standard
140
6.0
170
     5
 62
     0
 63
     7
283
     0
274
    -2
284
     1
 64
     0
275
    -2
285
     1
 65
     0
276
    -2
286
     1
 66
     0
277
    -2
287
     1
 67
     0
278
    -2
288
     1
 68
     0
279
    -2
289
     1
 69
     0
  7
Standard
140
4.5
170
     5
 62
     0
 63
     7
283
     0
274
    -2
284
     1
 64
     0
275
    -2
285
     1
 65
     0
276
    -2
286
     1
 66
     0
277
    -2
287
     1
 67
     0
278
    -2
288
     1
 68
     0
279
    -2
289
     1
 69
     0
  0
VISUALSTYLE
  5
1D9
102
{ACAD_REACTORS
330
1D3
102
}
330
1D3
100
AcDbVisualStyle
  2
2dWireframe
 70
     4
 71
     0
 72
     2
 73
     1
 90
        0
 40
-0.6
 41
-30.0
 62
     5
 63
     7
 74
     1
 91
        4
 64
     7
 65
   257
 75
     1
175
     1
 42
1.0
 92
        0
 66
   257
 43
1.0
 76
     1
 77
     6
 78
     2
 67
     7
 79
     5
170
     0
171
     0
290
     0
174
     0
 93
        1
 44
0.0
173
     0
291
     0
 45
0.0
1001
ACAD
1000
AcDbSavedByObjectVersion
1070
     0
1000
AcDbSavedByObjectVersion
1070
     0
1000
AcDbSavedByObjectVersion
1070
     0
  0
VISUALSTYLE
  5
1DB
102
{ACAD_REACTORS
330
1D3
102
}
330
1D3
100
AcDbVisualStyle
  2
3D Hidden
 70
     6
 71
     1
 72
     2
 73
     2
 90
        0
 40
-0.6
 41
-30.0
 62
     5
 63
     7
 74
     2
 91
        2
 64
     7
 65
   257
 75
     2
175
     1
 42
40.0
 92
        0
 66
   257
 43
1.0
 76
     1
 77
     6
 78
     2
 67
     7
 79
     3
170
     0
171
     0
290
     0
174
     0
 93
        1
 44
0.0
173
     0
291
     0
 45
0.0
1001
ACAD
1000
AcDbSavedByObjectVersion
1070
     0
1000
AcDbSavedByObjectVersion
1070
     0
1000
AcDbSavedByObjectVersion
1070
     0
  0
VISUALSTYLE
  5
1DA
102
{ACAD_REACTORS
330
1D3
102
}
330
1D3
100
AcDbVisualStyle
  2
3dWireframe
 70
     5
 71
     0
 72
     2
 73
     1
 90
        0
 40
-0.6
 41
-30.0
 62
     5
 63
     7
 74
     1
 91
        4
 64
     7
 65
   257
 75
     1
175
     1
 42
1.0
 92
        0
 66
   257
 43
1.0
 76
     1
 77
     6
 78
     2
 67
     7
 79
     5
170
     0
171
     0
290
     0
174
     0
 93
        1
 44
0.0
173
     0
291
     0
 45
0.0
1001
ACAD
1000
AcDbSavedByObjectVersion
1070
     0
1000
AcDbSavedByObjectVersion
1070
     0
1000
AcDbSavedByObjectVersion
1070
     0
  0
VISUALSTYLE
  5
1D8
102
{ACAD_REACTORS
330
1D3
102
}
330
1D3
100
AcDbVisualStyle
  2
Basic
 70
     7
 71
     1
 72
     0
 73
     1
 90
        0
 40
-0.6
 41
-30.0
 62
     5
 63
     7
 74
     0
 91
        4
 64
     7
 65
   257
 75
     1
175
     1
 42
1.0
 92
        8
 66
     7
 43
1.0
 76
     1
 77
     6
 78
     2
 67
     7
 79
     5
170
     0
171
     0
290
     0
174
     0
 93
        1
 44
0.0
173
     0
291
     1
 45
0.0
1001
ACAD
1000
AcDbSavedByObjectVersion
1070
     0
1000
AcDbSavedByObjectVersion
1070
     0
1000
AcDbSavedByObjectVersion
1070
     0
  0
VISUALSTYLE
  5
1DF
102
{ACAD_REACTORS
330
1D3
102
}
330
1D3
100
AcDbVisualStyle
  2
Brighten
 70
    12
 71
     2
 72
     2
 73
     1
 90
        0
 40
-0.6
 41
-30.0
 62
     5
 63
     7
 74
     1
 91
        4
 64
     7
 65
   257
 75
     1
175
     1
 42
1.0
 92
        8
 66
     7
 43
1.0
 76
     1
 77
     6
 78
     2
 67
     7
 79
     5
170
     0
171
     0
290
     0
174
     0
 93
        1
 44
50.0
173
     0
291
     1
 45
0.0
1001
ACAD
1000
AcDbSavedByObjectVersion
1070
     0
1000
AcDbSavedByObjectVersion
1070
     0
1000
AcDbSavedByObjectVersion
1070
     0
  0
VISUALSTYLE
  5
1E3
102
{ACAD_REACTORS
330
1D3
102
}
330
1D3
100
AcDbVisualStyle
  2
ColorChange
 70
    16
 71
     2
 72
     2
 73
     3
 90
        0
 40
-0.6
 41
-30.0
 62
     5
 63
     8
 74
     1
 91
        4
 64
     7
 65
   257
 75
     1
175
     1
 42
1.0
 92
        8
 66
     8
 43
1.0
 76
     1
 77
     6
 78
     2
 67
     7
 79
     5
170
     0
171
     0
290
     0
174
     0
 93
        1
 44
0.0
173
     0
291
     1
 45
0.0
1001
ACAD
1000
AcDbSavedByObjectVersion
1070
     0
1000
AcDbSavedByObjectVersion
1070
     0
1000
AcDbSavedByObjectVersion
1070
     0
  0
VISUALSTYLE
  5
1DC
102
{ACAD_REACTORS
330
1D3
102
}
330
1D3
100
AcDbVisualStyle
  2
Conceptual
 70
     9
 71
     3
 72
     2
 73
     1
 90
        0
 40
-0.6
 41
-30.0
 62
     5
 63
     7
 74
     2
 91
        2
 64
     7
 65
   257
 75
     1
175
     1
 42
40.0
 92
        8
 66
     7
 43
1.0
 76
     1
 77
     6
 78
     2
 67
     7
 79
     3
170
     0
171
     0
290
     0
174
     0
 93
        1
 44
0.0
173
     0
291
     0
 45
0.0
1001
ACAD
1000
AcDbSavedByObjectVersion
1070
     0
1000
AcDbSavedByObjectVersion
1070
     0
1000
AcDbSavedByObjectVersion
1070
     0
  0
VISUALSTYLE
  5
1DE
102
{ACAD_REACTORS
330
1D3
102
}
330
1D3
100
AcDbVisualStyle
  2
Dim
 70
    11
 71
     2
 72
     2
 73
     1
 90
        0
 40
-0.6
 41
-30.0
 62
     5
 63
     7
 74
     1
 91
        4
 64
     7
 65
   257
 75
     1
175
     1
 42
1.0
 92
        8
 66
     7
 43
1.0
 76
     1
 77
     6
 78
     2
 67
     7
 79
     5
170
     0
171
     0
290
     0
174
     0
 93
        1
 44
-50.0
173
     0
291
     1
 45
0.0
1001
ACAD
1000
AcDbSavedByObjectVersion
1070
     0
1000
AcDbSavedByObjectVersion
1070
     0
1000
AcDbSavedByObjectVersion
1070
     0
  0
VISUALSTYLE
  5
1E2
102
{ACAD_REACTORS
330
1D3
102
}
330
1D3
100
AcDbVisualStyle
  2
Facepattern
 70
    15
 71
     2
 72
     2
 73
     1
 90
        0
 40
-0.6
 41
-30.0
 62
     5
 63
     7
 74
     1
 91
        4
 64
     7
 65
   257
 75
     1
175
     1
 42
1.0
 92
        8
 66
     7
 43
1.0
 76
     1
 77
     6
 78
     2
 67
     7
 79
     5
170
     0
171
     0
290
     0
174
     0
 93
        1
 44
0.0
173
     0
291
     1
 45
0.0
1001
ACAD
1000
AcDbSavedByObjectVersion
1070
     0
1000
AcDbSavedByObjectVersion
1070
     0
1000
AcDbSavedByObjectVersion
1070
     0
  0
VISUALSTYLE
  5
1D4
102
{ACAD_REACTORS
330
1D3
102
}
330
1D3
100
AcDbVisualStyle
  2
Flat
 70
     0
 71
     2
 72
     1
 73
     1
 90
        2
 40
-0.6
 41
30.0
 62
     5
 63
     7
 74
     0
 91
        4
 64
     7
 65
   257
 75
     1
175
     1
 42
1.0
 92
        8
 66
     7
 43
1.0
 76
     1
 77
     6
 78
     2
 67
     7
 79
     5
170
     0
171
     0
290
     0
174
     0
 93
       13
 44
0.0
173
     0
291
     1
 45
0.0
1001
ACAD
1000
AcDbSavedByObjectVersion
1070
     0
1000
AcDbSavedByObjectVersion
1070
     0
1000
AcDbSavedByObjectVersion
1070
     0
  0
VISUALSTYLE
  5
1D5
102
{ACAD_REACTORS
330
1D3
102
}
330
1D3
100
AcDbVisualStyle
  2
FlatWithEdges
 70
     1
 71
     2
 72
     1
 73
     1
 90
        2
 40
-0.6
 41
30.0
 62
     5
 63
     7
 74
     1
 91
        4
 64
     7
 65
   257
 75
     1
175
     1
 42
1.0
 92
        0
 66
   257
 43
1.0
 76
     1
 77
     6
 78
     2
 67
     7
 79
     5
170
     0
171
     0
290
     0
174
     0
 93
       13
 44
0.0
173
     0
291
     1
 45
0.0
1001
ACAD
1000
AcDbSavedByObjectVersion
1070
     0
1000
AcDbSavedByObjectVersion
1070
     0
1000
AcDbSavedByObjectVersion
1070
     0
  0
VISUALSTYLE
  5
1D6
102
{ACAD_REACTORS
330
1D3
102
}
330
1D3
100
AcDbVisualStyle
  2
Gouraud
 70
     2
 71
     2
 72
     2
 73
     1
 90
        2
 40
-0.6
 41
30.0
 62
     5
 63
     7
 74
     0
 91
        4
 64
     7
 65
   257
 75
     1
175
     1
 42
1.0
 92
        0
 66
     7
 43
1.0
 76
     1
 77
     6
 78
     2
 67
     7
 79
     5
170
     0
171
     0
290
     0
174
     0
 93
       13
 44
0.0
173
     0
291
     1
 45
0.0
1001
ACAD
1000
AcDbSavedByObjectVersion
1070
     0
1000
AcDbSavedByObjectVersion
1070
     0
1000
AcDbSavedByObjectVersion
1070
     0
  0
VISUALSTYLE
  5
1D7
102
{ACAD_REACTORS
330
1D3
102
}
330
1D3
100
AcDbVisualStyle
  2
GouraudWithEdges
 70
     3
 71
     2
 72
     2
 73
     1
 90
        2
 40
-0.6
 41
30.0
 62
     5
 63
     7
 74
     1
 91
        4
 64
     7
 65
   257
 75
     1
175
     1
 42
1.0
 92
        0
 66
   257
 43
1.0
 76
     1
 77
     6
 78
     2
 67
     7
 79
     5
170
     0
171
     0
290
     0
174
     0
 93
       13
 44
0.0
173
     0
291
     1
 45
0.0
1001
ACAD
1000
AcDbSavedByObjectVersion
1070
     0
1000
AcDbSavedByObjectVersion
1070
     0
1000
AcDbSavedByObjectVersion
1070
     0
  0
VISUALSTYLE
  5
1E1
102
{ACAD_REACTORS
330
1D3
102
}
330
1D3
100
AcDbVisualStyle
  2
Linepattern
 70
    14
 71
     2
 72
     2
 73
     1
 90
        0
 40
-0.6
 41
-30.0
 62
     5
 63
     7
 74
     1
 91
        4
 64
     7
 65
   257
 75
     7
175
     7
 42
1.0
 92
        8
 66
     7
 43
1.0
 76
     1
 77
     6
 78
     2
 67
     7
 79
     5
170
     0
171
     0
290
     0
174
     0
 93
        1
 44
0.0
173
     0
291
     1
 45
0.0
1001
ACAD
1000
AcDbSavedByObjectVersion
1070
     0
1000
AcDbSavedByObjectVersion
1070
     0
1000
AcDbSavedByObjectVersion
1070
     0
  0
VISUALSTYLE
  5
1DD
102
{ACAD_REACTORS
330
1D3
102
}
330
1D3
100
AcDbVisualStyle
  2
Realistic
 70
     8
 71
     2
 72
     2
 73
     1
 90
        0
 40
-0.6
 41
-30.0
 62
     5
 63
     7
 74
     1
 91
        0
 64
     7
 65
   257
 75
     1
175
     1
 42
1.0
 92
        8
 66
     8
 43
1.0
 76
     1
 77
     6
 78
     2
 67
     7
 79
     5
170
     0
171
     0
290
     0
174
     0
 93
       13
 44
0.0
173
     0
291
     0
 45
0.0
1001
ACAD
1000
AcDbSavedByObjectVersion
1070
     0
1000
AcDbSavedByObjectVersion
1070
     0
1000
AcDbSavedByObjectVersion
1070
     0
  0
VISUALSTYLE
  5
1E0
102
{ACAD_REACTORS
330
1D3
102
}
330
1D3
100
AcDbVisualStyle
  2
Thicken
 70
    13
 71
     2
 72
     2
 73
     1
 90
        0
 40
-0.6
 41
-30.0
 62
     5
 63
     7
 74
     1
 91
        4
 64
     7
 65
   257
 75
     1
175
     1
 42
1.0
 92
       12
 66
     7
 43
1.0
 76
     1
 77
     6
 78
     2
 67
     7
 79
     5
170
     0
171
     0
290
     0
174
     0
 93
        1
 44
0.0
173
     0
291
     1
 45
0.0
1001
ACAD
1000
AcDbSavedByObjectVersion
1070
     0
1000
AcDbSavedByObjectVersion
1070
     0
1000
AcDbSavedByObjectVersion
1070
     0
  0
DICTIONARYVAR
  5
190
102
{ACAD_REACTORS
330
148
102
}
330
148
100
DictionaryVariables
280
     0
  1
STANDARD
  0
DICTIONARYVAR
  5
14A
102
{ACAD_REACTORS
330
148
102
}
330
148
100
DictionaryVariables
280
     0
  1
2
  0
DICTIONARYVAR
  5
149
102
{ACAD_REACTORS
330
148
102
}
330
148
100
DictionaryVariables
280
     0
  1
1
  0
DICTIONARYVAR
  5
6F48
102
{ACAD_REACTORS
330
148
102
}
330
148
100
DictionaryVariables
280
     0
  1
0
  0
DICTIONARYVAR
  5
6FD2
102
{ACAD_REACTORS
330
148
102
}
330
148
100
DictionaryVariables
280
     0
  1
80.000000
  0
DICTIONARYVAR
  5
6FD1
102
{ACAD_REACTORS
330
148
102
}
330
148
100
DictionaryVariables
280
     0
  1
5.000000
  0
DICTIONARYVAR
  5
6F47
102
{ACAD_REACTORS
330
148
102
}
330
148
100
DictionaryVariables
280
     0
  1
127
  0
XRECORD
  5
6AC
102
{ACAD_REACTORS
330
18B
102
}
330
18B
100
AcDbXrecord
280
     1
 91
    33280
301

290
     0
302
Viewport
330
4CB
 90
        8
 62
     8
370
    25
331
16
  1
色_8
330
0
 90
        8
 62
     8
370
    18
331
16
  1
色_8
330
4CA
 90
        8
 62
     2
370
    18
331
16
  1
色_2
330
0
 90
        8
 62
     3
370
    -3
331
16
  1
色_3
330
0
 90
        8
 62
     3
370
    -3
331
16
  1
色_3
330
4C9
 90
        8
 62
     5
370
    18
331
4C4
  1
色_5
330
4C8
 90
        8
 62
     8
370
    50
331
16
  1
色_8
330
4C7
 90
        8
 62
     1
370
    18
331
4C3
  1
色_1
330
4C6
 90
        8
 62
     5
370
    18
331
291
  1
色_5
330
3DC
 90
        8
 62
     4
370
    -3
331
16
  1
色_4
330
345
 90
        0
 62
     6
370
    18
331
16
  1
色_6
330
4C5
 90
        8
 62
     3
370
    18
331
16
  1
色_3
330
3DB
 90
        0
 62
     7
370
    -3
331
16
  1
色_7
330
0
 90
        8
 62
     4
370
    -3
331
16
  1
色_4
330
0
 90
        8
 62
     5
370
    40
331
16
  1
色_5
330
12D
 90
        8
 62
     7
370
    -3
331
16
  1
色_7
330
12C
 90
        8
 62
     7
370
    -3
331
16
  1
色_7
330
E4
 90
        8
 62
     7
370
    25
331
16
  1
色_7
330
10
 90
        8
 62
     7
370
    -3
331
16
  1
色_7
  0
DICTIONARY
  5
6F81
330
6F80
100
AcDbDictionary
280
     1
281
     1
  3
ACAD_XREC_ROUNDTRIP
360
6FE0
  3
ADSK_XREC_LAYOUTTHUMBNAIL
360
6F82
  0
DICTIONARY
  5
6FD4
330
22
100
AcDbDictionary
280
     1
281
     1
  3
ACAD_XREC_ROUNDTRIP
360
6FD5
  0
DICTIONARY
  5
6F57
330
1D1
100
AcDbDictionary
280
     1
281
     1
  3
ACAD_XREC_ROUNDTRIP
360
6F58
  0
DICTIONARY
  5
6F55
330
1D0
100
AcDbDictionary
280
     1
281
     1
  3
ACAD_XREC_ROUNDTRIP
360
6F56
  0
DICTIONARY
  5
6F59
330
1D2
100
AcDbDictionary
280
     1
281
     1
  3
ACAD_XREC_ROUNDTRIP
360
6F5A
  0
DICTIONARY
  5
6FD6
330
11F
100
AcDbDictionary
280
     1
281
     1
  3
ACAD_XREC_ROUNDTRIP
360
6FD7
  0
DICTIONARY
  5
6FD8
330
17C
100
AcDbDictionary
280
     1
281
     1
  3
ACAD_XREC_ROUNDTRIP
360
6FD9
  0
XRECORD
  5
6FE0
102
{ACAD_REACTORS
330
6F81
102
}
330
6F81
100
AcDbXrecord
280
     1
102
SHADEPLOT
 70
     0
102
SHADEPLOTRESLEVEL
 70
     2
102
SHADEPLOTCUSTOMDPI
 70
   300
  0
XRECORD
  5
6F82
102
{ACAD_REACTORS
330
6F81
102
}
330
6F81
100
AcDbXrecord
280
     1
310
28000000B40000007F00000001000800000000004C59000000000000000000000001000000000000FFFFFF0000000000FFFFFF000000000000000000000000000000000000000000000000000000000000000000330000006600000099000000CC000000FF00000000330000333300006633000099330000CC330000FF3300
310
0000660000336600006666000099660000CC660000FF66000000990000339900006699000099990000CC990000FF99000000CC000033CC000066CC000099CC0000CCCC0000FFCC000000FF000033FF000066FF000099FF0000CCFF0000FFFF000000003300330033006600330099003300CC003300FF003300003333003333
310
33006633330099333300CC333300FF33330000663300336633006666330099663300CC663300FF66330000993300339933006699330099993300CC993300FF99330000CC330033CC330066CC330099CC3300CCCC3300FFCC330000FF330033FF330066FF330099FF3300CCFF3300FFFF330000006600330066006600660099
310
006600CC006600FF00660000336600333366006633660099336600CC336600FF33660000666600336666006666660099666600CC666600FF66660000996600339966006699660099996600CC996600FF99660000CC660033CC660066CC660099CC6600CCCC6600FFCC660000FF660033FF660066FF660099FF6600CCFF6600
310
FFFF660000009900330099006600990099009900CC009900FF00990000339900333399006633990099339900CC339900FF33990000669900336699006666990099669900CC669900FF66990000999900339999006699990099999900CC999900FF99990000CC990033CC990066CC990099CC9900CCCC9900FFCC990000FF99
310
0033FF990066FF990099FF9900CCFF9900FFFF99000000CC003300CC006600CC009900CC00CC00CC00FF00CC000033CC003333CC006633CC009933CC00CC33CC00FF33CC000066CC003366CC006666CC009966CC00CC66CC00FF66CC000099CC003399CC006699CC009999CC00CC99CC00FF99CC0000CCCC0033CCCC0066CC
310
CC0099CCCC00CCCCCC00FFCCCC0000FFCC0033FFCC0066FFCC0099FFCC00CCFFCC00FFFFCC000000FF003300FF006600FF009900FF00CC00FF00FF00FF000033FF003333FF006633FF009933FF00CC33FF00FF33FF000066FF003366FF006666FF009966FF00CC66FF00FF66FF000099FF003399FF006699FF009999FF00CC
310
99FF00FF99FF0000CCFF0033CCFF0066CCFF0099CCFF00CCCCFF00FFCCFF0000FFFF0033FFFF0066FFFF0099FFFF00CCFFFF00FFFFFF00000000000D0D0D001A1A1A00282828003535350043434300505050005D5D5D006B6B6B00787878008686860093939300A1A1A100AEAEAE00BBBBBB00C9C9C900D6D6D600E4E4E400
310
F1F1F100FFFFFF0000000000000000000000000000000000000000000000000000000000000000000000000000000000E2E2E2E2E2E2E2E2E2E2E2E2E2E2E2E2E2E2E2E2E2E2E2E2E2E2E2E2E2E2E2E2E2E2E2E2E2E2E2E2E2E2E2E2E2E2E2E2E2E2E2E2E2E2E2E2E2E2E2E2E2E2E2E2E2E2E2E2E2E2E2E2E2E2E2E2E2E2E2
310
E2E2E2E2E2E2E2E2E2E2E2E2E2E2E2E2E2E2E2E2E2E2E2E2E2E2E2E2E2E2E2E2E2E2E2E2E2E2E2E2E2E2E2E2E2E2E2E2E2E2E2E2E2E2E2E2E2E2E2E2E2E2E2E2E2E2E2E2E2E2E2E2E2E2E2E2E2E2E2E2E2E2E2E2E2E2E2E2E2E2E2E2E2E2E2E2E2E2E2E2E2E2F5F5F5F5F5F5F5F5F5F5F5F5F5F5F5F5F5F5F5F5F5F5F5F5F5
310
F5F5F5F5F5F5F5F5F5F5F5F5F5F5F5F5F5F5F5F5F5F5F5F5F5F5F5F5F5F5F5F5F5F5F5F5F5F5F5F5F5F5F5F5F5F5F5F5F5F5F5F5F5F5F5F5F5F5F5F5F5F5F5F5F5F5F5F5F5F5F5F5F5F5F5F5F5F5F5F5F5F5F5F5F5F5F5F5F5F5F5F5F5F5F5F5F5F5F5F5F5F5F5F5F5F5F5F5F5F5F5F5F5F5F5F5F5F5F5F5F5F5F5F5F5F5F5
310
F5F5F5F5F5F5F5F5F5F5F5F5F5F5F5F5F5F5F5F5F5F5F5F5F5E2E2E2F5F5F5F5F5F5F5F5F5F5F5F5F5F5F5F5F5F5F5F5F5F5F5F5F5F5F5F5F5F5F5F5F5F5F5F5F5F5F5F5F5F5F5F5F5F5F5F5F5F5F5F5F5F5F5F5F5F5F5F5F5F5F5F5F5F5F5F5F5F5F5F5F5F5F5F5F5F5F5F5F5F5F5F5F5F5F5F5F5F5F5F5F5F5F5F5F5F5F5
310
F5F5F5F5F5F5F5F5F5F5F5F5F5F5F5F5F5F5F5F5F5F5F5F5F5F5F5F5F5F5F5F5F5F5F5F5F5F5F5F5F5F5F5F5F5F5F5F5F5F5F5F5F5F5F5F5F5F5F5F5F5F5F5F5F5F5F5F5F5F5F5F5F5F5F5F5F5F5E2E2E2F5F5F5F5F5F5F5F5F5F5F5F5F5F5F5F5F5F5F5F5F5F5F5F5F5F5F5F5F5F5F5F5F5F5F5F5F5F5F5F5F5F5F5F5F5F5
310
F5F5F5F5F5F5F5F5F5F5F5F5F5F5F5F5F5F5F5F5F5F5F5F5F5F5F5F5F5F5F5F5F5F5F5F5F5F5F5F5F5F5E2F5F5F5F5F5F5F5F5F5F5F5F5F5F5F5F5F5F5F5F5F5F5F5F5F5F5F5F5F5F5F5F5F5F5F5F5F5F5F5F5F5F5F5F5F5F5F5F5F5F5F5F5F5F5F5F5F5F5F5F5F5F5F5F5F5F5F5F5F5F5F5F5F5F5F5F5F5F5F5F5F5F5F5F5
310
F5F5F5F5E2E2E2F5F5F5E2E2E2E2E2E2E2E2E2E2E2E2E2E2E2E2E2E2E2E2E2E2E2E2E2E2E2E2E2E2E2E2E2E2E2E2E2E2E2E2E2E2E2E2E2E2E2E2E2E2E2E2E2E2E2E2E2E2E2E2E2E2E2E2E2E2E2E2E2E2E2E2E2E2E2E2E2E2E2E2E2E2E2E2E2E2E2E2E2E2E2E2E2E2E2E2E2E2E2E2E2E2E2E2E2E2E2E2E2E2E2E2E2E2E2E2E2
310
E2E2E2E2E2E2E2E2E2E2E2E2E2E2E2E2E2E2E2E2E2E2E2E2E2E2E2E2E2E2E2E2E2E2E2E2E2E2E2E2E2E2E2E2E2E2E2E2E2E2E2E2E2E2F5F5F5E2E2E2F5F5F5E2F5F5F5E2F5F5F5F5F5F5F5F5F5F5F5F5F5F5F5F5F5F5F5F5F5F5F5F5F5F5F5F5F5F5F5F5F5F5F5F5F5F5F5F5F5F5F5F5F5F5F5F5F5F5F5F5F5F5F5F5F5F5F5
310
F5F5F5F5F5F5F5F5F5F5F5F5F5F5F5F5F5F5F5F5F5F5F5F5F5F5F5F5F5F5F5F5E2F5F5E2E2E2E2E2E2E2E2E2E2E2E2E2E2E2E2E2E2E2E2E2E2E2E2E2F5F5F5E2F5F5F5F5F5F5F5F5F5F5F5F5F5F5F5F5F5F5F5F5F5F5F5F5F5F5F5F5F5F5F5F5F5F5F5F5F5F5E2F5F5F5E2F5F5F5E2E2E2F5F5F5E2F5F5F5E2F5F5F5F5F5F5
310
F5F5F5F5F5F5F5F5F5F5F5F5F5F5F5F5F5F5F5F5F5F5F5F5F5F5F5F5F5F5F5F5F5F5F5F5F5F5F5F5F5F5F5F5F5F5F5F5F5F5F5F5F5F5F5F5F5F5F5F5F5F5F5F5F5F5F5F5F5F5F5F5F5F5F5F5F5F5F5F5F5F5F5F5F5E2F5F5E2E2E2E2E2E2E2E2E2E2E2E2E2E2E2E2E2E2E2E2E2E2E2E2E2F5F5F5E2F5F5F5F5F5F5F5F5F5F5
310
F5F5F5F5F5F5F5F5F5F5F5F5F5F5F5F5F5F5F5F5F5F5F5F5F5F5F5F5E2F5F5F5E2F5F5F5E2E2E2F5F5F5E2F5F5F5E2F5F5F5F5F5F5F5F5F5F5F5F5F5F5F5F5F5F5F5F5F5F5F5F5F5F5F5F5F5F5F5F5F5F5F5F5F5F5F5F5F5F5F5F5F5F5F5F5F5F5F5F5F5F5F5F5F5F5F5F5F5F5F5F5F5F5F5F5F5F5F5F5F5F5F5F5F5F5F5F5
310
F5F5F5F5F5F5F5F5F5F5F5E2F5F5E2E2E2E2E2E2E2E2E2E2E2E2E2E2E2E2E2E2E2E2E2E2E2E2E2F5F5F5E2F5F5F5F5F5F5F5F5F5F5F5F5F5F5F5F5F5F5F5F5F5F5F5F5F5F5F5F5F5F5F5F5F5F5F5F5F5F5E2F5F5F5E2F5F5F5E2E2E2F5F5F5E2F5F5F5E2F5F5F5F5F5F5F5F5F5F5F5F5F5F5F5F5F5F5F5F5F5F5F5F5F5F5F5
310
F5F5F5F5F5F5F5F5F5F5F5F5F5F5F5F5F5F5F5F5F5F5F5F5F5F5F5F5F5F5F5F5F5F5F5F5F5F5F5F5F5F5F5F5F5F5F5F5F5F5F5F5F5F5F5F5F5F5F5F5F5F5F5F5E2F5F5E2E2E2E2E2E2E2E2E2E2E2E2E2E2E2E2E2E2E2E2E2E2E2E2E2F5F5F5E2F5F5F5F5F5F5F5F5F5F5F5F5F5F5F5F5F5F5F5F5F5F5F5F5F5F5F5F5F5F5F5
310
F5F5F5F5F5F5F5E2F5F5F5E2F5F5F5E2E2E2F5F5F5E2F5F5F5E2F5F5F5F5F5F5F5F5F5F5F5F5F5F5F5F5F5F5F5F5F5F5F5F5F5F5F5F5F5F5F5F5F5F5F5F5F5F5F5F5F5F5F5F5F5F5F5F5F5F5F5F5F5F5F5F5F5F5F5F5F5F5F5F5F5F5F5F5F5F5F5F5F5F5F5F5F5F5F5F5F5F5F5F5F5F5F5F5F5F5F5E2F5F5F5F5F5F5F5F5F5
310
F5F5F5F5F5F5F5F5F5F5F5F5F5F5F5F5F5F5F5F5F5E2F5F5F5F5F5F5F5F5F5F5F5F5F5F5F5F5F5F5F5F5F5F5F5F5F5F5F5F5F5F5F5F5F5F5F5F5F5F5E2F5F5F5E2F5F5F5E2E2E2F5F5F5E2F5F5F5E2F5F5F5F5F5F5F5F5F5F5F5F5F5F5F5F5F5F5F5F5F5F5F5F5F5F5F5F5F5F5F5F5F5F5F5F5F5F5F5F5F5F5F5F5F5F5F5F5
310
F5F5F5F5F5F5F5F5F5F5F5F5F5F5F5F5F5F5F5F5F5F5F5F5F5F5F5F5F5F5F5F5F5F5F5F5F5F5F5F5F5F5F5E2E2E2E2E2E2E2E2E2E2E2E2E2E2E2E2E2E2E2E2E2E2E2E2E2E2E2E2E2E2E2E2E2E2E2E2E2E2E2E2E2E2E2E2E2E2E2E2E2E2E2E2E2E2E2E2E2E2E2E2E2E2E2E2E2E2E2E2E2E2E2F5F5F5E2F5F5F5E2E2E2F5F5F5
310
E2F5F5F5E2F5F5F5F5F5F5F5F5F5F5F5F5F5F5F5F5F5F5F5F5F5F5F5F5F5F5F5F5F5F5F5F5F5F5F5F5F5F5F5F5F5F5F5F5F5F5F5F5F5F5F5F5F5F5F5F5F5F5F5F5F5F5F5F5F5F5F5F5F5F5F5F5F5F5F5F5F5F5F5F5F5F5F5F5F5F5F5F5F5F5F5E2F5F5F5F5F5F5F5F5F5F5F5F5F5F5F5F5F5F5F5F5F5F5F5F5F5F5F5F5F5F5
310
F5F5F5F5F5F5F5F5F5F5F5F5F5F5F5F5F5F5F5F5F5F5F5F5F5F5F5F5F5F5F5F5F5F5F5F5F5F5F5E2F5F5F5E2F5F5F5E2E2E2F5F5F5F5F5F5F5E2F5F5F5F5F5F5F5F5F5F5F5F5F5F5F5F5F5F5F5F5F5F5F5F5F5F5F5F5F5F5F5F5F5F5F5F5F5F5F5F5F5F5F5F5F5F5F5F5F5F5F5F5F5F5F5F5F5F5F5F5F5F5F5F5F5F5F5F5F5
310
F5F5F5F5F5F5F5F5F5F5F5F5F5F5F5F5F5F5F5F5F5F5E2F5F5F5F5F5F5F5F5F5F5F5F5F5F5F5F5F5F5F5F5F5F5F5F5F5F5F5F5F5F5E2E2E2E2E2E2E2E2F5F5F5F5F5F5F5F5F5F5F5F5F5F5F5F5F5F5F5F5F5F5F5F5F5F5F5F5F5F5F5E2F5F5F5F5F5F5F5E2E2E2F5F5F5F5F5F5F5E2F5F5F5F5F5F5F5F5F5F5F5F5F5F5F5F5
310
F5F5F5F5F5F5F5F5F5F5F5F5F5F5F5F5F5F5F5F5F5F5F5F5F5F5F5F5F5F5F5F5F5F5F5F5F5F5F5F5F5F5F5F5F5F5F5F5F5F5F5F5F5F5F5F5F5F5F5F5F5F5F5F5F5F5F5F5F5F5F5F5F5F5F5E2F5F5F5F5F5F5F5F5F5F5F5F5F5F5F5F5F5F5F5F5F5F5F5F5F5F5F5F5F5F5E2E2E2E2E2E2E2E2F5F5F5F5F5F5F5F5F5F5F5F5F5
310
F5F5F5F5F5F5F5F5F5F5F5F5F5F5F5F5F5F5E2F5F5F5F5F5F5F5E2E2E2F5F5F5F5F5F5F5E2F5F5F5F5F5F5F5F5F5F5F5F5F5F5F5F5F5F5F5F5F5F5F5F5F5F5F5F5F5F5F5F5F5F5F5F5F5F5F5F5F5F5F5F5F5F5F5F5F5F5F5F5F5F5F5F5F5F5F5F5F5F5F5F5F5F5F5F5F5F5F5F5F5F5F5F5F5F5F5F5F5F5F5F5F5F5F5F5F5F5
310
F5E2F5F5F5F5F5F5F5F5F5F5F5F5F5F5F5F5F5F5F5F5F5F5F5F5F5F5F5F5F5F5E2E2E2E2E2E2E2E2F5F5F5F5F5F5F5F5F5F5F5F5F5F5F5F5F5F5F5F5F5F5F5F5F5F5F5F5F5F5F5E2F5F5F5F5F5F5F5E2E2E2F5F5F5F5F5F5F5E2F5F5F5F5F5F5F5F5F5F5F5F5F5F5F5F5F5F5F5F5F5F5F5F5F5F5F5F5F5F5F5F5F5F5F5F5F5
310
F5F5F5F5F5F5F5F5F5F5F5F5F5F5F5F5F5F5F5F5F5F5F5F5F5F5F5F5F5F5F5F5F5F5F5F5F5F5F5F5F5F5F5F5F5F5F5F5F5F5F5F5F5F5E2F5F5F5F5F5F5F5F5F5F5F5F5F5F5F5F5F5F5F5F5F5F5F5F5F5F5F5F5F5F5E2E2E2E2E2E2E2E2F5F5F5F5F5F5F5F5F5F5F5F5F5F5F5F5F5F5F5F5F5F5F5F5F5F5F5F5F5F5F5E2F5F5
310
F5F5F5F5F5E2E2E2F5F5F5F5F5F5F5E2F5F5F5F5F5F5F5F5F5F5F5F5F5F5F5F5F5F5F5F5F5F5F5F5F5F5F5F5F5F5F5F5F5F5F5F5F5F5F5F5F5F5F5F5F5F5F5F5F5F5F5F5F5F5F5F5F5F5F5F5F5F5F5F5F5F5F5F5F5F5F5F5F5F5F5F5F5F5F5F5F5F5F5F5F5F5F5F5F5F5F5E2F5F5F5F5F5F5F5F5F5F5F5F5F5F5F5F5F5F5F5
310
F5F5F5F5F5F5F5F5F5F5F5F5F5F5F5F5F5F5F5F5F5F5F5F5F5F5F5F5F5F5F5F5F5F5F5F5F5F5F5F5F5F5F5F5F5F5F5F5F5F5E2F5F5F5F5F5F5F5E2E2E2F5F5F5F5F5F5F5E2F5F5F5F5F5F5F5F5F5F5F5F5F5F5F5F5F5F5F5F5F5F5F5F5F5F5F5F5F5F5F5F5F5F5F5F5F5F5F5F5F5F5F5F5F5F5F5F5F5F5F5F5F5F5F5F5F5F5
310
F5F5F5F5F5F5F5F5F5F5F5F5F5F5F5F5F5F5F5F5F5F5F5F5F5F5F5F5F5F5F5F5F5E2F5F5F5F5F5F5F5F5F5F5F5F5F5F5F5F5F5F5F5F5F5F5F5F5F5F5F5F5F5F5F5F5F5F5F5F5F5F5F5F5F5F5F5F5F5F5F5F5F5F5F5F5F5F5F5F5F5F5F5F5F5F5F5F5F5F5F5F5F5E2F5F5F5F5F5F5F5E2E2E2F5F5F5F5F5F5F5E2F5F5F5F5F5
310
F5F5F5F5F5F5F5F5F5F5F5F5F5F5F5F5F5F5F5F5F5F5F5F5F5F5F5F5F5F5F5F5F5F5F5F5F5F5F5F5F5F5F5F5F5F5F5F5F5F5F5F5F5F5F5F5F5F5F5F5F5F5F5F5F5F5F5F5F5F5F5F5F5F5F5F5F5F5F5F5F5F5F5F5F5F5E2E2E2E2E2E2E2E2E2E2E2E2E2E2E2E2E2E2E2E2E2E2E2E2E2E2E2E2E2E2E2E2E2E2E2E2E2E2E2E2E2
310
E2E2E2E2E2E2E2E2E2E2E2E2E2E2E2E2E2E2E2E2E2E2E2E2E2E2E2E2E2E2F5F5F5F5F5F5F5E2E2E2F5F5F5F5F5F5F5E2F5F5F5F5F5F5F5F5F5F5F5F5F5F5F5F5F5F5F5F5F5F5F5F5F5F5F5F5F5F5F5F5F5F5F5F5F5F5F5F5F5F5F5F5F5F5F5F5F5F5F5F5F5F5F5F5F5F5F5F5F5F5F5F5F5F5F5F5F5F5F5F5F5F5F5F5F5F5F5
310
F5F5F5F5F5F5F5F5F5F5F5F5E2F5F5F5F5F5F5F5F5F5F5F5F5F5F5F5F5F5F5F5F5F5F5F5F5F5F5F5F5F5F5F5F5F5F5F5F5F5F5F5F5F5F5F5F5F5F5F5F5F5F5F5F5F5F5F5F5F5F5F5F5F5F5F5F5F5F5F5F5F5E2F5F5F5F5F5F5F5E2E2E2F5F5F5F5F5F5F5E2F5F5F5F5F5F5F5F5F5F5F5F5F5F5F5F5F5F5F5F5F5F5F5F5F5F5
310
F5F5F5F5F5F5F5F5F5F5F5F5F5F5F5F5F5F5F5F5F5F5F5F5F5F5F5F5F5F5F5F5F5F5F5F5F5F5F5F5F5F5F5F5F5F5F5F5F5F5F5F5F5F5F5F5F5F5F5F5F5F5F5F5F5E2E2E2E2E2E2E2E2E2E2E2E2E2E2E2E2E2E2E2E2E2E2E2E2E2E2E2E2E2E2E2E2E2E2E2E2E2E2E2E2E2E2E2E2E2E2E2E2E2E2E2E2E2E2E2E2E2E2E2E2E2E2
310
E2E2E2E2E2E2E2E2E2F5F5F5F5F5F5F5E2E2E2F5F5F5E2F5F5F5E2F5F5F5F5F5F5F5F5F5F5F5F5F5F5F5F5F5F5F5F5F5F5F5F5F5F5F5F5F5F5F5F5F5F5F5F5F5F5F5F5F5F5F5F5F5F5F5F5F5F5F5F5F5F5F5F5F5F5F5F5F5F5F5F5F5F5F5F5F5F5F5F5F5F5F5F5F5F5F5F5F5F5F5F5F5F5F5F5F5F5F5F5F5F5F5F5F5F5F5F5
310
F5F5F5F5F5F5F5F5F5F5F5F5F5F5F5F5F5F5F5F5F5F5F5F5F5F5F5F5F5F5F5F5F5F5F5F5F5F5F5F5F5F5F5F5F5F5F5F5F5F5F5F5F5F5F5F5F5F5F5F5F5E2F5F5F5E2F5F5F5E2E2E2F5F5F5E2F5F5F5E2F5F5F5F5F5F5F5F5F5F5F5F5F5F5F5F5F5F5F5F5F5F5F5F5F5F5F5F5F5F5F5F5F5F5F5F5F5F5F5F5F5F5F5F5F5F5F5
310
F5F5F5F5F5F5F5F5F5F5F5F5F5F5F5F5F5F5F5F5F5F5F5F5F5F5F5F5F5F5F5F5F5F5F5F5F5F5F5F5F5F5F5F5F5F5F5F5F5F5F5F5F5F5F5F5F5F5F5F5F5F5F5F5F5F5F5F5F5F5F5F5F5F5F5F5F5F5F5F5F5F5F5F5F5F5F5F5F5F5F5F5F5F5F5F5F5F5F5F5F5F5F5F5F5F5F5F5F5F5F5F5F5F5E2F5F5F5E2F5F5F5E2E2E2F5F5
310
F5E2F5F5F5E2F5F5F5F5F5F5F5F5F5F5F5F5F5F5F5F5F5F5F5F5F5F5F5F5F5F5F5F5F5F5F5F5F5F5F5F5F5F5F5F5F5F5F5F5F5F5F5F5F5F5F5F5F5F5F5F5F5F5F5F5F5F5F5F5F5F5F5F5F5F5F5F5F5F5F5F5F5F5F5F5F5F5F5F5F5F5F5F5F5F5F5F5F5F5F5F5F5F5F5F5F5F5F5F5F5F5F5F5F5F5F5F5F5F5F5F5F5F5F5F5F5
310
F5F5F5F5F5F5F5F5F5F5F5F5F5F5F5F5F5F5F5F5F5F5F5F5F5F5F5F5F5F5F5F5F5F5F5F5F5F5F5F5E2F5F5F5E2F5F5F5E2E2E2F5F5F5E2F5F5F5E2F5F5F5F5F5F5F5F5F5F5F5F5F5F5F5F5F5F5F5F5F5F5F5F5F5F5F5F5F5F5F5F5F5F5F5F5F5F5F5F5F5F5F5F5F5F5F5F5F5F5F5F5F5F5F5F5F5F5F5F5F5F5F5F5F5F5F5F5
310
F5F5F5F5F5F5F5F5F5F5F5F5F5F5F5F5F5F5F5F5F5F5F5F5F5F5F5F5F5F5F5F5F5F5F5F5F5F5F5F5F5F5F5F5F5F5F5F5F5F5F5F5F5F5F5F5F5F5F5F5F5F5F5F5F5F5F5F5F5F5F5F5F5F5F5F5F5F5F5F5F5F5F5F5F5F5F5F5F5F5F5F5F5E2F5F5F5E2F5F5F5E2E2E2F5F5F5E2F5F5F5E2F5F5F5F5F5F5F5F5F5F5F5F5F5F5F5
310
F5F5F5F5F5F5F5F5F5F5F5F5F5F5F5F5F5F5F5F5F5F5F5F5F5F5F5F5F5F5F5F5F5F5F5F5F5F5F5F5F5F5F5F5F5F5F5F5F5F5F5F5F5F5F5F5F5F5F5F5F5F5F5F5F5F5F5F5F5F5F5F5F5F5F5F5F5F5F5F5F5F5F5F5F5F5F5F5F5F5F5F5F5F5F5F5F5F5F5F5F5F5F5F5F5F5F5F5F5F5F5F5F5F5F5F5F5F5F5F5F5F5F5F5F5F5F5
310
F5F5F5F5F5F5F5F5F5F5F5F5F5F5F5F5F5F5F5E2F5F5F5E2F5F5F5E2E2E2F5F5F5E2F5F5F5E2F5F5F5F5F5F5F5F5F5F5F5F5F5F5F5F5F5F5F5F5F5F5F5F5F5F5F5F5F5F5F5F5F5F5F5F5F5F5F5F5F5F5F5F5F5F5F5F5F5F5F5F5F5F5F5F5F5F5F5F5F5F5F5F5F5F5F5F5F5F5F5F5F5F5F5F5F5F5F5F5F5F5F5F5F5F5F5F5F5
310
F5F5F5F5F5F5F5F5F5F5F5F5F5F5F5F5F5F5F5F5F5F5F5F5F5F5F5F5F5F5F5F5F5F5F5F5F5F5F5F5F5F5F5F5F5F5F5F5F5F5F5F5F5F5F5F5F5F5F5F5F5F5F5F5F5F5F5F5F5F5F5F5E2F5F5F5E2F5F5F5E2E2E2F5F5F5E2F5F5F5E2F5F5F5F5F5F5F5F5F5F5F5F5F5F5F5F5F5F5F5F5F5F5F5F5F5F5F5F5F5F5F5F5F5F5F5F5
310
F5F5F5F5F5F5F5F5F5F5F5F5F5F5F5F5F5F5F5F5F5F5F5F5F5F5F5F5F5F5F5F5F5F5F5F5F5F5F5F5F5F5F5F5F5F5F5F5F5F5F5F5F5F5F5F5F5F5F5F5F5F5F5F5F5F5F5F5F5F5F5F5F5F5F5F5F5F5F5F5F5F5F5F5F5F5F5F5F5F5F5F5F5F5F5F5F5F5F5F5F5F5F5F5F5F5F5F5F5F5F5F5F5F5F5F5F5F5F5F5F5F5F5F5F5E2F5
310
F5F5E2F5F5F5E2E2E2F5F5F5E2F5F5F5E2F5F5F5F5F5F5F5F5F5F5F5F5E2E2E2E2F5E2E2E2E2E2F5E2E2E2E2E2F5E2E2E2E2E2E2E2E2E2E2F5E2E2E2E2E2F5E2E2E2E2F5F5F5F5F5F5F5F5F5F5F5F5F5F5F5F5F5F5F5F5F5F5F5F5F5F5F5F5F5F5F5F5F5F5F5F5F5F5F5F5F5F5F5F5F5F5F5F5F5F5F5F5F5F5F5F5F5F5F5F5
310
F5E2E2F5F5F5F5F5F5F5F5F5F5F5F5F5F5F5F5F5F5F5F5F5F5F5F5F5F5F5F5F5F5F5F5F5F5F5F5F5F5F5F5F5F5F5F5F5F5F5F5E2F5F5F5E2F5F5F5E2E2E2F5F5F5E2F5F5F5E2F5F5F5F5F5F5F5F5F5F5F5F5F5E2F5F5F5F5F5F5F5F5F5F5F5E2F5F5F5F5F5F5F5F5F5F5F5F5F5F5F5F5F5F5F5F5F5F5E2F5E2E2F5F5F5F5F5
310
F5F5F5F5F5F5F5F5E2F5F5E2E2E2F5E2F5F5E2E2E2F5F5E2F5F5F5F5F5F5F5F5F5F5F5F5F5F5F5F5F5F5F5F5F5F5F5F5F5F5F5F5F5F5E2E2F5F5F5F5F5F5F5F5F5F5F5F5F5F5F5F5F5F5F5F5F5F5F5F5F5F5F5F5F5F5F5F5F5F5F5F5F5F5F5F5F5F5F5F5F5F5F5F5E2F5F5F5E2F5F5F5E2E2E2F5F5F5E2F5F5F5E2F5F5F5F5
310
F5F5F5F5F5F5F5F5F5E2F5F5F5F5F5F5F5F5F5F5E2E2F5F5F5F5F5F5F5F5F5F5F5F5F5F5F5F5F5F5F5F5F5F5E2F5F5E2F5F5F5F5F5F5F5F5F5E2E2F5F5E2E2E2E2F5F5E2E2E2E2F5E2E2F5E2E2F5E2F5F5F5F5F5F5F5F5F5F5F5F5F5F5F5F5F5F5F5F5F5F5F5F5F5F5E2E2E2E2F5F5F5F5F5F5F5F5F5F5F5F5F5F5F5F5F5E2
310
E2F5E2E2E2F5E2F5F5E2F5E2E2F5F5E2F5F5F5F5F5F5F5F5F5F5F5F5F5F5E2F5F5F5E2F5F5F5E2E2E2F5F5F5E2F5F5F5E2F5F5F5F5F5F5F5F5F5F5F5F5E2E2E2F5F5F5F5F5F5F5F5F5E2E2E2F5F5F5F5F5F5F5F5F5F5F5F5F5F5F5F5F5F5F5F5F5E2F5F5E2F5F5F5F5F5F5F5F5F5E2F5F5E2E2E2E2E2F5E2E2E2E2E2E2E2E2
310
F5E2E2F5F5E2F5F5F5F5F5F5F5F5F5F5F5F5F5F5F5F5F5F5F5F5F5F5F5F5F5E2F5E2E2F5F5F5F5F5F5F5F5F5F5F5F5F5F5E2E2E2E2E2E2E2F5F5E2E2E2E2F5F5E2E2F5E2E2F5E2F5F5F5F5F5F5F5F5F5F5F5F5E2F5F5F5E2F5F5F5E2E2E2F5F5F5E2F5F5F5E2F5F5F5F5F5F5F5F5F5F5F5F5E2E2E2F5F5F5F5F5F5F5F5E2F5
310
E2E2F5F5F5F5F5F5F5F5F5F5F5F5F5F5F5F5F5F5F5F5F5E2F5F5E2F5F5F5F5F5F5F5F5F5E2F5F5F5E2E2E2E2E2F5E2F5E2F5F5E2E2F5E2F5F5F5E2F5F5F5F5F5F5F5F5F5F5F5F5F5F5F5F5F5F5F5F5F5F5F5F5F5E2F5E2E2F5F5F5F5F5F5F5F5F5F5F5F5F5F5E2F5F5E2E2E2E2E2E2E2E2E2E2E2F5E2E2F5E2E2F5F5E2F5F5
310
F5F5F5F5F5F5F5F5F5E2F5F5F5E2F5F5F5E2E2E2F5F5F5E2F5F5F5E2F5F5F5F5F5F5F5F5F5F5F5F5E2E2E2F5F5F5F5F5F5F5F5E2F5E2E2F5F5F5F5F5F5F5F5F5F5F5F5F5F5F5F5F5F5F5F5F5E2F5F5E2F5F5F5F5F5F5F5F5F5E2E2F5E2E2E2E2E2F5E2F5E2E2E2F5E2E2E2E2E2E2F5E2F5F5F5F5F5F5F5F5F5F5F5F5F5F5F5
310
F5F5F5F5F5F5F5F5F5F5E2F5E2E2F5F5F5F5F5F5F5F5F5F5F5F5F5F5E2F5E2E2F5E2E2F5F5E2F5E2F5F5F5E2E2F5E2F5F5F5E2F5F5F5F5F5F5F5F5F5F5F5E2F5F5F5E2F5F5F5E2E2E2F5F5F5E2F5F5F5E2F5F5F5F5F5F5F5F5F5F5F5F5F5E2F5F5F5F5F5F5F5F5F5F5F5E2F5F5F5F5F5F5F5F5F5F5F5F5F5F5F5F5F5F5F5F5
310
F5F5E2F5F5E2F5F5F5F5F5F5F5F5F5E2F5F5F5E2E2E2E2F5F5E2F5E2F5F5F5E2F5E2F5F5E2F5F5F5F5F5F5F5F5F5F5F5F5F5F5F5F5F5F5F5F5F5F5F5F5F5F5E2F5E2E2F5F5F5F5F5F5F5F5F5F5F5F5F5F5E2E2E2F5E2E2E2E2E2F5E2E2E2F5F5E2E2E2E2E2E2F5E2F5F5F5F5F5F5F5F5F5F5F5E2F5F5F5E2F5F5F5E2E2E2F5
310
F5F5E2F5F5F5E2F5F5F5F5F5F5F5F5F5F5F5F5F5E2F5F5F5F5F5F5F5F5F5F5F5E2F5F5F5F5F5F5F5F5F5F5F5F5F5F5F5F5F5F5F5F5F5F5E2F5F5E2F5F5F5F5F5F5F5F5F5F5F5F5F5F5F5F5F5F5F5F5F5F5F5F5F5F5F5F5F5F5F5F5F5F5F5F5F5F5F5F5F5F5F5F5F5F5F5F5F5F5F5F5F5F5F5F5F5E2F5E2E2F5F5F5F5F5F5F5
310
F5F5F5F5F5F5F5E2F5F5E2E2E2E2F5F5E2F5E2F5F5F5F5E2F5E2F5F5E2F5F5F5F5F5F5F5F5F5F5F5F5E2F5F5F5E2F5F5F5E2E2E2F5F5F5F5F5F5F5E2F5F5F5F5F5F5F5F5F5F5F5F5F5E2F5F5F5F5F5F5F5F5F5F5F5E2F5F5F5F5F5F5F5F5F5F5F5F5F5F5F5F5F5F5F5F5F5F5E2F5F5E2F5F5F5F5F5F5F5F5F5F5F5F5F5F5F5
310
F5F5F5F5F5F5F5F5F5F5F5F5F5F5F5F5F5F5F5F5F5F5F5F5F5F5F5F5F5F5F5F5F5F5F5F5F5F5F5F5F5E2F5F5E2E2F5F5F5F5F5F5F5F5F5F5F5F5F5F5F5F5F5F5F5F5F5F5F5F5F5F5F5F5F5F5F5F5F5F5F5F5F5F5F5F5F5F5F5F5F5F5F5F5E2F5F5F5F5F5F5F5E2E2E2F5F5F5F5F5F5F5E2F5F5F5F5F5F5F5F5F5F5F5F5F5E2
310
F5F5F5F5F5F5F5F5F5F5F5E2F5F5F5F5F5F5F5F5F5F5F5F5F5F5F5F5F5F5F5F5F5F5E2F5F5E2F5F5F5F5F5F5F5F5F5F5F5F5F5F5F5F5F5F5E2E2E2E2F5F5F5F5F5F5F5F5F5F5F5F5F5F5F5F5F5F5F5F5F5F5F5F5F5F5F5F5F5F5F5F5F5F5E2F5F5E2E2F5F5F5F5F5F5F5F5F5F5F5F5F5F5F5F5F5F5F5F5F5F5F5E2F5F5F5F5
310
F5F5F5F5F5F5F5F5F5F5F5F5F5F5F5F5F5F5F5F5E2F5F5F5F5F5F5F5E2E2E2F5F5F5F5F5F5F5E2F5F5F5F5F5F5F5F5F5F5F5F5F5F5F5F5F5F5F5F5F5F5F5F5F5F5F5F5F5F5F5F5F5F5F5F5F5F5F5F5F5F5F5F5F5F5F5F5E2F5F5E2F5F5F5F5F5F5F5F5F5F5F5F5F5F5F5F5F5F5E2E2E2E2F5F5F5F5F5F5F5F5F5F5F5F5F5F5
310
F5F5F5F5F5F5F5F5F5F5F5F5F5F5F5F5F5F5F5F5E2F5F5E2E2F5F5F5F5F5F5F5F5F5F5F5F5F5F5F5F5F5F5F5F5F5F5F5E2E2E2F5F5F5F5F5F5F5F5F5F5F5F5F5F5F5F5F5F5F5F5F5F5E2F5F5F5F5F5F5F5E2E2E2F5F5F5F5F5F5F5E2F5F5F5F5F5F5F5F5F5F5F5F5F5E2F5F5F5F5F5F5F5F5F5F5F5E2F5F5F5F5F5F5F5F5F5
310
F5F5F5F5F5F5F5F5F5F5F5F5F5E2F5F5E2F5F5F5F5F5F5F5F5F5F5F5F5E2E2E2E2E2E2E2F5F5F5F5F5F5F5F5F5F5F5F5F5F5F5F5F5F5F5F5F5F5F5F5F5F5F5F5F5F5F5F5F5F5F5F5F5E2F5F5E2E2F5F5F5F5F5F5F5F5F5F5F5F5F5F5F5F5F5E2E2E2E2E2E2E2F5F5F5F5F5F5F5F5F5F5F5F5F5F5F5F5F5F5F5F5F5F5F5F5E2
310
F5F5F5F5F5F5F5E2E2E2F5F5F5F5F5F5F5E2F5F5F5F5F5F5F5F5F5F5F5F5F5E2F5F5F5F5F5F5F5F5F5F5F5E2F5F5F5F5F5F5F5F5F5F5F5F5F5F5F5F5F5F5F5F5F5F5E2F5F5E2F5F5F5F5F5F5F5F5F5F5F5F5E2F5F5F5F5F5E2E2E2E2F5F5F5F5F5F5F5F5F5F5F5F5F5F5F5F5F5F5F5F5F5F5F5F5F5F5F5F5F5F5F5F5F5F5E2
310
F5F5E2E2F5F5F5F5F5F5F5F5F5F5F5F5F5F5F5F5E2F5F5F5F5F5F5E2E2E2E2F5F5F5F5F5F5F5F5F5F5F5F5F5F5F5F5F5F5F5F5F5E2F5F5F5F5F5F5F5E2E2E2F5F5F5F5F5F5F5E2F5F5F5F5F5F5F5F5F5F5F5F5F5E2F5F5F5F5F5F5F5F5F5F5F5E2F5F5F5F5F5F5F5F5F5F5F5F5F5F5F5F5F5F5F5F5F5F5E2F5F5E2F5F5F5F5
310
F5F5F5F5F5F5F5E2F5F5F5F5F5F5F5F5F5F5F5F5F5F5F5F5F5F5F5F5F5F5F5F5F5F5F5F5F5F5F5F5F5F5F5F5F5F5F5F5F5F5F5F5E2F5F5E2E2F5F5F5F5F5F5F5F5F5F5F5F5F5F5F5F5E2F5F5F5F5F5F5F5F5F5F5F5F5F5F5F5F5F5F5F5F5F5F5F5F5F5F5F5F5F5F5F5E2F5F5F5F5F5F5F5E2E2E2F5F5F5F5F5F5F5E2F5F5F5
310
F5F5F5F5F5F5F5F5F5F5E2F5F5F5F5E2E2E2E2F5F5F5E2F5F5F5F5F5F5F5F5F5F5F5F5F5F5F5F5F5F5F5F5F5F5E2F5F5E2F5F5F5F5F5F5F5F5F5F5F5F5F5F5F5F5F5F5F5F5F5F5F5F5F5F5F5F5F5F5F5F5F5F5F5F5F5F5F5F5F5F5F5F5F5F5F5F5F5F5F5F5F5F5F5F5E2F5F5E2E2F5F5F5F5F5F5F5F5F5F5F5F5F5F5F5E2F5
310
F5F5F5F5F5F5F5F5F5F5F5F5F5F5F5F5F5F5F5F5F5F5F5F5F5F5F5F5F5F5F5E2F5F5F5F5F5F5F5E2E2E2F5F5F5F5F5F5F5E2F5F5F5F5F5F5F5F5F5F5F5F5F5E2F5F5F5F5E2E2E2E2F5F5F5E2F5F5F5F5F5F5F5F5F5F5F5F5F5F5F5F5F5F5F5F5F5F5E2F5F5E2F5F5F5F5F5F5F5F5F5F5E2F5F5F5F5F5F5F5F5F5F5F5F5F5F5
310
F5F5F5F5F5F5F5F5F5F5F5F5F5F5F5F5F5F5F5F5F5F5F5F5F5F5F5F5F5F5F5E2F5F5E2E2F5F5F5F5F5F5F5F5F5F5F5F5F5F5F5F5F5F5F5F5F5F5F5F5F5F5F5F5F5F5F5F5F5F5F5F5F5F5F5F5F5F5F5F5F5F5F5F5E2F5F5F5F5F5F5F5E2E2E2F5F5F5E2F5F5F5E2F5F5F5F5F5F5F5F5F5F5F5F5F5F5F5F5F5F5E2F5F5E2F5F5
310
F5F5F5F5F5F5F5F5F5F5F5F5F5F5F5F5F5F5F5F5F5F5F5F5E2F5F5E2F5F5F5F5F5F5F5F5F5E2F5F5F5F5F5F5F5F5F5F5F5F5F5F5F5F5F5F5F5F5F5F5F5F5F5F5F5F5F5F5F5F5F5F5F5F5F5F5F5F5F5F5F5F5F5F5E2F5F5E2E2F5F5F5F5F5F5F5F5F5F5F5F5F5F5E2F5F5F5F5F5F5F5F5F5F5F5F5F5F5F5F5F5F5F5F5F5F5F5
310
F5F5F5F5F5F5F5F5F5F5E2F5F5F5E2F5F5F5E2E2E2F5F5F5E2F5F5F5E2F5F5F5F5F5F5F5F5F5F5F5F5F5E2F5F5F5F5E2E2E2E2F5F5F5E2F5F5F5F5F5F5F5F5F5F5F5F5F5F5F5F5F5F5F5F5F5F5E2F5F5E2F5F5F5F5F5F5F5F5F5E2F5F5F5F5F5F5F5F5F5F5F5F5F5F5F5F5F5F5F5F5F5F5F5F5F5F5F5F5F5F5F5F5F5F5F5F5
310
F5F5F5F5F5F5F5F5F5F5E2F5F5E2E2F5F5F5F5F5F5F5F5F5F5F5F5F5E2F5F5F5F5F5F5F5F5F5F5F5F5F5F5F5F5F5F5F5F5F5F5F5F5F5F5F5F5F5F5F5F5F5F5E2F5F5F5E2F5F5F5E2E2E2F5F5F5E2F5F5F5E2F5F5F5F5F5F5F5F5F5F5F5F5F5E2F5F5F5F5F5F5F5F5F5F5F5E2F5F5F5F5F5F5F5F5F5F5F5F5F5F5F5F5F5F5F5
310
F5F5E2F5F5F5F5E2F5F5F5F5F5F5F5E2F5F5F5F5F5F5F5F5F5F5F5F5F5F5F5F5F5F5F5F5F5F5F5F5F5F5F5F5F5F5F5F5F5F5F5F5F5F5F5F5F5F5F5F5F5F5E2F5F5F5E2E2F5F5F5F5F5F5F5F5F5F5F5F5F5E2F5F5F5F5F5F5F5F5F5F5F5F5F5F5F5F5F5F5F5F5F5F5F5F5F5F5F5F5F5F5F5F5F5F5E2F5F5F5E2F5F5F5E2E2E2
310
F5F5F5E2F5F5F5E2F5F5F5F5F5F5F5F5F5F5F5F5F5E2F5F5F5F5F5F5F5F5F5F5F5E2F5F5F5F5F5F5F5F5F5F5F5F5F5F5F5F5F5F5F5F5F5E2F5F5F5F5E2F5F5F5F5F5F5F5F5F5F5F5F5F5F5F5F5F5F5F5F5F5F5F5F5F5F5F5F5F5F5F5F5F5F5F5F5F5F5F5F5F5F5F5F5F5F5F5F5F5F5F5F5F5F5E2F5F5F5E2E2F5F5F5F5F5F5
310
F5F5F5F5F5F5E2F5F5F5F5F5F5F5F5F5F5F5F5F5F5F5F5F5F5F5F5F5F5F5F5F5F5F5F5F5F5F5F5F5F5F5E2F5F5F5E2F5F5F5E2E2E2F5F5F5E2F5F5F5E2F5F5F5F5F5F5F5F5F5F5F5F5F5E2F5F5F5F5F5F5F5F5F5F5F5E2F5F5F5F5F5F5F5F5F5F5F5F5F5F5F5F5F5F5F5F5F5E2F5F5F5F5E2F5F5F5F5F5F5E2F5F5F5F5F5F5
310
F5F5F5F5F5F5F5F5F5F5F5F5F5F5F5F5F5F5F5F5F5F5F5F5F5F5F5F5F5F5F5F5F5F5F5F5F5F5F5F5F5E2F5F5F5E2E2F5F5F5F5F5F5F5F5F5F5F5F5F5F5F5F5F5F5F5F5F5F5F5F5F5F5F5F5F5F5F5F5F5F5F5F5F5F5F5F5F5F5F5F5F5F5F5F5E2F5F5F5E2F5F5F5E2E2E2F5F5F5E2F5F5F5E2F5F5F5F5F5F5F5F5F5F5F5F5F5
310
E2F5F5F5F5F5F5F5F5F5F5F5F5F5F5F5F5F5F5F5F5F5F5F5F5F5F5F5F5F5F5F5F5F5E2F5F5F5F5E2F5F5F5F5F5E2F5F5F5F5F5F5F5F5F5F5F5F5F5F5F5F5F5F5F5F5F5F5F5F5F5F5F5F5F5F5F5F5F5F5F5F5F5F5F5F5F5F5F5F5F5F5F5F5E2F5F5F5E2E2F5F5F5F5F5F5F5F5F5F5F5E2F5F5F5F5F5F5F5F5F5F5F5F5F5F5F5
310
F5F5F5F5F5F5F5F5F5F5F5F5F5F5F5F5F5F5F5F5F5E2F5F5F5E2F5F5F5E2E2E2F5F5F5E2F5F5F5E2F5F5F5F5F5F5F5F5F5F5F5F5F5F5F5F5F5F5F5F5F5F5F5F5F5E2F5F5F5F5F5F5F5F5F5F5F5F5F5F5F5F5F5F5F5F5F5E2F5F5F5F5E2F5F5F5F5F5E2F5F5F5F5F5F5F5F5F5F5F5F5F5F5F5F5F5F5F5F5F5F5F5F5F5F5F5F5
310
F5F5F5F5F5F5F5F5F5F5F5F5F5F5F5F5F5F5F5F5E2F5F5F5E2E2F5F5F5F5F5F5F5F5F5F5E2F5F5F5F5F5F5F5F5F5F5F5F5F5F5F5F5F5F5F5F5F5F5F5F5F5F5F5F5F5F5F5F5F5F5F5F5F5E2F5F5F5E2F5F5F5E2E2E2F5F5F5E2F5F5F5E2F5F5F5F5F5F5F5F5F5F5F5F5F5E2F5F5F5F5F5F5F5F5F5F5F5E2F5F5F5F5F5F5F5F5
310
F5F5F5F5F5F5F5F5F5F5F5F5F5E2F5F5F5F5E2F5F5F5F5E2F5F5F5F5F5F5F5F5F5F5F5F5F5F5F5F5F5F5F5F5F5F5F5F5F5F5F5F5F5F5F5F5F5F5F5F5F5F5F5F5F5F5F5F5F5F5F5F5F5E2F5F5F5E2E2F5F5F5F5F5F5F5F5F5F5E2F5F5F5F5F5F5F5F5F5F5F5F5F5F5F5F5F5F5F5F5F5F5F5F5F5F5F5F5F5F5F5F5F5F5F5F5F5
310
E2F5F5F5E2F5F5F5E2E2E2F5F5F5E2F5F5F5E2F5F5F5F5F5F5F5F5F5F5F5F5F5E2F5F5F5F5F5F5F5F5F5F5F5E2F5F5F5F5F5F5F5F5F5F5F5F5F5F5F5F5F5F5F5F5F5E2F5F5F5F5E2F5F5F5E2F5F5F5F5F5F5F5F5F5F5F5F5F5F5F5F5F5F5F5F5F5F5F5F5F5F5F5F5F5F5F5F5F5F5F5F5F5F5F5F5F5F5F5F5F5F5F5F5F5F5E2
310
F5F5F5E2E2F5F5F5F5F5F5F5F5F5E2F5F5F5F5F5F5F5F5F5F5F5F5F5F5F5F5F5F5F5F5F5F5F5F5F5F5F5F5F5F5F5F5F5F5F5F5F5F5E2F5F5F5E2F5F5F5E2E2E2F5F5F5E2F5F5F5E2F5F5F5F5F5F5F5F5F5F5F5F5F5E2F5F5F5F5F5F5F5F5F5F5F5E2F5F5F5F5F5F5F5F5F5F5F5F5F5F5F5F5F5F5F5F5F5E2F5F5F5F5E2F5F5
310
F5E2F5F5F5F5F5F5F5F5F5F5F5F5F5F5F5F5F5F5F5F5F5F5F5F5F5F5F5F5F5F5F5F5F5F5F5F5F5F5F5F5F5F5F5F5F5F5F5F5F5F5E2F5F5F5E2E2F5F5F5F5F5F5F5F5F5F5F5F5F5F5F5F5F5F5F5F5F5F5F5F5F5F5F5F5F5F5F5F5F5F5F5F5F5F5F5F5F5F5F5F5F5F5F5F5E2F5F5F5E2F5F5F5E2E2E2F5F5F5E2F5F5F5E2F5F5
310
F5F5F5F5F5F5F5F5F5F5F5E2F5F5F5F5F5F5F5F5F5F5F5E2F5F5F5F5F5F5F5F5F5F5F5F5F5F5F5F5F5F5F5F5F5E2F5F5F5F5E2F5F5F5E2F5F5F5F5F5F5F5F5F5F5F5F5F5F5F5F5F5F5F5F5F5F5F5F5F5F5F5F5F5F5F5F5F5F5F5F5F5F5F5F5F5F5F5F5F5F5F5F5F5F5E2F5F5F5E2E2F5F5F5F5F5F5F5F5E2F5F5F5E2F5F5F5
310
F5F5F5F5F5F5F5F5F5F5F5F5F5F5F5F5F5F5F5F5F5F5F5F5F5F5F5F5F5F5F5F5E2F5F5F5E2F5F5F5E2E2E2F5F5F5E2F5F5F5E2F5F5F5F5F5F5F5F5F5F5F5F5F5E2F5F5F5F5F5F5F5F5F5F5F5F5F5F5F5F5F5F5F5F5F5F5F5F5F5F5F5F5F5F5F5F5F5E2F5F5F5F5E2F5F5E2F5F5F5F5F5F5F5F5F5F5F5F5F5F5F5F5F5F5F5F5
310
F5F5F5F5F5F5F5F5F5F5F5F5F5F5F5F5F5F5F5F5F5F5F5F5F5F5F5F5F5F5F5E2F5F5F5E2E2F5F5F5F5F5F5F5F5E2F5F5F5E2F5F5F5F5F5F5F5F5F5F5F5F5F5F5F5F5F5F5F5F5F5F5F5F5F5F5F5F5F5F5F5F5F5F5F5E2F5F5F5E2F5F5F5E2E2E2F5F5F5E2F5F5F5E2F5F5F5F5F5F5F5E2F5F5E2F5F5E2F5F5F5F5F5F5F5F5F5
310
F5F5E2F5F5F5F5F5F5F5F5F5F5F5F5F5F5F5F5F5F5F5F5F5E2F5F5F5F5E2F5F5E2F5F5F5F5F5F5F5F5F5F5F5F5F5F5F5F5E2F5F5F5F5F5F5F5F5F5F5F5F5F5F5F5F5F5F5F5F5F5F5F5F5F5F5F5F5F5F5F5F5F5E2F5F5F5F5E2E2F5F5F5F5F5F5F5E2F5F5F5F5E2F5F5F5F5F5F5F5F5F5F5F5F5F5F5F5F5F5F5F5F5F5F5F5F5
310
F5F5F5F5F5F5F5F5F5F5F5E2F5F5F5E2F5F5F5E2E2E2F5F5F5E2F5F5F5E2F5F5F5F5F5F5F5F5E2E2F5F5F5E2F5F5F5F5F5F5F5F5F5F5F5E2F5F5F5F5F5F5F5F5F5F5F5F5F5F5F5F5F5F5F5F5F5E2F5F5F5F5E2F5E2F5F5F5F5F5F5F5F5F5F5F5F5F5F5F5F5F5E2F5F5F5F5F5F5F5F5F5F5F5F5F5F5F5F5F5F5F5F5F5F5F5F5
310
F5F5F5F5F5F5F5F5F5E2F5F5F5F5E2E2F5F5F5F5F5F5F5E2F5F5F5F5E2F5F5F5F5F5F5F5F5F5F5F5F5F5F5F5F5F5F5F5F5F5F5F5F5F5F5F5F5F5F5F5F5F5F5F5E2F5F5F5E2F5F5F5E2E2E2F5F5F5E2F5F5F5E2F5F5F5F5F5F5F5F5E2E2F5F5F5E2F5F5F5F5F5F5F5F5F5F5F5E2F5F5F5F5F5F5F5F5F5F5F5F5F5F5F5F5F5F5
310
F5F5F5E2F5F5F5E2E2F5E2F5F5F5F5F5F5F5F5F5F5F5F5F5F5F5F5F5E2F5F5F5F5F5F5F5F5F5F5F5F5F5F5F5F5F5F5F5F5F5F5F5F5F5F5F5F5F5F5F5F5F5E2F5F5F5F5E2E2F5F5F5F5F5F5F5F5F5F5F5E2E2F5E2F5F5F5F5F5F5F5F5F5F5F5F5F5F5F5F5F5F5F5F5F5F5F5F5F5F5F5F5F5F5F5F5F5E2F5F5F5E2F5F5F5E2E2
310
E2F5F5F5F5F5F5F5E2F5F5F5F5F5F5F5F5E2E2F5F5F5E2F5F5F5F5F5F5F5F5F5F5F5E2F5F5F5F5F5F5F5F5F5F5F5F5F5F5F5F5F5F5F5F5F5E2F5F5F5E2E2E2F5F5F5F5F5F5F5F5F5F5F5F5F5F5F5F5F5F5E2F5F5F5F5F5F5F5F5F5F5F5F5F5F5F5F5F5F5F5F5F5F5F5F5F5F5F5F5F5F5F5F5F5E2F5F5F5F5E2E2F5F5F5F5F5
310
F5E2F5F5F5F5E2E2F5E2F5F5F5F5F5F5F5F5F5F5F5F5F5F5F5F5F5F5F5F5F5F5F5F5F5F5F5F5F5F5F5F5F5E2F5F5F5F5F5F5F5E2E2E2F5F5F5F5F5F5F5E2F5F5F5F5F5F5F5F5F5F5F5F5F5E2F5F5F5F5F5F5F5F5F5E2F5E2E2F5F5F5F5F5F5F5F5F5F5F5F5F5F5F5F5F5F5F5F5E2F5F5F5E2E2F5E2F5F5F5F5F5F5F5F5F5F5
310
F5F5F5F5F5F5F5E2F5F5F5F5F5F5F5F5F5F5F5F5F5F5F5F5F5F5F5F5F5F5F5F5F5F5F5F5F5F5F5F5F5E2F5F5F5F5E2E2F5F5F5F5F5E2F5F5F5F5F5E2E2E2F5F5F5F5F5F5F5F5F5F5F5F5F5F5F5F5F5F5F5F5F5F5F5F5F5F5F5F5F5F5F5F5F5F5E2F5F5F5F5F5F5F5E2E2E2F5F5F5F5F5F5F5E2F5F5F5F5F5F5F5F5F5F5F5F5
310
F5F5F5F5F5F5F5F5F5F5F5F5E2E2E2F5F5F5F5F5F5F5F5F5F5F5F5F5F5F5F5F5F5F5F5E2F5F5E2F5E2E2F5F5F5F5F5F5F5F5F5F5F5F5F5F5F5F5F5E2E2E2F5F5F5F5F5F5F5F5F5F5F5F5F5F5F5F5F5F5F5F5F5F5F5F5F5F5F5E2E2E2E2E2E2F5F5F5F5E2E2F5F5F5E2F5E2F5F5F5F5E2F5E2E2F5F5F5F5F5F5F5F5F5F5F5F5
310
F5F5F5F5F5F5F5F5F5F5F5F5F5F5F5F5F5F5F5F5F5F5E2F5F5F5F5F5F5F5E2E2E2F5F5F5F5F5F5F5E2F5F5F5F5F5F5F5F5F5F5F5F5F5E2F5F5F5F5F5F5F5F5F5F5E2E2E2F5F5F5F5F5F5F5F5F5F5F5F5F5F5F5F5F5F5F5E2F5F5F5E2E2F5E2F5F5F5F5F5F5F5F5F5F5F5F5F5F5F5F5F5E2E2E2F5F5F5F5F5F5F5F5F5F5F5F5
310
F5F5F5F5F5F5F5F5F5F5F5F5F5F5E2F5F5F5F5F5F5F5F5F5F5E2E2F5F5F5E2E2F5F5F5F5F5E2F5E2F5F5F5F5F5F5F5F5F5F5F5F5F5F5F5F5F5F5F5F5F5F5F5F5F5F5F5F5F5F5F5F5F5F5F5E2F5F5F5F5F5F5F5E2E2E2F5F5F5F5F5F5F5E2F5F5F5F5F5F5F5F5F5F5F5F5F5E2F5F5F5F5F5F5F5F5F5F5F5E2F5F5F5F5F5F5F5
310
F5F5F5F5F5F5F5F5F5F5F5F5E2F5F5E2E2E2F5F5F5E2F5F5F5F5F5F5F5F5F5F5F5F5F5F5F5F5E2E2E2F5F5F5F5F5F5F5F5F5F5F5F5F5F5F5F5F5F5F5F5F5F5F5F5F5F5E2F5F5F5F5F5F5F5F5F5F5E2E2E2E2E2E2E2E2E2E2E2E2E2E2E2E2F5F5F5F5F5F5F5F5F5F5F5F5F5F5F5F5F5F5F5F5F5F5F5F5F5F5F5F5F5F5F5F5F5
310
F5E2F5F5F5F5F5F5F5E2E2E2F5F5F5F5F5F5F5E2F5F5F5F5F5F5F5F5F5F5F5F5F5E2F5F5F5F5F5F5F5F5F5F5E2E2E2E2F5E2E2E2E2E2E2E2E2E2E2F5E2E2E2E2E2E2E2E2E2E2E2E2F5F5E2E2E2E2F5F5F5F5E2E2E2E2E2F5F5F5E2F5E2F5F5F5F5F5F5F5F5F5F5F5F5F5F5F5F5F5F5F5F5F5F5F5F5F5F5E2F5F5F5F5F5F5F5
310
F5F5E2E2E2E2E2ECE2E2E2ECF5ECECF5E2F5E2F5F5F5F5F5F5F5F5F5F5F5F5F5F5F5F5F5F5F5F5F5F5F5F5F5F5F5F5F5F5F5F5F5F5F5E2F5F5F5F5F5F5F5E2E2E2F5F5F5F5F5F5F5E2F5F5F5F5F5F5F5F5F5F5F5F5F5E2F5F5F5F5F5F5F5F5F5F5F5E2F5F5F5F5F5F5E2E2F5F5F5F5E2E2E2E2E2E2E2E2F5F5E2E2E2F5F5E2
310
E2E2E2E2E2E2E2E2F5F5F5F5E2F5F5E2F5F5E2F5F5F5F5F5F5F5F5F5F5F5F5F5F5F5F5F5F5F5F5F5F5F5F5F5F5E2F5F5F5F5F5F5F5E2F5E2E2F5E2F5E2E2E2E2E2E2F5ECECE2F5E2F5F5F5F5F5F5F5F5F5F5F5F5F5F5F5F5F5F5F5F5F5F5F5F5F5F5F5F5F5F5F5F5F5F5F5E2F5F5F5F5F5F5F5E2E2E2F5F5F5F5F5F5F5E2F5
310
F5F5F5F5F5F5F5F5F5F5F5F5E2F5F5F5F5F5F5F5F5F5F5E2E2F5F5F5F5F5F5E2E2E2F5F5F5F5E2E2E2E2E2E2E2E2E2E2E2E2E2E2E2E2E2E2E2E2E2E2E2E2E2E2E2E2E2E2E2E2E2E2E2F5F5F5F5F5F5F5F5F5F5F5F5F5F5F5F5F5F5F5F5F5F5F5F5F5E2E2F5F5F5F5F5F5F5E2E2E2E2E2E2E2E2E2E2E2E2E2E2E2E2E2E2E2F5
310
F5F5F5F5F5F5F5F5F5F5F5F5F5F5F5F5F5F5F5F5F5F5F5F5F5F5F5F5F5F5F5F5F5E2F5F5F5F5F5F5F5E2E2E2F5F5F5F5F5F5F5E2F5F5F5F5F5F5F5F5F5F5F5F5F5F5F5F5F5F5F5F5F5F5F5F5E2E2E2F5F5F5F5F5E2F5F5E2E2E2F5E2ECECECF5ECECECECE2E2ECECECECECF5ECECECECECECECECECECE2ECECECE2F5E2F5F5
310
F5F5F5F5F5F5F5F5F5F5F5F5F5F5F5F5F5F5F5F5F5F5F5F5E2F5E2E2E2E2E2E2F5E2F5E2F5E2ECE2E2F5F5F5F5F5F5F5E2F5E2F5F5F5F5F5F5F5F5F5F5F5F5F5F5F5F5F5F5F5F5F5F5F5F5F5F5F5F5F5F5F5F5F5F5F5E2F5F5F5F5F5F5F5E2E2E2F5F5F5E2F5F5F5E2F5F5F5F5F5F5F5F5F5F5F5F5F5E2F5F5F5F5F5F5F5F5
310
F5E2F5E2E2F5F5F5F5F5E2F5F5F5F5F5E2E2E2E2E2E2E2E2E2E2E2E2E2E2E2E2E2E2E2E2E2E2E2E2E2E2E2E2E2E2E2E2E2E2E2E2F5F5F5F5F5F5F5F5F5F5F5F5F5F5F5F5F5F5F5F5F5F5F5F5F5E2F5F5F5F5F5F5E2F5E2F5E2F5ECE2E2E2E2E2E2E2F5F5F5E2F5E2E2F5F5F5F5F5F5F5F5F5F5F5F5F5F5F5F5F5F5F5F5F5F5
310
F5F5F5F5F5F5F5F5F5F5F5F5E2F5F5F5E2F5F5F5E2E2E2F5F5F5E2F5F5F5E2F5F5F5F5F5F5F5F5F5F5F5F5F5E2F5F5F5F5F5F5F5F5F5E2F5E2E2F5F5F5F5F5F5F5F5F5F5F5F5F5F5F5E2F5E2E2F5E2E2F5F5F5E2F5E2F5F5E2F5F5F5F5F5F5F5F5F5F5F5F5F5E2E2F5F5F5F5F5F5F5F5F5F5F5F5F5F5F5F5F5F5F5F5F5F5F5
310
F5F5F5F5F5F5F5F5F5F5E2F5F5E2E2E2E2E2F5F5F5F5F5E2F5F5F5F5E2E2E2F5F5F5F5F5F5F5F5F5F5F5F5F5F5F5F5F5F5F5F5F5F5F5F5F5F5F5F5F5F5F5F5F5F5E2F5F5F5E2F5F5F5E2E2E2F5F5F5E2F5F5F5E2F5F5F5F5F5F5F5F5F5F5F5F5F5E2F5F5F5F5F5F5F5F5F5F5F5E2F5F5F5F5F5F5E2F5F5F5F5F5F5F5F5F5E2
310
E2E2F5E2E2F5F5F5F5E2F5E2E2E2E2F5F5F5F5F5F5F5F5E2F5F5F5F5E2E2F5F5F5F5F5F5F5F5F5F5F5F5F5F5F5F5F5F5F5F5F5F5F5F5F5F5E2F5F5F5F5F5F5E2F5F5E2E2E2E2E2E2E2E2E2E2E2F5F5F5F5E2E2F5E2F5F5F5F5F5F5F5F5F5F5F5F5F5F5F5F5F5F5F5F5F5F5F5F5F5F5F5F5F5F5F5F5F5E2F5F5F5E2F5F5F5E2
310
E2E2F5F5F5E2F5F5F5E2F5F5F5F5F5F5F5F5F5F5F5F5F5E2F5F5F5F5F5F5F5F5F5F5F5E2F5F5F5F5F5F5E2F5F5F5F5F5F5F5F5F5F5F5F5F5E2E2F5F5F5F5E2F5F5F5F5F5F5F5F5F5F5F5F5F5E2F5F5F5E2E2E2E2F5F5F5F5F5F5F5F5F5F5F5F5F5F5F5F5F5F5F5F5F5F5F5F5F5E2F5F5F5F5F5F5F5E2F5F5E2E2E2F5F5F5F5
310
F5F5F5F5F5F5F5E2E2F5E2F5F5F5F5F5F5F5F5F5F5F5F5F5F5F5F5F5F5F5F5F5F5F5F5F5F5F5F5F5F5F5F5F5E2F5F5F5E2F5F5F5E2E2E2F5F5F5E2F5F5F5E2F5F5F5F5F5F5F5F5F5F5F5F5F5E2F5F5F5F5F5F5F5F5F5F5F5E2F5F5F5F5F5F5E2F5F5F5F5F5F5F5F5F5F5F5F5E2F5E2F5F5F5F5E2F5F5F5F5F5F5F5F5F5F5F5
310
F5F5E2F5F5F5F5E2E2E2F5F5F5F5F5F5F5F5F5F5F5F5F5F5F5F5F5F5F5F5F5F5F5F5F5E2F5F5F5F5F5F5F5E2F5E2E2E2E2F5F5F5F5F5F5F5F5F5F5F5F5E2F5F5F5F5F5F5F5F5F5F5F5F5F5F5F5F5F5F5F5F5F5F5F5F5F5F5F5F5F5F5F5F5F5F5F5E2F5F5F5E2F5F5F5E2E2E2F5F5F5E2F5F5F5E2F5F5F5F5F5F5F5F5F5F5F5
310
F5F5E2F5F5F5F5F5E2E2E2F5F5F5F5F5F5F5F5F5F5E2F5F5F5F5F5F5F5F5F5F5F5F5E2F5E2F5F5F5F5E2F5F5F5F5F5F5F5F5F5F5F5F5F5E2F5F5F5F5E2E2E2F5F5F5F5F5F5F5F5F5F5F5F5F5F5F5F5F5F5F5F5F5F5F5F5F5E2F5F5F5F5F5F5F5E2F5F5E2E2E2F5F5F5F5F5F5F5F5F5F5F5F5E2F5F5F5F5F5F5F5F5F5F5F5F5
310
F5F5F5F5F5F5F5F5F5F5F5F5F5F5F5F5F5F5F5F5F5F5F5E2F5F5F5E2F5F5F5E2E2E2F5F5F5E2F5F5F5E2F5F5F5F5F5F5F5F5F5F5F5F5F5E2F5F5F5F5E2F5F5E2F5F5F5E2F5F5F5F5F5F5E2F5F5F5F5F5F5F5F5F5F5F5E2F5F5E2F5F5F5F5E2F5F5F5F5F5F5F5F5F5F5F5F5F5E2F5F5F5F5F5E2F5F5F5F5F5F5F5F5F5F5F5F5
310
F5F5F5F5F5F5F5F5F5F5F5F5F5F5E2F5F5F5F5F5F5F5E2F5E2F5E2E2F5F5F5F5F5F5F5F5F5F5F5F5E2F5F5F5F5F5F5F5F5F5F5F5F5F5F5F5F5F5F5F5F5F5F5F5F5F5F5F5F5F5F5F5F5F5F5F5E2F5F5F5E2F5F5F5E2E2E2F5F5F5E2F5F5F5E2F5F5F5F5F5F5F5F5F5F5F5F5F5E2F5F5F5F5E2F5F5F5F5F5F5E2F5F5F5F5F5F5
310
F5F5F5F5F5F5F5F5F5F5F5F5F5F5F5E2F5F5F5F5E2F5F5F5F5F5F5F5F5F5F5F5F5F5F5F5F5F5F5F5E2F5F5F5F5F5F5F5F5F5F5F5F5F5F5F5F5F5F5F5F5F5F5F5F5F5F5F5F5F5F5F5F5F5F5E2F5E2F5E2E2F5F5F5F5F5F5F5F5F5F5F5F5E2F5F5F5F5F5F5F5F5F5F5F5F5F5F5F5F5F5F5F5F5F5F5F5F5F5F5F5F5F5F5F5F5F5
310
F5F5E2F5F5F5E2F5F5F5E2E2E2F5F5F5E2F5F5F5E2F5F5F5F5F5F5F5F5F5F5F5F5F5E2F5F5F5F5F5E2E2E2F5F5F5E2F5F5F5F5F5F5E2F5F5F5F5F5F5F5F5F5F5F5F5F5F5E2F5F5F5F5E2F5F5F5F5F5F5F5F5F5F5F5F5F5E2F5F5F5F5F5E2F5F5F5F5F5F5F5F5F5F5F5F5F5F5F5F5F5F5F5F5F5F5F5F5F5F5E2F5F5F5F5F5F5
310
F5E2E2F5F5E2E2F5F5F5F5F5F5F5F5F5F5F5F5E2F5F5F5F5F5F5F5F5F5F5F5F5F5F5F5F5F5F5F5F5F5F5F5F5F5F5F5F5F5F5F5F5F5F5F5E2F5F5F5E2F5F5F5E2E2E2F5F5F5E2F5F5F5E2F5F5F5F5F5F5F5F5F5F5F5F5F5E2F5F5F5F5F5F5F5F5F5F5F5E2F5F5F5F5F5F5E2F5F5F5F5F5F5F5F5F5F5F5F5F5F5E2F5F5F5F5E2
310
F5F5F5F5F5F5F5F5F5F5F5F5F5E2F5F5F5F5F5E2F5F5F5F5F5F5F5F5F5F5F5F5F5F5F5F5F5F5F5F5F5F5F5F5F5F5E2F5F5F5F5F5F5F5E2E2F5F5E2E2F5F5F5F5F5F5F5F5F5F5F5F5E2F5F5F5F5F5F5F5F5F5F5F5F5F5F5F5F5F5F5F5F5F5F5F5F5F5F5F5F5F5F5F5F5F5F5F5E2F5F5F5E2F5F5F5E2E2E2F5F5F5E2F5F5F5E2
310
F5F5F5F5F5F5F5F5F5F5F5F5F5F5F5F5F5F5F5F5F5F5F5F5F5E2F5F5F5F5F5F5E2F5F5F5F5F5F5F5F5F5F5F5F5F5F5F5E2F5F5E2F5F5F5F5F5F5F5F5F5F5F5F5F5F5E2F5F5F5F5F5E2F5F5F5F5F5F5F5F5F5F5F5F5F5F5F5F5F5F5F5F5F5F5F5F5F5F5E2F5F5F5F5F5F5F5F5E2F5F5E2E2F5F5F5F5F5F5F5F5F5F5F5F5E2F5
310
F5F5F5F5F5F5F5F5F5F5F5F5F5F5F5F5F5F5F5F5F5F5F5F5F5F5F5F5F5F5F5F5F5F5E2F5F5F5E2F5F5F5E2E2E2F5F5F5E2F5F5F5E2F5F5F5F5F5F5F5F5F5F5F5F5F5E2F5F5F5F5F5F5F5F5F5F5F5F5F5F5F5F5F5F5E2F5F5F5F5F5F5F5F5F5F5F5F5F5F5F5E2F5F5E2F5F5F5F5F5F5F5F5F5F5F5F5F5F5E2F5F5F5F5F5E2F5
310
F5F5F5F5F5F5F5F5F5F5F5F5F5F5F5F5F5F5F5F5F5F5F5F5F5E2F5F5F5F5F5F5F5F5E2F5F5E2E2F5F5F5F5F5F5F5F5F5F5F5F5F5F5F5F5F5F5F5F5F5F5F5F5F5F5F5F5F5F5F5F5F5F5F5F5F5F5F5F5F5F5F5F5F5F5F5F5E2F5F5F5E2F5F5F5E2E2E2F5F5F5E2F5F5F5E2F5F5F5F5F5F5F5F5F5F5F5F5F5E2F5F5F5F5F5F5F5
310
F5F5F5F5E2F5F5F5F5F5F5E2F5F5F5F5F5F5F5F5F5F5F5F5F5F5F5E2F5F5E2F5F5F5F5F5F5F5F5F5F5F5F5F5F5E2F5F5F5F5F5E2F5F5F5F5F5F5F5F5F5F5F5F5F5F5F5F5F5F5F5F5F5F5F5F5F5F5F5F5F5F5F5F5F5F5F5E2F5F5E2E2F5F5F5F5F5F5F5F5F5F5F5F5E2F5F5F5F5F5F5F5F5F5F5F5F5F5F5F5F5F5F5F5F5F5F5
310
F5F5F5F5F5F5F5F5F5F5F5F5F5E2F5F5F5E2F5F5F5E2E2E2F5F5F5E2F5F5F5E2F5F5F5F5F5F5F5F5F5F5F5F5F5E2F5F5F5F5F5F5F5F5F5F5F5E2F5F5F5F5F5F5F5F5F5F5F5F5F5F5F5F5F5F5F5F5F5F5E2F5F5E2F5F5F5F5F5F5F5F5F5F5F5F5F5F5F5F5F5F5F5F5E2F5F5F5F5F5F5F5F5F5F5F5F5F5F5F5F5F5F5F5F5F5F5
310
F5F5F5F5E2F5F5F5F5F5F5F5F5E2F5F5E2E2F5F5F5F5F5F5F5F5F5F5F5F5E2F5F5F5F5F5F5F5F5F5F5F5F5F5F5F5F5F5F5F5F5F5F5F5F5F5F5F5F5F5F5F5F5F5F5F5E2F5F5F5E2F5F5F5E2E2E2F5F5F5E2F5F5F5E2F5F5F5F5F5F5F5F5F5F5F5F5F5E2F5F5F5F5F5F5F5F5F5F5F5E2F5F5F5F5F5F5E2F5F5F5F5F5F5F5F5F5
310
F5F5F5F5F5F5E2F5F5E2F5F5F5F5F5F5F5F5F5F5F5F5F5F5E2F5F5F5F5F5E2F5F5F5F5F5F5F5F5F5F5F5F5F5F5F5F5F5F5F5F5F5F5F5F5F5F5E2F5F5F5F5F5F5F5F5E2F5F5E2E2F5F5F5F5F5F5F5F5F5F5F5F5E2F5F5F5F5F5F5F5F5F5F5F5F5F5F5F5F5F5F5F5F5F5F5F5F5F5F5F5F5F5F5F5F5F5F5F5E2F5F5F5E2F5F5F5
310
E2E2E2F5F5F5F5F5F5F5E2F5F5F5F5F5F5F5F5F5F5F5F5E2E2E2F5F5F5F5F5F5F5F5E2F5E2E2F5F5F5F5F5E2F5F5F5F5F5F5F5F5F5F5F5F5F5F5F5E2F5F5E2F5F5F5F5F5F5F5F5F5F5F5F5F5F5E2F5F5F5F5F5F5F5F5F5F5F5F5F5F5F5F5F5F5F5F5F5F5F5F5F5F5F5F5F5F5F5F5E2F5F5F5F5F5F5F5F5E2F5F5E2E2F5F5F5
310
F5F5F5F5F5F5F5F5F5E2F5F5F5F5F5F5F5F5F5F5F5F5F5F5F5F5F5F5F5F5F5F5F5F5F5F5F5F5F5F5F5F5F5F5F5E2F5F5F5F5F5F5F5E2E2E2F5F5F5F5F5F5F5E2F5F5F5F5F5F5F5F5F5F5F5F5E2E2E2F5F5F5F5F5F5F5F5E2F5E2E2F5F5F5F5F5E2F5F5F5F5F5F5F5F5F5F5F5F5F5F5F5E2F5F5E2F5F5F5F5F5F5F5F5F5F5F5
310
F5F5F5E2F5F5F5F5F5E2F5F5F5F5F5F5F5F5F5F5F5F5F5F5F5F5F5F5F5F5F5F5F5F5F5F5E2F5F5F5F5F5F5F5F5F5E2F5E2E2F5F5F5F5F5F5F5F5F5F5F5F5F5F5F5F5F5F5F5F5F5F5F5F5F5F5F5F5F5F5F5F5F5F5F5F5F5F5F5F5F5F5F5F5F5F5F5F5E2F5F5F5F5F5F5F5E2E2E2F5F5F5F5F5F5F5E2F5F5F5F5F5F5F5F5F5F5
310
F5F5E2E2E2F5F5F5F5F5F5F5F5F5E2E2E2F5F5F5F5F5E2F5F5F5F5F5F5F5F5F5F5F5F5F5F5F5E2F5F5E2F5F5F5F5F5F5F5F5F5F5F5F5F5F5E2F5F5F5F5F5E2F5F5F5F5F5F5F5F5F5F5F5F5F5F5F5F5F5F5F5F5F5F5F5F5F5F5E2F5F5F5F5F5F5F5F5F5E2F5E2E2F5F5F5F5F5F5F5F5F5F5F5F5E2F5F5F5F5F5F5F5F5F5F5F5
310
F5F5F5F5F5F5F5F5F5F5F5F5F5F5F5F5F5F5F5F5F5F5F5F5E2F5F5F5F5F5F5F5E2E2E2F5F5F5F5F5F5F5E2F5F5F5F5F5F5F5F5F5F5F5F5F5E2F5F5F5F5F5F5F5F5F5F5E2E2F5F5F5F5F5F5F5F5F5F5F5F5F5F5F5F5F5F5F5F5F5F5E2F5F5E2F5F5F5F5F5F5F5F5F5F5F5F5F5F5F5F5F5F5F5F5E2F5F5F5F5F5F5F5F5F5F5F5
310
F5F5F5F5F5F5F5F5F5F5F5F5F5F5F5F5F5F5F5F5F5F5F5F5F5E2F5E2E2F5F5F5F5F5F5F5F5F5F5F5F5E2F5F5F5F5F5F5F5F5F5F5F5F5F5F5F5F5F5F5F5F5F5F5F5F5F5F5F5F5F5F5F5F5F5F5F5E2F5F5F5F5F5F5F5E2E2E2F5F5F5F5F5F5F5E2F5F5F5F5F5F5F5F5F5F5F5F5F5E2F5F5F5F5F5F5F5F5F5F5F5E2F5F5F5F5F5
310
F5E2F5F5F5F5F5F5F5F5F5F5F5F5F5F5F5E2F5F5E2F5F5F5F5F5F5F5F5F5F5F5F5F5F5E2F5F5F5F5F5E2F5F5F5F5F5F5F5F5F5F5F5F5F5F5F5F5F5F5F5F5F5F5F5F5F5F5E2F5F5F5F5F5F5F5F5F5E2E2E2E2F5F5F5F5F5F5F5F5F5F5F5F5E2F5F5F5F5F5F5F5F5F5F5F5F5F5F5F5F5F5F5F5F5F5F5F5F5F5F5F5F5F5F5F5F5
310
F5F5F5E2F5F5F5F5F5F5F5E2E2E2F5F5F5F5F5F5F5E2F5F5F5F5F5F5F5F5F5F5F5F5E2E2E2E2F5E2E2E2E2E2F5E2E2E2E2E2E2E2E2E2E2F5E2E2E2E2E2E2E2E2E2E2E2E2E2E2E2E2E2E2F5F5F5F5F5F5F5F5F5F5F5F5F5F5E2F5F5F5F5F5E2F5F5F5F5F5F5F5F5F5F5F5F5F5F5F5F5F5F5F5F5F5F5F5F5F5F5E2F5F5F5F5F5
310
F5F5F5F5F5F5E2E2F5F5F5F5F5F5F5F5F5F5F5F5E2F5F5F5F5F5F5F5F5F5F5F5F5F5F5F5F5F5F5F5F5F5F5F5F5F5F5F5F5F5F5F5F5F5F5F5E2F5F5F5F5F5F5F5E2E2E2F5F5F5F5F5F5F5E2F5F5F5F5F5F5F5F5F5F5F5F5F5F5F5F5F5F5F5F5F5F5F5F5F5F5F5F5F5F5F5F5E2F5F5F5F5F5F5F5F5F5F5F5F5F5F5F5F5E2F5F5
310
F5F5F5F5F5F5F5F5F5F5F5F5F5F5E2F5F5F5F5F5F5F5F5F5F5F5F5F5F5F5F5F5F5F5F5F5F5F5F5F5F5F5F5F5F5F5F5E2F5F5F5F5F5F5F5F5F5F5F5F5E2F5F5F5F5F5F5F5F5F5F5F5F5E2F5F5F5F5E2F5F5E2E2E2F5E2F5F5E2E2E2F5F5E2F5F5F5F5F5F5F5F5F5F5F5F5F5F5F5E2F5F5F5F5F5F5F5E2E2E2F5F5F5F5F5F5F5
310
E2F5F5F5F5F5F5F5F5F5F5F5F5F5F5F5F5F5F5F5F5F5F5F5F5F5F5F5F5F5F5F5F5E2F5F5F5F5F5F5F5F5F5F5F5F5F5F5F5F5E2F5F5F5F5F5F5F5F5F5F5F5F5F5F5F5F5E2F5F5F5F5F5E2F5F5E2E2F5E2E2F5E2F5E2F5F5E2E2E2F5F5E2F5F5F5F5F5F5F5E2F5F5F5F5F5F5F5F5F5F5F5F5E2F5F5F5F5F5F5F5F5F5F5F5F5F5
310
F5E2E2F5E2E2E2E2F5F5E2E2E2E2F5E2E2F5E2E2F5F5F5F5F5F5F5F5F5F5F5F5F5F5F5E2F5F5F5F5F5F5F5E2E2E2F5F5F5E2F5F5F5E2F5F5F5F5F5F5F5F5F5F5F5F5F5F5F5F5F5F5F5F5F5F5F5F5F5F5F5F5F5F5F5F5E2F5F5F5F5F5F5F5F5F5F5F5F5F5F5F5F5E2F5F5F5F5F5F5F5F5F5F5F5F5F5F5F5F5E2F5F5F5F5F5E2
310
E2E2E2E2E2E2F5F5F5E2E2E2E2F5E2E2F5E2E2F5E2F5F5F5F5F5E2F5F5F5F5F5F5F5F5F5F5F5F5E2F5F5F5F5F5F5F5F5F5F5F5F5E2F5E2F5E2E2E2E2E2F5E2E2E2E2E2E2E2E2F5E2E2F5E2F5F5F5F5F5F5F5F5F5F5F5F5F5E2F5F5F5E2F5F5F5E2E2E2F5F5F5E2F5F5F5E2F5F5F5F5F5F5F5F5F5F5F5F5F5F5F5F5F5F5F5F5
310
F5F5F5F5F5F5F5F5F5F5F5F5F5F5F5F5F5F5F5F5F5F5F5F5F5F5F5F5F5F5F5F5F5F5F5F5F5F5F5F5F5F5F5F5F5F5F5F5F5F5F5F5E2F5F5E2E2E2E2E2F5E2E2E2E2E2E2E2E2F5E2E2F5F5E2F5F5F5F5F5F5F5F5F5F5F5F5F5F5F5F5F5F5F5F5F5F5F5F5F5F5F5F5F5F5E2F5E2F5F5E2E2E2E2E2F5E2F5E2F5F5E2E2F5E2F5F5
310
F5E2F5F5F5F5F5F5F5F5F5F5F5F5E2F5F5F5E2F5F5F5E2E2E2F5F5F5E2F5F5F5E2F5F5F5F5F5F5F5F5F5F5F5F5F5F5F5F5F5F5F5F5F5F5F5F5F5F5F5F5F5F5F5F5E2F5F5F5F5F5F5F5F5F5F5F5F5F5F5F5F5E2F5F5F5F5F5F5F5F5F5F5F5F5F5F5F5F5E2F5F5F5F5F5E2F5E2E2F5E2E2F5F5F5E2F5E2F5F5E2E2F5E2F5F5F5
310
E2F5F5F5F5E2F5F5F5F5F5F5F5F5F5F5F5F5E2F5F5F5F5F5F5F5F5F5F5F5F5E2F5E2E2E2E2E2E2E2F5E2F5E2E2E2F5E2E2E2E2E2E2F5E2F5F5F5F5F5F5F5F5F5F5F5F5E2F5F5F5E2F5F5F5E2E2E2F5F5F5E2F5F5F5E2F5F5F5F5F5F5F5F5F5F5F5F5F5F5F5F5F5F5F5F5F5F5F5F5F5F5F5F5F5F5F5F5E2F5F5E2E2E2F5F5F5
310
F5F5F5F5E2E2F5F5E2F5F5E2E2E2F5F5F5F5F5F5F5E2E2F5F5E2F5F5F5F5F5E2E2E2F5E2E2E2E2F5E2F5E2E2E2F5E2E2E2E2E2E2F5E2F5F5F5F5E2F5F5E2E2F5F5F5E2E2E2F5F5E2F5F5F5F5F5F5F5F5F5F5F5F5E2F5E2F5F5E2E2E2E2F5F5E2F5E2F5F5F5E2F5E2F5F5F5E2F5F5F5F5F5F5F5F5F5F5F5F5E2F5F5F5E2F5F5
310
F5E2E2E2F5F5F5E2F5F5F5E2F5F5F5F5F5F5F5F5F5F5F5F5F5F5F5F5F5F5F5F5F5F5F5F5F5F5F5F5F5F5F5F5E2E2E2E2E2E2E2E2E2F5E2E2E2E2E2E2E2E2E2E2E2E2E2E2E2E2F5E2E2E2E2E2E2E2E2F5F5F5F5F5E2F5F5E2E2E2E2F5F5F5E2F5E2F5F5F5E2F5E2F5F5E2F5F5F5F5F5E2E2E2E2E2E2E2E2E2E2E2E2E2E2F5F5
310
F5F5F5F5F5F5F5F5F5F5E2F5F5F5F5F5F5F5F5F5F5F5F5F5F5F5F5F5F5F5F5F5E2F5F5F5F5F5F5F5F5F5F5F5F5F5E2F5F5F5E2F5F5F5E2E2E2F5F5F5E2F5F5F5E2F5F5F5F5F5F5F5F5F5F5F5F5F5F5F5F5F5F5F5F5F5F5F5F5F5F5F5F5F5F5F5F5E2F5F5E2E2E2F5F5F5F5F5F5F5E2E2E2F5E2F5F5E2E2E2F5F5F5F5F5F5F5
310
E2E2E2F5E2F5F5F5F5F5E2F5F5F5F5F5F5F5F5F5F5F5F5F5F5F5F5F5F5F5F5F5F5F5F5F5F5E2F5E2E2E2F5F5F5E2E2E2F5F5E2F5F5F5F5F5F5F5F5F5F5F5F5F5F5F5F5F5F5F5F5F5F5F5F5F5F5F5F5F5F5F5F5F5F5F5F5F5F5F5F5F5F5F5F5F5F5F5F5E2F5F5F5E2F5F5F5E2E2E2F5F5F5E2F5F5F5E2F5F5F5F5F5F5F5F5F5
310
F5F5F5F5F5F5F5F5F5F5F5F5F5F5F5F5F5F5F5F5F5F5F5F5F5F5F5F5F5F5F5E2E2E2F5F5F5F5F5F5F5F5F5F5F5F5F5F5E2E2E2F5F5F5F5F5F5F5F5F5F5F5F5E2F5F5F5F5F5E2F5F5F5F5F5F5F5F5F5F5F5F5F5F5F5F5F5F5F5F5F5F5F5F5E2E2E2F5F5F5F5F5F5F5F5F5F5F5F5F5F5F5F5F5F5F5E2F5F5F5F5F5E2E2E2E2F5
310
F5F5F5F5F5F5F5F5F5F5F5F5F5F5F5F5F5F5F5F5F5F5F5F5F5E2F5F5F5E2F5F5F5E2E2E2F5F5F5E2F5F5F5E2F5F5F5F5F5F5F5F5F5F5F5F5F5F5F5F5F5F5F5F5F5F5F5F5F5F5F5F5F5F5F5F5F5F5F5F5F5F5F5E2F5E2E2F5F5F5F5F5F5F5F5F5F5F5F5F5E2F5E2E2F5F5F5F5F5F5F5F5F5F5F5F5E2F5F5F5F5F5E2E2E2F5F5
310
F5F5F5F5F5F5F5F5F5F5F5F5F5F5F5F5F5F5F5F5E2F5F5E2F5F5F5F5F5F5F5F5F5F5F5F5F5F5F5F5F5F5E2F5F5F5F5F5E2E2E2E2F5F5F5F5F5F5F5F5F5F5F5F5F5F5F5F5F5F5F5F5F5F5F5F5F5F5E2F5F5F5E2F5F5F5E2E2E2F5F5F5E2F5F5F5E2F5F5F5F5F5F5F5F5F5F5F5F5F5F5F5F5F5F5F5F5F5F5F5F5F5F5F5F5F5F5
310
F5F5F5F5F5F5F5F5F5E2F5F5F5F5F5F5F5F5F5F5F5F5F5F5F5F5E2F5F5F5F5F5F5F5F5F5F5F5F5F5F5F5E2E2E2E2E2E2E2F5F5F5F5F5F5F5F5F5F5F5F5F5F5F5F5F5F5F5F5F5F5F5F5E2F5F5E2F5F5F5F5F5F5F5F5F5F5F5F5F5F5F5F5F5F5E2E2E2E2E2E2E2F5F5F5F5F5F5F5F5F5F5F5F5F5F5F5F5F5F5F5F5F5F5F5F5F5
310
F5F5F5F5E2F5F5F5E2F5F5F5E2E2E2F5F5F5E2F5F5F5E2F5F5F5F5F5F5F5F5F5F5F5F5F5F5F5F5F5F5F5F5F5F5F5F5F5F5F5F5F5F5F5F5F5F5F5F5F5F5F5E2E2E2E2F5F5F5F5F5F5F5F5F5F5F5F5F5E2E2E2E2F5F5F5F5F5F5F5F5F5F5F5F5F5F5F5F5F5F5E2E2E2E2F5F5F5F5F5F5F5F5F5F5F5F5F5F5F5F5F5F5F5F5F5E2
310
E2E2F5F5F5F5F5F5F5F5F5F5F5F5F5F5F5F5F5F5F5F5F5F5F5F5F5E2E2E2E2F5F5F5F5F5F5F5F5F5F5F5F5F5F5F5F5F5F5F5F5F5F5F5F5F5F5E2F5F5F5E2F5F5F5E2E2E2F5F5F5E2F5F5F5E2F5F5F5F5F5F5F5F5F5F5F5F5F5F5F5F5F5F5F5F5F5F5F5F5F5F5F5F5F5F5F5F5F5F5F5F5F5F5F5F5F5F5F5F5F5F5F5F5F5F5F5
310
F5F5F5F5F5F5F5F5F5F5F5F5F5F5F5F5F5F5F5F5F5F5F5F5F5F5F5F5F5F5F5F5F5F5F5F5F5F5F5F5F5F5F5F5F5F5F5F5F5F5F5F5F5F5F5F5F5F5F5F5F5F5F5F5F5F5F5F5F5F5F5F5F5F5F5F5F5F5F5F5F5F5F5F5F5F5F5F5F5F5F5F5F5F5F5F5F5F5F5F5F5F5F5F5F5F5F5F5F5F5E2F5F5F5E2F5F5F5E2E2E2F5F5F5E2F5F5
310
F5E2F5F5F5F5F5F5F5F5F5F5F5F5F5F5F5F5F5F5F5F5F5F5F5F5F5F5F5F5F5F5F5F5F5F5F5F5F5F5F5F5F5F5F5F5F5F5F5F5F5F5F5F5F5F5F5F5F5F5F5F5F5F5F5F5F5F5F5F5F5F5F5F5F5F5F5F5F5F5F5F5F5F5F5F5F5F5F5F5F5F5F5F5F5F5F5F5F5F5F5F5F5F5F5F5F5F5F5F5F5F5F5F5F5F5F5F5F5F5F5F5F5F5F5F5F5
310
F5F5F5F5F5F5F5F5F5F5F5F5F5F5F5F5F5F5F5F5F5F5F5F5F5F5F5F5F5F5F5F5F5F5F5F5E2F5F5F5E2F5F5F5E2E2E2F5F5F5E2F5F5F5E2F5F5F5F5F5F5F5F5F5F5F5F5F5F5F5F5F5F5F5F5F5F5F5F5F5F5F5F5F5F5F5F5F5F5F5F5F5F5F5F5F5F5F5F5F5F5F5F5F5F5F5F5F5F5F5F5F5F5F5F5F5F5F5F5F5F5F5F5F5F5F5F5
310
F5F5F5F5F5F5F5F5F5F5F5F5F5F5F5F5F5F5F5F5F5F5F5F5F5F5F5F5F5F5F5F5F5F5F5F5F5F5F5F5F5F5F5F5F5F5F5F5F5F5F5F5F5F5F5F5F5F5F5F5F5F5F5F5F5F5F5F5F5F5F5F5F5F5F5F5F5F5F5F5F5F5F5F5F5F5F5F5F5E2F5F5F5E2F5F5F5E2E2E2F5F5F5E2F5F5F5E2F5F5F5F5F5F5F5F5F5F5F5F5F5F5F5F5F5F5F5
310
F5F5F5F5F5F5F5F5F5F5F5F5F5F5F5F5F5F5F5F5F5F5F5F5F5F5F5F5F5F5F5F5F5F5F5F5F5F5F5F5F5F5F5F5F5F5F5F5F5F5F5F5F5F5F5F5F5F5F5F5F5F5F5F5F5F5F5F5F5F5F5F5F5F5F5F5F5F5F5F5F5F5F5F5F5F5F5F5F5F5F5F5F5F5F5F5F5F5F5F5F5F5F5F5F5F5F5F5F5F5F5F5F5F5F5F5F5F5F5F5F5F5F5F5F5F5F5
310
F5F5F5F5F5F5F5F5F5F5F5F5F5F5F5E2F5F5F5E2F5F5F5E2E2E2F5F5F5E2F5F5F5E2F5F5F5F5F5F5F5F5F5F5F5F5F5F5F5F5F5F5F5F5F5F5F5F5F5F5F5F5F5F5F5F5F5F5F5F5F5F5F5F5F5F5F5F5F5F5F5F5F5F5F5F5F5F5F5F5F5F5F5F5F5F5F5F5F5F5F5F5F5F5F5F5F5F5F5F5F5F5F5F5F5F5F5F5F5F5F5F5F5F5F5F5F5
310
F5F5F5F5F5F5F5F5F5F5F5F5F5F5F5F5F5F5F5F5F5F5F5F5F5F5F5F5F5F5F5F5F5F5F5F5F5F5F5F5F5F5F5F5F5F5F5F5F5F5F5F5F5F5F5F5F5F5F5F5F5F5F5F5F5F5F5F5E2F5F5F5E2F5F5F5E2E2E2F5F5F5F5F5F5F5E2F5F5F5F5F5F5F5F5F5F5F5F5F5F5F5F5F5F5F5F5F5F5F5F5F5F5F5F5F5F5F5F5F5F5F5F5F5F5F5F5
310
F5F5F5F5F5F5F5F5F5F5F5F5F5F5F5F5F5F5F5F5F5F5F5F5F5F5F5F5F5F5F5F5F5F5F5F5F5F5F5F5F5F5F5F5F5F5F5F5F5F5F5F5F5F5F5F5F5F5F5F5F5F5F5F5F5F5F5F5F5F5F5F5F5F5F5F5F5F5F5F5F5F5F5F5F5F5F5F5F5F5F5F5F5F5F5F5F5F5F5F5F5F5F5F5F5F5F5F5F5F5F5F5F5F5F5F5F5F5F5F5F5E2F5F5F5F5F5
310
F5F5E2E2E2F5F5F5F5F5F5F5E2F5F5F5F5F5F5F5F5F5F5F5F5F5F5F5F5F5F5F5F5F5F5F5F5F5F5F5F5F5F5F5F5F5F5F5F5F5F5F5F5F5F5F5F5F5F5F5F5F5F5F5F5F5F5F5F5F5F5F5F5F5F5F5F5F5F5F5F5F5F5F5F5F5F5F5F5F5F5F5F5F5F5F5F5F5F5F5F5F5F5F5F5F5F5F5F5F5F5F5F5F5F5F5F5F5F5F5F5F5F5F5F5F5F5
310
F5F5F5F5F5F5F5F5F5F5F5F5F5F5F5F5F5F5F5F5F5F5F5F5F5F5F5F5F5F5F5F5F5F5F5F5F5F5F5F5F5F5F5F5F5F5F5E2F5F5F5F5F5F5F5E2E2E2F5F5F5F5F5F5F5E2F5F5F5F5F5F5F5F5F5F5F5F5F5F5F5F5F5F5F5F5F5F5F5F5F5F5F5F5F5F5F5F5F5F5F5F5F5F5F5F5F5F5F5F5F5F5F5F5F5F5F5F5F5F5F5F5F5F5F5F5F5
310
F5F5F5F5F5F5F5F5F5F5F5F5F5F5F5F5F5F5F5F5F5F5F5F5F5F5F5F5F5F5F5F5F5F5F5F5F5F5F5F5F5F5F5F5F5F5F5F5F5F5F5F5F5F5F5F5F5F5F5F5F5F5F5F5F5F5F5F5F5F5F5F5F5F5F5F5F5F5F5F5F5F5F5F5F5F5F5F5F5F5F5F5F5F5F5F5F5F5F5F5E2F5F5F5F5F5F5F5E2E2E2F5F5F5F5F5F5F5E2F5F5F5F5F5F5F5F5
310
F5F5F5F5F5F5F5F5F5F5F5F5F5F5F5F5F5F5F5F5F5F5F5F5F5F5F5F5F5F5F5F5F5F5F5F5F5F5F5F5F5F5F5F5F5F5F5F5F5F5F5F5F5F5F5F5F5F5F5F5F5F5F5F5F5F5F5F5F5F5F5F5F5F5F5F5F5F5F5F5F5F5F5F5F5F5F5F5F5F5F5F5F5F5F5F5F5F5F5F5F5F5F5F5F5F5F5F5F5F5F5F5F5F5F5F5F5F5F5F5F5F5F5F5F5F5F5
310
F5F5F5F5F5F5F5F5F5F5F5F5F5F5F5F5F5F5F5F5F5F5F5F5F5F5E2F5F5F5F5F5F5F5E2E2E2F5F5F5F5F5F5F5E2F5F5F5F5F5F5F5F5F5F5F5F5F5F5F5F5F5F5F5F5F5F5F5F5F5F5F5F5F5F5F5F5F5F5F5F5F5F5F5F5F5F5F5F5F5F5F5F5F5F5F5F5F5F5F5F5F5F5F5F5F5F5F5F5F5F5F5F5F5F5F5F5F5F5F5F5F5F5F5F5F5F5
310
F5F5F5F5F5F5F5F5F5F5F5F5F5F5F5F5F5F5F5F5F5F5F5F5F5F5F5F5F5F5F5F5F5F5F5F5F5F5F5F5F5F5F5F5F5F5F5F5F5F5F5F5F5F5F5F5F5F5F5F5F5F5F5F5F5F5F5F5F5F5F5F5F5F5F5F5F5F5F5E2F5F5F5F5F5F5F5E2E2E2F5F5F5F5F5F5F5E2F5F5F5F5F5F5F5F5F5F5F5F5F5F5F5F5F5F5F5F5F5F5F5F5F5F5F5F5F5
310
F5F5F5F5F5F5F5F5F5F5F5F5F5F5F5F5F5F5F5F5F5F5F5F5F5F5F5F5F5F5F5F5F5F5F5F5F5F5F5F5F5F5F5F5F5F5F5F5F5F5F5F5F5F5F5F5F5F5F5F5F5F5F5F5F5F5F5F5F5F5F5F5F5F5F5F5F5F5F5F5F5F5F5F5F5F5F5F5F5F5F5F5F5F5F5F5F5F5F5F5F5F5F5F5F5F5F5F5F5F5F5F5F5F5F5F5F5F5F5F5F5F5F5F5F5F5F5
310
F5F5F5F5F5E2F5F5F5F5F5F5F5E2E2E2F5F5F5F5F5F5F5E2F5F5F5F5F5F5F5F5F5F5F5F5F5F5F5F5F5F5F5F5F5F5F5F5F5F5F5F5F5F5F5F5F5F5F5F5F5F5F5F5F5F5F5F5F5F5F5F5F5F5F5F5F5F5F5F5F5F5F5F5F5F5F5F5F5F5F5F5F5F5F5F5F5F5F5F5F5F5F5F5F5F5F5F5F5F5F5F5F5F5F5F5F5F5F5F5F5F5F5F5F5F5F5
310
F5F5F5F5F5F5F5F5F5F5F5F5F5F5F5F5F5F5F5F5F5F5F5F5F5F5F5F5F5F5F5F5F5F5F5F5F5F5F5F5F5F5F5F5F5F5F5F5F5F5F5F5F5F5F5F5F5F5E2F5F5F5F5F5F5F5E2E2E2F5F5F5F5F5F5F5E2F5F5F5F5F5F5F5F5F5F5F5F5F5F5F5F5F5F5F5F5F5F5F5F5F5F5F5F5F5F5F5F5F5F5F5F5F5F5F5F5F5F5F5F5F5F5F5F5F5F5
310
F5F5F5F5F5F5F5F5F5F5F5F5F5F5F5F5F5F5F5F5F5F5F5F5F5F5F5F5F5F5F5F5F5F5F5F5F5F5F5F5F5F5F5F5F5F5F5F5F5F5F5F5F5F5F5F5F5F5F5F5F5F5F5F5F5F5F5F5F5F5F5F5F5F5F5F5F5F5F5F5F5F5F5F5F5F5F5F5F5F5F5F5F5F5F5F5F5F5F5F5F5F5F5F5F5F5F5F5F5F5F5E2F5F5F5F5F5F5F5E2E2E2F5F5F5F5F5
310
F5F5E2F5F5F5F5F5F5F5F5F5F5F5F5F5F5F5F5F5F5F5F5F5F5F5F5F5F5F5F5F5F5F5F5F5F5F5F5F5F5F5F5F5F5F5F5F5F5F5F5F5F5F5F5F5F5F5F5F5F5F5F5F5F5F5F5F5F5F5F5F5F5F5F5F5F5F5F5F5F5F5F5F5F5F5F5F5F5F5F5F5F5F5F5F5F5F5F5F5F5F5F5F5F5F5F5F5F5F5F5F5F5F5F5F5F5F5F5F5F5F5F5F5F5F5F5
310
F5F5F5F5F5F5F5F5F5F5F5F5F5F5F5F5F5F5F5F5F5F5F5F5F5F5F5F5F5F5F5F5F5F5F5F5F5E2F5F5F5F5F5F5F5E2E2E2F5F5F5E2F5F5F5E2F5F5F5F5F5F5F5F5F5F5F5F5F5F5F5F5F5F5F5F5F5F5F5F5F5F5F5F5F5F5F5F5F5F5F5F5F5F5F5F5F5F5F5F5F5F5F5F5F5F5F5F5F5F5F5F5F5F5F5F5F5F5F5F5F5F5F5F5F5F5F5
310
F5F5F5F5F5F5F5F5F5F5F5F5F5F5F5F5F5F5F5F5F5F5F5F5F5F5F5F5F5F5F5F5F5F5F5F5F5F5F5F5F5F5F5F5F5F5F5F5F5F5F5F5F5F5F5F5F5F5F5F5F5F5F5F5F5F5F5F5F5F5F5F5F5F5F5F5F5F5F5F5F5F5F5F5F5F5F5F5F5F5E2F5F5F5E2F5F5F5E2E2E2F5F5F5E2F5F5F5E2F5F5F5F5F5F5F5F5F5F5F5F5F5F5F5F5F5F5
310
F5F5F5F5F5F5F5F5F5F5F5F5F5F5F5F5F5F5F5F5F5F5F5F5F5F5F5F5F5F5F5F5F5F5F5F5F5F5F5F5F5F5F5F5F5F5F5F5F5F5F5F5F5F5F5F5F5F5F5F5F5F5F5F5F5F5F5F5F5F5F5F5F5F5F5F5F5F5F5F5F5F5F5F5F5F5F5F5F5F5F5F5F5F5F5F5F5F5F5F5F5F5F5F5F5F5F5F5F5F5F5F5F5F5F5F5F5F5F5F5F5F5F5F5F5F5F5
310
F5F5F5F5F5F5F5F5F5F5F5F5F5F5F5F5E2F5F5F5E2F5F5F5E2E2E2F5F5F5E2F5F5F5E2F5F5F5F5F5F5F5F5F5F5F5F5F5F5F5F5F5F5F5F5F5F5F5F5F5F5F5F5F5F5F5F5F5F5F5F5F5F5F5F5F5F5F5F5F5F5F5F5F5F5F5F5F5F5F5F5F5F5F5F5F5F5F5F5F5F5F5F5F5F5F5F5F5F5F5F5F5F5F5F5F5F5F5F5F5F5F5F5F5F5F5F5
310
F5F5F5F5F5F5F5F5F5F5F5F5F5F5F5F5F5F5F5F5F5F5F5F5F5F5F5F5F5F5F5F5F5F5F5F5F5F5F5F5F5F5F5F5F5F5F5F5F5F5F5F5F5F5F5F5F5F5F5F5F5F5F5F5F5F5F5F5F5E2F5F5F5E2F5F5F5E2E2E2F5F5F5E2F5F5F5E2F5F5F5F5F5F5F5F5F5F5F5F5F5F5F5F5F5F5F5F5F5F5F5F5F5F5F5F5F5F5F5F5F5F5F5F5F5F5F5
310
F5F5F5F5F5F5F5F5F5F5F5F5F5F5F5F5F5F5F5F5F5F5F5F5F5F5F5F5F5F5F5F5F5F5F5F5F5F5F5F5F5F5F5F5F5F5F5F5F5F5F5F5F5F5F5F5F5F5F5F5F5F5F5F5F5F5F5F5F5F5F5F5F5F5F5F5F5F5F5F5F5F5F5F5F5F5F5F5F5F5F5F5F5F5F5F5F5F5F5F5F5F5F5F5F5F5F5F5F5F5F5F5F5F5F5F5F5F5F5F5F5F5E2F5F5F5E2
310
F5F5F5E2E2E2F5F5F5E2F5F5F5E2F5F5F5F5F5F5F5F5F5F5F5F5F5F5F5F5F5F5F5F5F5F5F5F5F5F5F5F5F5F5F5F5F5F5F5F5F5F5F5F5F5F5F5F5F5F5F5F5F5F5F5F5F5F5F5F5F5F5F5F5F5F5F5F5F5F5F5F5F5F5F5F5F5F5F5F5F5F5F5F5F5F5F5F5F5F5F5F5F5F5F5F5F5F5F5F5F5F5F5F5F5F5F5F5F5F5F5F5F5F5F5F5F5
310
F5F5F5F5F5F5F5F5F5F5F5F5F5F5F5F5F5F5F5F5F5F5F5F5F5F5F5F5F5F5F5F5F5F5F5F5F5F5F5F5F5F5F5F5F5F5F5F5E2F5F5F5E2F5F5F5E2E2E2F5F5F5E2F5F5F5E2F5F5F5F5F5F5F5F5F5F5F5F5F5F5F5F5F5F5F5F5F5F5F5F5F5F5F5F5F5F5F5F5F5F5F5F5F5F5F5F5F5F5F5F5F5F5F5F5F5F5F5F5F5F5F5F5F5F5F5F5
310
F5F5F5F5F5F5F5F5F5F5F5F5F5F5F5F5F5F5F5F5F5F5F5F5F5F5F5F5F5F5F5F5F5F5F5F5F5F5F5F5F5F5F5F5F5F5F5F5F5F5F5F5F5F5F5F5F5F5F5F5F5F5F5F5F5F5F5F5F5F5F5F5F5F5F5F5F5F5F5F5F5F5F5F5F5F5F5F5F5F5F5F5F5F5F5F5F5F5F5F5F5E2F5F5F5E2F5F5F5E2E2E2F5F5F5E2F5F5F5E2E2E2E2E2E2E2E2
310
E2E2E2E2E2E2E2E2E2E2E2E2E2E2E2E2E2E2E2E2E2E2E2E2E2E2E2E2E2E2E2E2E2E2E2E2E2E2E2E2E2E2E2E2E2E2E2E2E2E2E2E2E2E2E2E2E2E2E2E2E2E2E2E2E2E2E2E2E2E2E2E2E2E2E2E2E2E2E2E2E2E2E2E2E2E2E2E2E2E2E2E2E2E2E2E2E2E2E2E2E2E2E2E2E2E2E2E2E2E2E2E2E2E2E2E2E2E2E2E2E2E2E2E2E2E2E2
310
E2E2E2E2E2E2E2E2E2E2E2E2E2E2E2E2E2E2E2E2E2E2E2E2E2E2E2E2F5F5F5E2F5F5F5E2E2E2F5F5F5E2E2E2E2E2E2E2E2F5F5F5F5F5F5F5F5F5E2E2E2E2E2E2E2E2E2E2E2E2E2E2E2E2F5F5F5F5F5F5F5F5E2E2E2E2E2E2E2E2E2E2E2E2E2E2E2E2F5F5F5F5F5F5F5F5F5E2E2E2E2E2E2E2E2E2E2E2E2E2E2E2F5F5F5F5F5
310
F5F5F5F5E2E2E2E2E2E2E2E2E2E2E2E2E2E2E2F5F5F5F5F5F5F5F5F5E2E2E2E2E2E2E2E2E2E2E2E2E2E2E2E2F5F5F5F5F5F5F5F5E2E2E2E2E2E2E2E2E2E2E2E2E2E2E2E2F5F5F5F5F5F5F5F5F5E2E2E2E2E2E2E2E2F5F5F5E2E2E2F5F5F5F5F5F5F5F5F5F5F5F5F5F5F5F5F5F5F5F5F5F5F5F5F5F5F5F5F5F5F5F5F5F5F5F5
310
F5F5F5F5F5F5F5F5F5F5F5F5F5F5F5F5F5F5F5F5F5F5F5F5F5F5F5F5F5F5F5F5F5F5F5F5F5F5F5F5F5F5F5F5F5F5F5F5F5F5F5F5F5F5F5F5F5F5F5F5F5F5F5F5F5F5F5F5F5F5F5F5F5F5F5F5F5F5F5F5F5F5F5F5F5F5F5F5F5F5F5F5F5F5F5F5F5F5F5F5F5F5F5F5F5F5F5F5F5F5F5F5F5F5F5F5F5F5F5F5F5F5F5F5F5F5F5
310
F5F5F5F5F5F5F5F5F5F5F5F5F5F5E2E2E2F5F5F5F5F5F5F5F5F5F5F5F5F5F5F5F5F5F5F5F5F5F5F5F5F5F5F5F5F5F5F5F5F5F5F5F5F5F5F5F5F5F5F5F5F5F5F5F5F5F5F5F5F5F5F5F5F5F5F5F5F5F5F5F5F5F5F5F5F5F5F5F5F5F5F5F5F5F5F5F5F5F5F5F5F5F5F5F5F5F5F5F5F5F5F5F5F5F5F5F5F5F5F5F5F5F5F5F5F5F5
310
F5F5F5F5F5F5F5F5F5F5F5F5F5F5F5F5F5F5F5F5F5F5F5F5F5F5F5F5F5F5F5F5F5F5F5F5F5F5F5F5F5F5F5F5F5F5F5F5F5F5F5F5F5F5F5F5F5F5F5F5F5F5F5F5F5F5F5E2E2E2F5F5F5F5F5F5F5F5F5F5F5F5F5F5F5F5F5F5F5F5F5F5F5F5F5F5F5F5F5F5F5F5F5F5F5F5F5F5F5F5F5F5F5F5F5F5F5F5F5F5F5F5F5F5F5F5F5
310
F5F5F5F5F5F5F5F5F5F5F5F5F5F5F5F5F5F5F5F5F5F5F5F5F5F5F5F5F5F5F5F5F5F5F5F5F5F5F5F5F5F5F5F5F5F5F5F5F5F5F5F5F5F5F5F5F5F5F5F5F5F5F5F5F5F5F5F5F5F5F5F5F5F5F5F5F5F5F5F5F5F5F5F5F5F5F5F5F5F5F5F5F5F5F5F5F5F5F5F5F5F5F5F5F5F5F5F5F5F5F5F5F5F5F5F5F5F5F5F5E2EFE2E2E2E2E2
310
E2E2E2E2E2E2E2E2E2E2E2E2E2E2E2E2E2E2E2E2E2E2E2E2E2E2E2E2E2E2E2E2E2E2E2E2E2E2E2E2E2E2E2E2E2E2E2E2E2E2E2E2E2E2E2E2E2E2E2E2E2E2E2E2E2E2E2E2E2E2E2E2E2E2E2E2E2E2E2E2E2E2E2E2E2E2E2E2E2E2E2E2E2E2E2E2E2E2E2E2E2E2E2E2E2E2E2E2E2E2E2E2E2E2E2E2E2E2E2E2E2E2E2E2E2E2E2
310
E2E2E2E2E2E2E2E2E2E2E2E2E2E2E2E2E2E2E2E2E2E2E2E2E2E2E2E2E2E2E2E2E2E2E2E2E2E2E2E2E2E2E2E2E2E2E2EF
  0
XRECORD
  5
6FD5
102
{ACAD_REACTORS
330
6FD4
102
}
330
6FD4
100
AcDbXrecord
280
     1
102
SHADEPLOT
 70
     0
102
SHADEPLOTRESLEVEL
 70
     2
102
SHADEPLOTCUSTOMDPI
 70
   300
  0
XRECORD
  5
6F58
102
{ACAD_REACTORS
330
6F57
102
}
330
6F57
100
AcDbXrecord
280
     1
102
MATERIAL
148
0.0
149
0.0
149
0.0
 93
        0
 94
       63
282
     0
 72
     1
 77
     1
171
     1
175
     1
179
     1
273
     0
  0
XRECORD
  5
6F56
102
{ACAD_REACTORS
330
6F55
102
}
330
6F55
100
AcDbXrecord
280
     1
102
MATERIAL
148
0.0
149
0.0
149
0.0
 93
        0
 94
       63
282
     0
 72
     1
 77
     1
171
     1
175
     1
179
     1
273
     0
  0
XRECORD
  5
6F5A
102
{ACAD_REACTORS
330
6F59
102
}
330
6F59
100
AcDbXrecord
280
     1
102
MATERIAL
148
0.0
149
0.0
149
0.0
 93
        0
 94
       63
282
     0
 72
     1
 77
     1
171
     1
175
     1
179
     1
273
     0
  0
XRECORD
  5
6FD7
102
{ACAD_REACTORS
330
6FD6
102
}
330
6FD6
100
AcDbXrecord
280
     1
102
SHADEPLOT
 70
     0
102
SHADEPLOTRESLEVEL
 70
     2
102
SHADEPLOTCUSTOMDPI
 70
   300
  0
XRECORD
  5
6FD9
102
{ACAD_REACTORS
330
6FD8
102
}
330
6FD8
100
AcDbXrecord
280
     1
102
ACAD_ROUNDTRIP_PRE2007_TABLESTYLE
 90
      512
 91
        0
  1

 92
      512
 93
        0
  2

 94
      512
 95
        0
  3

  0
ENDSEC
  0
EOF
