  0
SECTION
  2
HEADER
  9
$ACADVER
  1
AC1015
  9
$ACADMAINTVER
 70
    20
  9
$DWGCODEPAGE
  3
ANSI_932
  9
$INSBASE
 10
0.0
 20
0.0
 30
0.0
  9
$EXTMIN
 10
-231.6388944219723
 20
1502.512417502769
 30
0.0
  9
$EXTMAX
 10
34.73509112959606
 20
1629.570157095133
 30
4.32
  9
$LIMMIN
 10
0.0
 20
0.0
  9
$LIMMAX
 10
420.0
 20
297.0
  9
$ORTHOMODE
 70
     0
  9
$REGENMODE
 70
     1
  9
$FILLMODE
 70
     1
  9
$QTEXTMODE
 70
     0
  9
$MIRRTEXT
 70
     0
  9
$LTSCALE
 40
1.0
  9
$ATTMODE
 70
     1
  9
$TEXTSIZE
 40
2.5
  9
$TRACEWID
 40
1.0
  9
$TEXTSTYLE
  7
Standard
  9
$CLAYER
  8
塗潰し
  9
$CELTYPE
  6
ByLayer
  9
$CECOLOR
 62
   256
  9
$CELTSCALE
 40
1.0
  9
$DISPSILH
 70
     0
  9
$DIMSCALE
 40
1.0
  9
$DIMASZ
 40
4.0
  9
$DIMEXO
 40
1.0
  9
$DIMDLI
 40
7.0
  9
$DIMRND
 40
0.0
  9
$DIMDLE
 40
0.0
  9
$DIMEXE
 40
1.0
  9
$DIMTP
 40
0.0
  9
$DIMTM
 40
0.0
  9
$DIMTXT
 40
5.0
  9
$DIMCEN
 40
0.0
  9
$DIMTSZ
 40
0.0
  9
$DIMTOL
 70
     0
  9
$DIMLIM
 70
     0
  9
$DIMTIH
 70
     0
  9
$DIMTOH
 70
     0
  9
$DIMSE1
 70
     0
  9
$DIMSE2
 70
     0
  9
$DIMTAD
 70
     1
  9
$DIMZIN
 70
     8
  9
$DIMBLK
  1
Open30
  9
$DIMASO
 70
     1
  9
$DIMSHO
 70
     1
  9
$DIMPOST
  1

  9
$DIMAPOST
  1

  9
$DIMALT
 70
     0
  9
$DIMALTD
 70
     2
  9
$DIMALTF
 40
0.0394
  9
$DIMLFAC
 40
1.0
  9
$DIMTOFL
 70
     1
  9
$DIMTVP
 40
0.0
  9
$DIMTIX
 70
     0
  9
$DIMSOXD
 70
     0
  9
$DIMSAH
 70
     0
  9
$DIMBLK1
  1

  9
$DIMBLK2
  1

  9
$DIMSTYLE
  2
JIS
  9
$DIMCLRD
 70
     0
  9
$DIMCLRE
 70
     0
  9
$DIMCLRT
 70
     0
  9
$DIMTFAC
 40
1.0
  9
$DIMGAP
 40
1.0
  9
$DIMJUST
 70
     0
  9
$DIMSD1
 70
     0
  9
$DIMSD2
 70
     0
  9
$DIMTOLJ
 70
     1
  9
$DIMTZIN
 70
     0
  9
$DIMALTZ
 70
     0
  9
$DIMALTTZ
 70
     0
  9
$DIMUPT
 70
     0
  9
$DIMDEC
 70
     4
  9
$DIMTDEC
 70
     4
  9
$DIMALTU
 70
     2
  9
$DIMALTTD
 70
     2
  9
$DIMTXSTY
  7
Standard
  9
$DIMAUNIT
 70
     0
  9
$DIMADEC
 70
     0
  9
$DIMALTRND
 40
0.0
  9
$DIMAZIN
 70
     0
  9
$DIMDSEP
 70
    46
  9
$DIMATFIT
 70
     3
  9
$DIMFRAC
 70
     0
  9
$DIMLDRBLK
  1
Open30
  9
$DIMLUNIT
 70
     2
  9
$DIMLWD
 70
    -2
  9
$DIMLWE
 70
    -2
  9
$DIMTMOVE
 70
     0
  9
$LUNITS
 70
     2
  9
$LUPREC
 70
     4
  9
$SKETCHINC
 40
1.0
  9
$FILLETRAD
 40
0.0
  9
$AUNITS
 70
     0
  9
$AUPREC
 70
     0
  9
$MENU
  1
.
  9
$ELEVATION
 40
0.0
  9
$PELEVATION
 40
0.0
  9
$THICKNESS
 40
0.0
  9
$LIMCHECK
 70
     0
  9
$CHAMFERA
 40
0.0
  9
$CHAMFERB
 40
0.0
  9
$CHAMFERC
 40
0.0
  9
$CHAMFERD
 40
0.0
  9
$SKPOLY
 70
     0
  9
$TDCREATE
 40
2454379.577641921
  9
$TDUCREATE
 40
2454379.202641921
  9
$TDUPDATE
 40
2454937.501454989
  9
$TDUUPDATE
 40
2454937.126454989
  9
$TDINDWG
 40
0.8046766782
  9
$TDUSRTIMER
 40
0.8046757639
  9
$USRTIMER
 70
     1
  9
$ANGBASE
 50
0.0
  9
$ANGDIR
 70
     0
  9
$PDMODE
 70
     0
  9
$PDSIZE
 40
0.0
  9
$PLINEWID
 40
0.0
  9
$SPLFRAME
 70
     0
  9
$SPLINETYPE
 70
     6
  9
$SPLINESEGS
 70
     8
  9
$HANDSEED
  5
7764
  9
$SURFTAB1
 70
     6
  9
$SURFTAB2
 70
     6
  9
$SURFTYPE
 70
     6
  9
$SURFU
 70
     6
  9
$SURFV
 70
     6
  9
$UCSBASE
  2

  9
$UCSNAME
  2

  9
$UCSORG
 10
0.0
 20
0.0
 30
0.0
  9
$UCSXDIR
 10
1.0
 20
0.0
 30
0.0
  9
$UCSYDIR
 10
0.0
 20
1.0
 30
0.0
  9
$UCSORTHOREF
  2

  9
$UCSORTHOVIEW
 70
     0
  9
$UCSORGTOP
 10
0.0
 20
0.0
 30
0.0
  9
$UCSORGBOTTOM
 10
0.0
 20
0.0
 30
0.0
  9
$UCSORGLEFT
 10
0.0
 20
0.0
 30
0.0
  9
$UCSORGRIGHT
 10
0.0
 20
0.0
 30
0.0
  9
$UCSORGFRONT
 10
0.0
 20
0.0
 30
0.0
  9
$UCSORGBACK
 10
0.0
 20
0.0
 30
0.0
  9
$PUCSBASE
  2

  9
$PUCSNAME
  2

  9
$PUCSORG
 10
0.0
 20
0.0
 30
0.0
  9
$PUCSXDIR
 10
1.0
 20
0.0
 30
0.0
  9
$PUCSYDIR
 10
0.0
 20
1.0
 30
0.0
  9
$PUCSORTHOREF
  2

  9
$PUCSORTHOVIEW
 70
     0
  9
$PUCSORGTOP
 10
0.0
 20
0.0
 30
0.0
  9
$PUCSORGBOTTOM
 10
0.0
 20
0.0
 30
0.0
  9
$PUCSORGLEFT
 10
0.0
 20
0.0
 30
0.0
  9
$PUCSORGRIGHT
 10
0.0
 20
0.0
 30
0.0
  9
$PUCSORGFRONT
 10
0.0
 20
0.0
 30
0.0
  9
$PUCSORGBACK
 10
0.0
 20
0.0
 30
0.0
  9
$USERI1
 70
     0
  9
$USERI2
 70
     0
  9
$USERI3
 70
     0
  9
$USERI4
 70
     0
  9
$USERI5
 70
     0
  9
$USERR1
 40
0.0
  9
$USERR2
 40
0.0
  9
$USERR3
 40
0.0
  9
$USERR4
 40
0.0
  9
$USERR5
 40
0.0
  9
$WORLDVIEW
 70
     1
  9
$SHADEDGE
 70
     3
  9
$SHADEDIF
 70
    70
  9
$TILEMODE
 70
     0
  9
$MAXACTVP
 70
    64
  9
$PINSBASE
 10
0.0
 20
0.0
 30
0.0
  9
$PLIMCHECK
 70
     0
  9
$PEXTMIN
 10
0.0
 20
0.0
 30
0.0
  9
$PEXTMAX
 10
297.0
 20
210.0
 30
0.0
  9
$PLIMMIN
 10
0.037002778146416
 20
0.0133361937478469
  9
$PLIMMAX
 10
296.9629976511933
 20
209.9866638304666
  9
$UNITMODE
 70
     0
  9
$VISRETAIN
 70
     1
  9
$PLINEGEN
 70
     0
  9
$PSLTSCALE
 70
     1
  9
$TREEDEPTH
 70
  3020
  9
$CMLSTYLE
  2
Standard
  9
$CMLJUST
 70
     0
  9
$CMLSCALE
 40
20.0
  9
$PROXYGRAPHICS
 70
     1
  9
$MEASUREMENT
 70
     1
  9
$CELWEIGHT
370
    -1
  9
$ENDCAPS
280
     0
  9
$JOINSTYLE
280
     0
  9
$LWDISPLAY
290
     0
  9
$INSUNITS
 70
     4
  9
$HYPERLINKBASE
  1

  9
$STYLESHEET
  1

  9
$XEDIT
290
     1
  9
$CEPSNTYPE
380
     0
  9
$PSTYLEMODE
290
     1
  9
$FINGERPRINTGUID
  2
{733C549A-BCB8-4AFB-9693-44D802A4876F}
  9
$VERSIONGUID
  2
{12102D74-8AFB-41F8-AD9E-D086834C0604}
  9
$EXTNAMES
290
     1
  9
$PSVPSCALE
 40
0.0
  9
$OLESTARTUP
290
     0
  0
ENDSEC
  0
SECTION
  2
CLASSES
  0
CLASS
  1
ACDBDICTIONARYWDFLT
  2
AcDbDictionaryWithDefault
  3
ObjectDBX Classes
 90
        0
280
     0
281
     0
  0
CLASS
  1
PLOTSETTINGS
  2
AcDbPlotSettings
  3
ObjectDBX Classes
 90
        0
280
     0
281
     0
  0
CLASS
  1
DICTIONARYVAR
  2
AcDbDictionaryVar
  3
ObjectDBX Classes
 90
        0
280
     0
281
     0
  0
CLASS
  1
TABLESTYLE
  2
AcDbTableStyle
  3
ObjectDBX Classes
 90
     4095
280
     0
281
     0
  0
CLASS
  1
MATERIAL
  2
AcDbMaterial
  3
ObjectDBX Classes
 90
     1024
280
     0
281
     0
  0
CLASS
  1
VISUALSTYLE
  2
AcDbVisualStyle
  3
ObjectDBX Classes
 90
     4095
280
     0
281
     0
  0
CLASS
  1
ACAD_EVALUATION_GRAPH
  2
AcDbEvalGraph
  3
ObjectDBX Classes
 90
    33921
280
     0
281
     0
  0
CLASS
  1
ACAECUSTOBJ
  2
AcAeEditorObj
  3
AcAeEditorObj
 90
    33792
280
     0
281
     0
  0
CLASS
  1
ACDB_DYNAMICBLOCKPURGEPREVENTER_VERSION
  2
AcDbDynamicBlockPurgePreventer
  3
ObjectDBX Classes
 90
    33921
280
     0
281
     0
  0
CLASS
  1
SORTENTSTABLE
  2
AcDbSortentsTable
  3
ObjectDBX Classes
 90
        0
280
     0
281
     0
  0
CLASS
  1
DIMASSOC
  2
AcDbDimAssoc
  3
"AcDbDimAssoc|Product Desc:     AcDim ARX App For Dimension|Company:          Autodesk, Inc.|WEB Address:      www.autodesk.com"
 90
        0
280
     0
281
     0
  0
CLASS
  1
ACDBPLACEHOLDER
  2
AcDbPlaceHolder
  3
ObjectDBX Classes
 90
        0
280
     0
281
     0
  0
CLASS
  1
LAYOUT
  2
AcDbLayout
  3
ObjectDBX Classes
 90
        0
280
     0
281
     0
  0
ENDSEC
  0
SECTION
  2
TABLES
  0
TABLE
  2
VPORT
  5
8
330
0
100
AcDbSymbolTable
 70
     2
  0
VPORT
  5
1B5
330
8
100
AcDbSymbolTableRecord
100
AcDbViewportTableRecord
  2
*Active
 70
     0
 10
0.0
 20
0.0
 11
1.0
 21
1.0
 12
-116.8304636059702
 22
1578.538447914394
 13
0.0
 23
0.0
 14
10.0
 24
10.0
 15
10.0
 25
10.0
 16
0.0
 26
0.0
 36
1.0
 17
0.0
 27
0.0
 37
0.0
 40
327.0175044279756
 41
1.554054054054053
 42
50.0
 43
0.0
 44
0.0
 50
0.0
 51
0.0
 71
     0
 72
  1000
 73
     1
 74
     3
 75
     0
 76
     0
 77
     0
 78
     0
281
     0
 65
     1
110
0.0
120
0.0
130
0.0
111
1.0
121
0.0
131
0.0
112
0.0
122
1.0
132
0.0
 79
     0
146
0.0
  0
VPORT
  5
45A
330
8
100
AcDbSymbolTableRecord
100
AcDbViewportTableRecord
  2
本図
 70
     0
 10
0.0
 20
0.0
 11
1.0
 21
1.0
 12
322.2643325138894
 22
893.4870383816823
 13
0.0
 23
0.0
 14
10.0
 24
10.0
 15
10.0
 25
10.0
 16
0.0
 26
0.0
 36
1.0
 17
0.0
 27
0.0
 37
0.0
 40
349.6006736910367
 41
1.105194805194805
 42
50.0
 43
0.0
 44
0.0
 50
0.0
 51
0.0
 71
     0
 72
  1000
 73
     1
 74
     3
 75
     0
 76
     1
 77
     0
 78
     0
281
     0
 65
     1
110
0.0
120
0.0
130
0.0
111
1.0
121
0.0
131
0.0
112
0.0
122
1.0
132
0.0
 79
     0
146
0.0
  0
ENDTAB
  0
TABLE
  2
LTYPE
  5
5
330
0
100
AcDbSymbolTable
 70
     7
  0
LTYPE
  5
14
330
5
100
AcDbSymbolTableRecord
100
AcDbLinetypeTableRecord
  2
ByBlock
 70
     0
  3

 72
    65
 73
     0
 40
0.0
  0
LTYPE
  5
15
330
5
100
AcDbSymbolTableRecord
100
AcDbLinetypeTableRecord
  2
ByLayer
 70
     0
  3

 72
    65
 73
     0
 40
0.0
  0
LTYPE
  5
16
330
5
100
AcDbSymbolTableRecord
100
AcDbLinetypeTableRecord
  2
Continuous
 70
     0
  3
Solid line
 72
    65
 73
     0
 40
0.0
  0
LTYPE
  5
291
330
5
100
AcDbSymbolTableRecord
100
AcDbLinetypeTableRecord
  2
HIDDEN2
 70
     0
  3
Hidden (.5x) _ _ _ _ _ _ _ _ _ _ _ _ _ _ _ _ _
 72
    65
 73
     2
 40
4.762499999999998
 49
3.174999999999998
 74
     0
 49
-1.587499999999999
 74
     0
  0
LTYPE
  5
4C3
330
5
100
AcDbSymbolTableRecord
100
AcDbLinetypeTableRecord
  2
CENTER2
 70
     0
  3
Center (.5x) ___ _ ___ _ ___ _ ___ _ ___ _ ___
 72
    65
 73
     4
 40
28.575
 49
19.05
 74
     0
 49
-3.174999999999998
 74
     0
 49
3.174999999999998
 74
     0
 49
-3.174999999999998
 74
     0
  0
LTYPE
  5
4C4
330
5
100
AcDbSymbolTableRecord
100
AcDbLinetypeTableRecord
  2
PHANTOM2
 70
     0
  3
Phantom (.5x) ___ _ _ ___ _ _ ___ _ _ ___ _ _
 72
    65
 73
     6
 40
31.75
 49
15.875
 74
     0
 49
-3.174999999999998
 74
     0
 49
3.174999999999998
 74
     0
 49
-3.174999999999998
 74
     0
 49
3.174999999999998
 74
     0
 49
-3.174999999999998
 74
     0
  0
LTYPE
  5
C92
330
5
100
AcDbSymbolTableRecord
100
AcDbLinetypeTableRecord
  2
CENTER
 70
     0
  3
Center ____ _ ____ _ ____ _ ____ _ ____ _ ____
 72
    65
 73
     4
 40
50.8
 49
31.75
 74
     0
 49
-6.349999999999997
 74
     0
 49
6.349999999999997
 74
     0
 49
-6.349999999999997
 74
     0
  0
LTYPE
  5
1F1A
330
5
100
AcDbSymbolTableRecord
100
AcDbLinetypeTableRecord
  2
HIDDEN
 70
     0
  3
Hidden __ __ __ __ __ __ __ __ __ __ __ __ __ _
 72
    65
 73
     2
 40
9.524999999999996
 49
6.349999999999997
 74
     0
 49
-3.174999999999998
 74
     0
  0
ENDTAB
  0
TABLE
  2
LAYER
  5
2
102
{ACAD_XDICTIONARY
360
18A
102
}
330
0
100
AcDbSymbolTable
 70
    22
  0
LAYER
  5
10
330
2
100
AcDbSymbolTableRecord
100
AcDbLayerTableRecord
  2
0
 70
     0
 62
     7
  6
Continuous
370
    -3
390
F
  0
LAYER
  5
E4
330
2
100
AcDbSymbolTableRecord
100
AcDbLayerTableRecord
  2
Object
 70
     0
 62
     7
  6
Continuous
370
    -3
390
F
  0
LAYER
  5
12C
330
2
100
AcDbSymbolTableRecord
100
AcDbLayerTableRecord
  2
Title Block
 70
     0
 62
     7
  6
Continuous
370
    -3
390
F
  0
LAYER
  5
12D
330
2
100
AcDbSymbolTableRecord
100
AcDbLayerTableRecord
  2
Viewport
 70
     0
 62
     7
  6
Continuous
370
    -3
390
F
  0
LAYER
  5
345
330
2
100
AcDbSymbolTableRecord
100
AcDbLayerTableRecord
  2
作図線
 70
     0
 62
     6
  6
Continuous
290
     0
370
    18
390
F
  0
LAYER
  5
3DA
330
2
100
AcDbSymbolTableRecord
100
AcDbLayerTableRecord
  2
Dims
 70
     0
 62
     6
  6
Continuous
370
    -3
390
F
  0
LAYER
  5
3DB
330
2
100
AcDbSymbolTableRecord
100
AcDbLayerTableRecord
  2
Defpoints
 70
     0
 62
     7
  6
Continuous
290
     0
370
    -3
390
F
  0
LAYER
  5
3DC
330
2
100
AcDbSymbolTableRecord
100
AcDbLayerTableRecord
  2
テキスト
 70
     0
 62
     4
  6
Continuous
370
    -3
390
F
1001
AcAecLayerStandard
1000

1000

  0
LAYER
  5
4C5
330
2
100
AcDbSymbolTableRecord
100
AcDbLayerTableRecord
  2
寸法線
 70
     0
 62
     3
  6
Continuous
370
    18
390
F
  0
LAYER
  5
4C6
330
2
100
AcDbSymbolTableRecord
100
AcDbLayerTableRecord
  2
隠れ線
 70
     0
 62
     5
  6
HIDDEN2
370
    18
390
F
  0
LAYER
  5
4C7
330
2
100
AcDbSymbolTableRecord
100
AcDbLayerTableRecord
  2
中心線
 70
     0
 62
     1
  6
CENTER2
370
    18
390
F
  0
LAYER
  5
4C8
330
2
100
AcDbSymbolTableRecord
100
AcDbLayerTableRecord
  2
太線0.5
 70
     0
 62
     8
  6
Continuous
370
    50
390
F
  0
LAYER
  5
4C9
330
2
100
AcDbSymbolTableRecord
100
AcDbLayerTableRecord
  2
想像線
 70
     0
 62
     5
  6
PHANTOM2
370
    18
390
F
  0
LAYER
  5
4CA
330
2
100
AcDbSymbolTableRecord
100
AcDbLayerTableRecord
  2
一時線
 70
     0
 62
     2
  6
Continuous
290
     0
370
    18
390
F
1001
AcAecLayerStandard
1000

1000

  0
LAYER
  5
4CB
330
2
100
AcDbSymbolTableRecord
100
AcDbLayerTableRecord
  2
切断線
 70
     0
 62
     8
  6
Continuous
370
    25
390
F
1001
AcAecLayerStandard
1000

1000

  0
LAYER
  5
4CC
330
2
100
AcDbSymbolTableRecord
100
AcDbLayerTableRecord
  2
塗潰し
 70
     0
 62
     8
  6
Continuous
370
    18
390
F
1001
AcAecLayerStandard
1000

1000

  0
LAYER
  5
A4A
330
2
100
AcDbSymbolTableRecord
100
AcDbLayerTableRecord
  2
寸法
 70
     0
 62
     3
  6
Continuous
370
    18
390
F
  0
LAYER
  5
C93
330
2
100
AcDbSymbolTableRecord
100
AcDbLayerTableRecord
  2
Bracket
 70
     0
 62
     5
  6
Continuous
370
    40
390
F
  0
LAYER
  5
C94
330
2
100
AcDbSymbolTableRecord
100
AcDbLayerTableRecord
  2
Center
 70
     0
 62
     1
  6
CENTER
370
    -3
390
F
  0
LAYER
  5
1F1B
330
2
100
AcDbSymbolTableRecord
100
AcDbLayerTableRecord
  2
外形線
 70
     0
 62
     7
  6
Continuous
370
    40
390
F
  0
LAYER
  5
2987
330
2
100
AcDbSymbolTableRecord
100
AcDbLayerTableRecord
  2
Hidden
 70
     0
 62
     3
  6
Continuous
370
    -3
390
F
  0
LAYER
  5
5B63
330
2
100
AcDbSymbolTableRecord
100
AcDbLayerTableRecord
  2
Text
 70
     0
 62
     4
  6
Continuous
370
    -3
390
F
  0
ENDTAB
  0
TABLE
  2
STYLE
  5
3
330
0
100
AcDbSymbolTable
 70
     4
  0
STYLE
  5
11
330
3
100
AcDbSymbolTableRecord
100
AcDbTextStyleTableRecord
  2
Standard
 70
     0
 40
0.0
 41
1.0
 50
0.0
 71
     0
 42
2.5
  3
MS Gothic.ttf
  4

1001
ACAD
1000
MS Gothic
1071
    32817
  0
STYLE
  5
B0
330
3
100
AcDbSymbolTableRecord
100
AcDbTextStyleTableRecord
  2
Roman
 70
     0
 40
0.0
 41
1.0
 50
0.0
 71
     0
 42
5.0
  3
romans.shx
  4
extfont2.shx
  0
STYLE
  5
346
330
3
100
AcDbSymbolTableRecord
100
AcDbTextStyleTableRecord
  2
尺度１／２
 70
     0
 40
0.0
 41
1.0
 50
0.0
 71
     0
 42
8.0
  3
MS Gothic.ttf
  4

1001
ACAD
1000
MS Gothic
1071
    32817
  0
STYLE
  5
68E
330
3
100
AcDbSymbolTableRecord
100
AcDbTextStyleTableRecord
  2
BWH-jdt02
 70
     0
 40
0.0
 41
0.7
 50
0.0
 71
     0
 42
4.752464886293636
  3
SIMSUN.TTF
  4

1001
ACAD
1000
SimSun
1071
    34306
  0
ENDTAB
  0
TABLE
  2
VIEW
  5
6
330
0
100
AcDbSymbolTable
 70
     1
  0
ENDTAB
  0
TABLE
  2
UCS
  5
7
330
0
100
AcDbSymbolTable
 70
     0
  0
ENDTAB
  0
TABLE
  2
APPID
  5
9
330
0
100
AcDbSymbolTable
 70
     9
  0
APPID
  5
12
330
9
100
AcDbSymbolTableRecord
100
AcDbRegAppTableRecord
  2
ACAD
 70
     0
  0
APPID
  5
1B4
330
9
100
AcDbSymbolTableRecord
100
AcDbRegAppTableRecord
  2
ACAD_PSEXT
 70
     0
  0
APPID
  5
27C
330
9
100
AcDbSymbolTableRecord
100
AcDbRegAppTableRecord
  2
ACAUTHENVIRON
 70
     0
  0
APPID
  5
280
330
9
100
AcDbSymbolTableRecord
100
AcDbRegAppTableRecord
  2
AcDbDynamicBlockTrueName
 70
     0
  0
APPID
  5
281
330
9
100
AcDbSymbolTableRecord
100
AcDbRegAppTableRecord
  2
AcDbDynamicBlockGUID
 70
     0
  0
APPID
  5
283
330
9
100
AcDbSymbolTableRecord
100
AcDbRegAppTableRecord
  2
AcDbBlockRepETag
 70
     0
  0
APPID
  5
331
330
9
100
AcDbSymbolTableRecord
100
AcDbRegAppTableRecord
  2
ACAD_EXEMPT_FROM_CAD_STANDARDS
 70
     0
  0
APPID
  5
3DD
330
9
100
AcDbSymbolTableRecord
100
AcDbRegAppTableRecord
  2
AcAecLayerStandard
 70
     0
  0
APPID
  5
692
330
9
100
AcDbSymbolTableRecord
100
AcDbRegAppTableRecord
  2
RAK
 70
     0
  0
ENDTAB
  0
TABLE
  2
DIMSTYLE
  5
A
330
0
100
AcDbSymbolTable
 70
     8
100
AcDbDimStyleTable
 71
     3
340
121
340
348
340
347
  0
DIMSTYLE
105
121
102
{ACAD_REACTORS
330
6CEE
330
6CEF
330
6CF0
330
6CF1
330
6CF2
330
6CF3
330
6CFF
330
6D00
330
6D07
330
6D0A
102
}
330
A
100
AcDbSymbolTableRecord
100
AcDbDimStyleTableRecord
  2
JIS
 70
     0
 41
4.0
 42
1.0
 43
7.0
 44
1.0
 73
     0
 74
     0
 77
     1
 78
     8
140
5.0
141
0.0
143
0.0394
147
1.0
172
     1
340
11
341
33F
342
33F
  0
DIMSTYLE
105
292
330
A
100
AcDbSymbolTableRecord
100
AcDbDimStyleTableRecord
  2
ISO-25
 70
     0
 41
2.5
 42
0.625
 43
3.75
 44
1.25
 73
     0
 74
     0
 77
     1
 78
     8
140
2.5
141
2.5
143
0.03937007874016
147
0.625
171
     3
172
     1
271
     2
272
     2
274
     3
278
    44
283
     0
284
     8
340
11
  0
DIMSTYLE
105
347
330
A
100
AcDbSymbolTableRecord
100
AcDbDimStyleTableRecord
  2
JIS１／２
 70
     0
 41
6.0
 42
1.0
 43
7.0
 44
1.0
 73
     0
 74
     0
 77
     1
 78
     8
140
7.0
141
0.0
143
0.0394
147
2.0
172
     1
271
     2
272
     2
340
346
341
33F
342
33F
  0
DIMSTYLE
105
348
330
A
100
AcDbSymbolTableRecord
100
AcDbDimStyleTableRecord
  2
JIS２／１
 70
     0
 41
2.5
 42
1.0
 43
7.0
 44
1.0
 73
     0
 74
     0
 77
     1
 78
     8
140
3.0
141
0.0
143
0.0394
147
0.5
172
     1
271
     2
272
     2
340
11
341
33F
342
33F
  0
DIMSTYLE
105
C95
330
A
100
AcDbSymbolTableRecord
100
AcDbDimStyleTableRecord
  2
ｺﾋﾟｰ - JIS
 70
     0
 41
2.5
 42
0.5
 43
7.0
 44
1.0
 48
0.5
 71
     1
 73
     0
 74
     0
 77
     1
 78
     8
 79
     2
140
3.5
141
0.0
143
0.0394
146
0.5
147
0.0
172
     1
271
     1
272
     1
340
11
  0
DIMSTYLE
105
109E
330
A
100
AcDbSymbolTableRecord
100
AcDbDimStyleTableRecord
  2
ｺﾋﾟｰ(2) - JIS
 70
     0
 41
5.0
 42
0.5
 43
7.0
 44
1.0
 48
0.2
 71
     1
 73
     0
 74
     0
 77
     1
 78
     8
 79
     2
140
8.0
141
0.0
143
0.0394
146
0.5
147
0.0
172
     1
271
     1
272
     1
340
11
  0
DIMSTYLE
105
1F1C
330
A
100
AcDbSymbolTableRecord
100
AcDbDimStyleTableRecord
  2
JIS2
 70
     0
 41
2.5
 42
1.0
 43
7.0
 44
1.0
 73
     0
 74
     0
 77
     1
 78
     8
140
4.0
141
0.0
143
0.0394
144
0.5
147
0.5
172
     1
271
     1
272
     1
340
11
341
33F
342
33F
  0
ENDTAB
  0
TABLE
  2
BLOCK_RECORD
  5
1
330
0
100
AcDbSymbolTable
 70
    46
  0
BLOCK_RECORD
  5
1F
102
{ACAD_XDICTIONARY
360
B52
102
}
330
1
100
AcDbSymbolTableRecord
100
AcDbBlockTableRecord
  2
*Model_Space
340
22
  0
BLOCK_RECORD
  5
76D6
330
1
100
AcDbSymbolTableRecord
100
AcDbBlockTableRecord
  2
*Paper_Space
340
76D3
  0
BLOCK_RECORD
  5
AB
102
{ACAD_XDICTIONARY
360
28E
102
}
330
1
100
AcDbSymbolTableRecord
100
AcDbBlockTableRecord
  2
JIS A4 title block (portrait)
340
0
310
2800000020000000200000000100080000000000000400000000000000000000000000000000000000000000000080000080000000808000800000008000800080800000C0C0C000C0DCC000F0CAA6000020400000206000002080000020A0000020C0000020E00000400000004020000040400000406000004080000040A0
310
000040C0000040E00000600000006020000060400000606000006080000060A0000060C0000060E00000800000008020000080400000806000008080000080A0000080C0000080E00000A0000000A0200000A0400000A0600000A0800000A0A00000A0C00000A0E00000C0000000C0200000C0400000C0600000C0800000C0
310
A00000C0C00000C0E00000E0000000E0200000E0400000E0600000E0800000E0A00000E0C00000E0E00040000000400020004000400040006000400080004000A0004000C0004000E00040200000402020004020400040206000402080004020A0004020C0004020E000404000004040200040404000404060004040800040
310
40A0004040C0004040E00040600000406020004060400040606000406080004060A0004060C0004060E00040800000408020004080400040806000408080004080A0004080C0004080E00040A0000040A0200040A0400040A0600040A0800040A0A00040A0C00040A0E00040C0000040C0200040C0400040C0600040C08000
310
40C0A00040C0C00040C0E00040E0000040E0200040E0400040E0600040E0800040E0A00040E0C00040E0E00080000000800020008000400080006000800080008000A0008000C0008000E00080200000802020008020400080206000802080008020A0008020C0008020E00080400000804020008040400080406000804080
310
008040A0008040C0008040E00080600000806020008060400080606000806080008060A0008060C0008060E00080800000808020008080400080806000808080008080A0008080C0008080E00080A0000080A0200080A0400080A0600080A0800080A0A00080A0C00080A0E00080C0000080C0200080C0400080C0600080C0
310
800080C0A00080C0C00080C0E00080E0000080E0200080E0400080E0600080E0800080E0A00080E0C00080E0E000C0000000C0002000C0004000C0006000C0008000C000A000C000C000C000E000C0200000C0202000C0204000C0206000C0208000C020A000C020C000C020E000C0400000C0402000C0404000C0406000C0
310
408000C040A000C040C000C040E000C0600000C0602000C0604000C0606000C0608000C060A000C060C000C060E000C0800000C0802000C0804000C0806000C0808000C080A000C080C000C080E000C0A00000C0A02000C0A04000C0A06000C0A08000C0A0A000C0A0C000C0A0E000C0C00000C0C02000C0C04000C0C06000
310
C0C08000C0C0A000F0FBFF00A4A0A000808080000000FF0000FF000000FFFF00FF000000FF00FF00FFFF0000FFFFFF00FFFFFFFFFFFFFFFFFFFFFFFFFFFFFFFFFFFFFFFFFFFFFFFFFFFFFFFFFFFFFFFFFFFFFFFFFFFF000000FFFFFFFFFFFFFF00FFFFFFFFFFFFFFFF00FFFFFFFFFFFFFFFFFFFFFFFF000000000000000000
310
0000000000000000000000FFFFFFFFFFFFFFFFFFFFFFFFFFFF00FFFFFF0000000000000000000000000000FFFFFFFFFFFFFFFFFFFFFFFFFFFF00FFFFFF0000000000000000FFFFFFFFFF00FFFFFFFFFFFFFFFFFFFFFFFFFFFF00FFFFFF0000000000000000000000000000FFFFFFFFFFFFFFFFFFFFFFFFFFFF00FFFFFF0000
310
000000000000000000000000FFFFFFFFFFFFFFFFFFFFFFFFFF0000FFFFFFFFFFFFFFFFFFFFFFFFFFFFFFFF00FFFFFFFFFFFFFFFFFFFFFFFFFFFF00FFFFFFFFFFFFFFFFFFFFFFFFFFFFFFFF00FFFFFFFFFFFFFFFFFFFFFFFFFFFF00FFFFFFFFFFFFFFFFFFFFFFFFFFFFFFFF00FFFFFFFFFFFFFFFFFFFFFFFFFFFF00FFFFFFFF
310
FFFFFFFFFFFFFFFFFFFFFFFF00FFFFFFFFFFFFFFFFFFFFFFFFFF0000FFFFFFFFFFFFFFFFFFFFFFFFFFFFFFFF00FFFFFFFFFFFFFFFFFFFFFFFFFFFF00FFFFFFFFFFFFFFFFFFFFFFFFFFFFFFFF00FFFFFFFFFFFFFFFFFFFFFFFFFFFF00FFFFFFFFFFFFFFFFFFFFFFFFFFFFFFFF00FFFFFFFFFFFFFFFFFFFFFFFFFFFF00FFFFFF
310
FFFFFFFFFFFFFFFFFFFFFFFFFF00FFFFFFFFFFFFFFFFFFFFFFFF000000FFFFFFFFFFFFFFFFFFFFFFFFFFFFFFFF00FFFFFFFFFFFFFFFFFFFFFFFFFFFF00FFFFFFFFFFFFFFFFFFFFFFFFFFFFFFFF00FFFFFFFFFFFFFFFFFFFFFFFFFFFF00FFFFFFFFFFFFFFFFFFFFFFFFFFFFFFFF00FFFFFFFFFFFFFFFFFFFFFFFFFFFF00FFFF
310
FFFFFFFFFFFFFFFFFFFFFFFFFFFF00FFFFFFFFFFFFFFFFFFFFFFFFFFFF00FFFFFFFFFFFFFFFFFFFFFFFFFFFFFFFF00FFFFFFFFFFFFFFFFFFFFFFFFFF0000FFFFFFFFFFFFFFFFFFFFFFFFFFFFFFFF00FFFFFFFFFFFFFFFFFFFFFFFFFFFF00FFFFFFFFFFFFFFFFFFFFFFFFFFFFFFFF00FFFFFFFFFFFFFFFFFFFFFFFFFFFF00FF
310
FFFFFFFFFFFFFFFFFFFFFFFFFFFFFF00FFFFFFFFFFFFFFFFFFFFFFFFFFFF00FFFFFFFFFFFFFFFFFFFFFFFFFFFFFFFF00FFFFFFFFFFFFFFFFFFFFFFFFFF0000FFFFFFFFFFFFFFFFFFFFFFFFFFFFFFFF00FFFFFFFFFFFFFFFFFFFFFFFFFFFF00FFFFFFFFFFFFFFFFFFFFFFFFFFFFFFFF00FFFFFFFFFFFFFFFFFFFFFFFFFFFF00
310
00000000000000000000FFFFFFFFFFFF00FFFFFFFFFFFFFFFFFFFFFFFFFFFF0000000000000000000000FFFFFFFFFFFF00FFFFFFFFFFFFFFFFFFFFFFFFFFFF0000000000000000000000FFFFFFFFFFFF00FFFFFFFFFFFFFFFFFFFFFFFF00FF000000000000000000000000000000000000FFFFFFFFFFFFFFFFFFFFFFFF0000
310
00FFFFFFFFFFFFFF00FFFFFFFFFFFFFFFF00FFFFFFFFFFFFFFFFFFFFFFFFFFFFFFFFFFFFFFFFFFFFFFFFFFFFFFFFFFFFFFFFFFFFFFFFFFFF
1001
AcDbDynamicBlockGUID
1000
{6DB1C6FB-04ED-4989-8D70-427348F3A6A6}
1001
AcDbBlockRepETag
1070
     1
1071
       23
1001
ACAD
1000
DesignCenter Data
1002
{
1070
     1
1070
     4
1002
}
  0
BLOCK_RECORD
  5
33F
330
1
100
AcDbSymbolTableRecord
100
AcDbBlockTableRecord
  2
_Open30
340
0
102
{BLKREFS
331
6845
331
6846
331
684E
331
684F
331
6872
331
6873
331
696F
331
6970
331
699E
331
699F
331
6A16
331
6A17
331
6A28
331
6A29
331
6A3A
331
6A3B
331
6A6D
331
6A6E
331
6A8D
331
6A8E
331
6BE4
331
6BE5
331
6BEF
331
6BF0
331
6BF8
331
6BF9
331
6C01
331
6C02
331
6C0B
331
6C0C
331
6C14
331
6C15
331
6C1D
331
6C1E
331
6C26
331
6C27
331
6C2E
331
6C2F
331
6C38
331
6C39
331
6C45
331
6C46
331
734B
331
734C
331
7354
331
7355
331
73A2
331
73A3
331
73AB
331
73AC
331
7458
331
7459
331
74AB
331
74AC
331
74C5
331
74C6
331
74F7
331
74F8
331
750A
331
750B
331
7544
331
7545
331
7557
331
7558
331
756A
331
756B
331
7573
331
7574
331
75D1
331
75D2
331
75DC
331
75DD
331
7608
331
7609
331
7649
331
764A
331
7667
331
7668
331
7670
331
7671
331
7689
331
768A
102
}
  0
BLOCK_RECORD
  5
4E7
102
{ACAD_XDICTIONARY
360
4E8
102
}
330
1
100
AcDbSymbolTableRecord
100
AcDbBlockTableRecord
  2
JIS A3 title block
340
0
310
2800000020000000200000000100080000000000000400000000000000000000000000000000000000000000000080000080000000808000800000008000800080800000C0C0C000C0DCC000F0CAA6000020400000206000002080000020A0000020C0000020E00000400000004020000040400000406000004080000040A0
310
000040C0000040E00000600000006020000060400000606000006080000060A0000060C0000060E00000800000008020000080400000806000008080000080A0000080C0000080E00000A0000000A0200000A0400000A0600000A0800000A0A00000A0C00000A0E00000C0000000C0200000C0400000C0600000C0800000C0
310
A00000C0C00000C0E00000E0000000E0200000E0400000E0600000E0800000E0A00000E0C00000E0E00040000000400020004000400040006000400080004000A0004000C0004000E00040200000402020004020400040206000402080004020A0004020C0004020E000404000004040200040404000404060004040800040
310
40A0004040C0004040E00040600000406020004060400040606000406080004060A0004060C0004060E00040800000408020004080400040806000408080004080A0004080C0004080E00040A0000040A0200040A0400040A0600040A0800040A0A00040A0C00040A0E00040C0000040C0200040C0400040C0600040C08000
310
40C0A00040C0C00040C0E00040E0000040E0200040E0400040E0600040E0800040E0A00040E0C00040E0E00080000000800020008000400080006000800080008000A0008000C0008000E00080200000802020008020400080206000802080008020A0008020C0008020E00080400000804020008040400080406000804080
310
008040A0008040C0008040E00080600000806020008060400080606000806080008060A0008060C0008060E00080800000808020008080400080806000808080008080A0008080C0008080E00080A0000080A0200080A0400080A0600080A0800080A0A00080A0C00080A0E00080C0000080C0200080C0400080C0600080C0
310
800080C0A00080C0C00080C0E00080E0000080E0200080E0400080E0600080E0800080E0A00080E0C00080E0E000C0000000C0002000C0004000C0006000C0008000C000A000C000C000C000E000C0200000C0202000C0204000C0206000C0208000C020A000C020C000C020E000C0400000C0402000C0404000C0406000C0
310
408000C040A000C040C000C040E000C0600000C0602000C0604000C0606000C0608000C060A000C060C000C060E000C0800000C0802000C0804000C0806000C0808000C080A000C080C000C080E000C0A00000C0A02000C0A04000C0A06000C0A08000C0A0A000C0A0C000C0A0E000C0C00000C0C02000C0C04000C0C06000
310
C0C08000C0C0A000F0FBFF00A4A0A000808080000000FF0000FF000000FFFF00FF000000FF00FF00FFFF0000FFFFFF00FFFFFFFFFFFFFFFFFFFFFFFFFFFFFFFFFFFFFFFFFFFFFFFFFFFFFFFFFFFFFFFFFFFFFFFFFFFFFFFFFFFFFFFFFFFFFFFFFFFFFFFFFFFFFFFFFFFFFFFFFFFFFFFFFFFFFFFFFFFFFFFFFFFFFFFFFFFFFF
310
FFFFFFFFFFFFFFFFFFFFFFFFFFFFFFFFFFFFFFFFFFFFFFFFFFFFFFFFFFFFFFFFFFFFFFFFFFFFFFFFFFFFFFFFFFFFFFFFFFFFFFFFFFFFFFFFFFFFFFFFFFFFFFFFFFFFFFFFFFFFFFFFFFFFFFFFFFFFFFFFFFFFFFFFFFFFFFFFFFFFFFFFFFFFFFFFFFFFFFFFFFFFFFFFFFFFFFFFFFFFFFFFFFFF00FFFF00000000000000000000
310
000000000000FFFFFFFFFFFF0000FFFF00FFFFFFFF0000000000000000FFFFFFFFFFFFFFFFFFFFFFFFFFFFFFFFFFFFFFFFFFFFFFFF0000000000000000FFFFFFFFFFFFFFFFFFFFFFFFFFFFFFFFFFFF00FFFFFFFFFF00FFFFFFFFFFFFFFFFFFFFFFFFFFFFFFFFFFFFFFFFFFFFFFFFFF00FFFFFFFFFFFFFFFFFFFFFFFFFFFFFF
310
FFFFFFFFFFFFFFFFFFFFFFFFFFFFFFFF00FFFFFFFFFF00FFFFFFFFFFFFFFFFFFFFFFFFFFFFFFFFFFFFFFFFFFFFFFFFFF00FFFFFFFFFF00FFFFFFFFFFFFFFFFFFFFFFFFFFFFFFFFFFFFFFFFFFFFFFFFFF00FFFFFFFFFFFFFFFFFFFFFFFFFFFFFFFFFFFFFFFFFFFFFFFFFFFFFFFFFFFFFF00FFFFFFFFFF00FFFFFFFFFFFFFFFF
310
FFFFFFFFFFFFFFFFFFFFFFFFFFFFFFFFFF00FFFFFFFFFF00FFFFFFFFFFFFFFFFFFFFFFFFFFFFFFFFFFFFFFFFFFFFFFFFFF00FFFFFF000000FFFFFFFFFFFFFFFFFFFFFFFFFFFFFFFFFFFFFFFFFFFFFFFFFF0000FFFFFFFF00FFFFFFFFFFFFFFFFFFFFFFFFFFFFFFFFFFFFFFFFFFFFFFFFFF00FFFFFFFFFF00FFFFFFFFFFFFFF
310
FFFFFFFFFFFFFFFFFFFFFFFFFFFFFFFFFFFF00FFFFFFFFFF00FFFFFFFFFFFFFFFFFFFFFFFFFFFFFFFFFFFFFFFFFFFFFFFFFF00FFFFFFFFFF00FFFFFFFFFFFFFFFFFFFFFFFFFFFFFFFFFFFFFFFFFFFFFFFFFF00FFFFFFFFFF00FFFFFFFFFFFFFFFFFFFFFFFFFFFFFFFFFFFFFFFFFFFFFFFFFF00FFFFFFFFFF00FFFFFFFFFFFF
310
FFFFFFFFFFFFFFFFFFFFFFFFFFFFFFFFFFFFFF00FFFFFFFFFF00FFFFFFFFFFFFFFFFFFFFFFFFFFFFFFFFFFFFFFFFFFFFFFFFFF00FFFFFFFFFF00FFFFFFFFFFFFFFFFFFFFFFFFFFFFFFFFFFFFFFFFFFFFFFFFFF00FFFFFF000000000000000000000000000000000000000000000000000000000000FFFFFFFFFFFFFFFFFFFF
310
FFFFFFFFFFFFFFFFFFFFFFFFFFFFFFFFFFFFFFFFFFFFFFFFFFFFFFFFFFFFFFFFFFFFFFFFFFFFFFFFFFFFFFFFFFFFFFFFFFFFFFFFFFFFFFFFFFFFFFFFFFFFFFFFFFFFFFFFFFFFFFFFFFFFFFFFFFFFFFFFFFFFFFFFFFFFFFFFFFFFFFFFFFFFFFFFFFFFFFFFFFFFFFFFFFFFFFFFFFFFFFFFFFFFFFFFFFFFFFFFFFFFFFFFFFFFFF
310
FFFFFFFFFFFFFFFFFFFFFFFFFFFFFFFFFFFFFFFFFFFFFFFFFFFFFFFFFFFFFFFFFFFFFFFFFFFFFFFFFFFFFFFFFFFFFFFFFFFFFFFFFFFFFFFF
1001
AcDbDynamicBlockGUID
1000
{ADD7F6C8-90DF-4B5E-9041-BE536E290B26}
1001
AcDbBlockRepETag
1070
     1
1071
       75
1001
ACAD
1000
DesignCenter Data
1002
{
1070
     1
1070
     4
1002
}
  0
BLOCK_RECORD
  5
6ED
102
{ACAD_XDICTIONARY
360
930
102
}
330
1
100
AcDbSymbolTableRecord
100
AcDbBlockTableRecord
  2
JIS A4 title block (landscape)
340
0
1001
AcDbDynamicBlockGUID
1000
{CEEEE382-D703-4645-97A2-E5AB7DAA0D3B}
1001
AcDbBlockRepETag
1070
     1
1071
       77
1001
ACAD
1000
DesignCenter Data
1002
{
1070
     1
1070
     4
1002
}
  0
BLOCK_RECORD
  5
6743
330
1
100
AcDbSymbolTableRecord
100
AcDbBlockTableRecord
  2
*D4
340
0
  0
BLOCK_RECORD
  5
674F
330
1
100
AcDbSymbolTableRecord
100
AcDbBlockTableRecord
  2
*D5
340
0
  0
BLOCK_RECORD
  5
675B
330
1
100
AcDbSymbolTableRecord
100
AcDbBlockTableRecord
  2
*D6
340
0
  0
BLOCK_RECORD
  5
6767
330
1
100
AcDbSymbolTableRecord
100
AcDbBlockTableRecord
  2
*D7
340
0
  0
BLOCK_RECORD
  5
6773
330
1
100
AcDbSymbolTableRecord
100
AcDbBlockTableRecord
  2
*D8
340
0
  0
BLOCK_RECORD
  5
677F
330
1
100
AcDbSymbolTableRecord
100
AcDbBlockTableRecord
  2
*D9
340
0
  0
BLOCK_RECORD
  5
678B
330
1
100
AcDbSymbolTableRecord
100
AcDbBlockTableRecord
  2
*D10
340
0
  0
BLOCK_RECORD
  5
6796
330
1
100
AcDbSymbolTableRecord
100
AcDbBlockTableRecord
  2
*D11
340
0
  0
BLOCK_RECORD
  5
6975
330
1
100
AcDbSymbolTableRecord
100
AcDbBlockTableRecord
  2
*D12
340
0
  0
BLOCK_RECORD
  5
6A40
330
1
100
AcDbSymbolTableRecord
100
AcDbBlockTableRecord
  2
*D13
340
0
  0
BLOCK_RECORD
  5
6B7F
330
1
100
AcDbSymbolTableRecord
100
AcDbBlockTableRecord
  2
*D14
340
0
  0
BLOCK_RECORD
  5
6B8B
330
1
100
AcDbSymbolTableRecord
100
AcDbBlockTableRecord
  2
*D15
340
0
  0
BLOCK_RECORD
  5
6B97
330
1
100
AcDbSymbolTableRecord
100
AcDbBlockTableRecord
  2
*D16
340
0
  0
BLOCK_RECORD
  5
6BA3
330
1
100
AcDbSymbolTableRecord
100
AcDbBlockTableRecord
  2
*D17
340
0
  0
BLOCK_RECORD
  5
6BAF
330
1
100
AcDbSymbolTableRecord
100
AcDbBlockTableRecord
  2
*D18
340
0
  0
BLOCK_RECORD
  5
6BBB
330
1
100
AcDbSymbolTableRecord
100
AcDbBlockTableRecord
  2
*D19
340
0
  0
BLOCK_RECORD
  5
6BC7
330
1
100
AcDbSymbolTableRecord
100
AcDbBlockTableRecord
  2
*D20
340
0
  0
BLOCK_RECORD
  5
6BD2
330
1
100
AcDbSymbolTableRecord
100
AcDbBlockTableRecord
  2
*D21
340
0
  0
BLOCK_RECORD
  5
6BDE
330
1
100
AcDbSymbolTableRecord
100
AcDbBlockTableRecord
  2
*D22
340
0
  0
BLOCK_RECORD
  5
6C33
330
1
100
AcDbSymbolTableRecord
100
AcDbBlockTableRecord
  2
*D23
340
0
  0
BLOCK_RECORD
  5
6C3E
330
1
100
AcDbSymbolTableRecord
100
AcDbBlockTableRecord
  2
*D24
340
0
  0
BLOCK_RECORD
  5
6DCC
330
1
100
AcDbSymbolTableRecord
100
AcDbBlockTableRecord
  2
*D25
340
0
  0
BLOCK_RECORD
  5
6DD8
330
1
100
AcDbSymbolTableRecord
100
AcDbBlockTableRecord
  2
*D26
340
0
  0
BLOCK_RECORD
  5
6DE4
330
1
100
AcDbSymbolTableRecord
100
AcDbBlockTableRecord
  2
*D27
340
0
  0
BLOCK_RECORD
  5
6DF0
330
1
100
AcDbSymbolTableRecord
100
AcDbBlockTableRecord
  2
*D28
340
0
  0
BLOCK_RECORD
  5
6DFC
330
1
100
AcDbSymbolTableRecord
100
AcDbBlockTableRecord
  2
*D29
340
0
  0
BLOCK_RECORD
  5
6E08
330
1
100
AcDbSymbolTableRecord
100
AcDbBlockTableRecord
  2
*D30
340
0
  0
BLOCK_RECORD
  5
6E14
330
1
100
AcDbSymbolTableRecord
100
AcDbBlockTableRecord
  2
*D31
340
0
  0
BLOCK_RECORD
  5
6E1F
330
1
100
AcDbSymbolTableRecord
100
AcDbBlockTableRecord
  2
*D32
340
0
  0
BLOCK_RECORD
  5
6E2B
330
1
100
AcDbSymbolTableRecord
100
AcDbBlockTableRecord
  2
*D33
340
0
  0
BLOCK_RECORD
  5
6E37
330
1
100
AcDbSymbolTableRecord
100
AcDbBlockTableRecord
  2
*D34
340
0
  0
BLOCK_RECORD
  5
6E43
330
1
100
AcDbSymbolTableRecord
100
AcDbBlockTableRecord
  2
*D35
340
0
  0
BLOCK_RECORD
  5
6E4F
330
1
100
AcDbSymbolTableRecord
100
AcDbBlockTableRecord
  2
*D36
340
0
  0
BLOCK_RECORD
  5
6E5B
330
1
100
AcDbSymbolTableRecord
100
AcDbBlockTableRecord
  2
*D37
340
0
  0
BLOCK_RECORD
  5
6E67
330
1
100
AcDbSymbolTableRecord
100
AcDbBlockTableRecord
  2
*D38
340
0
  0
BLOCK_RECORD
  5
6E73
330
1
100
AcDbSymbolTableRecord
100
AcDbBlockTableRecord
  2
*D39
340
0
  0
BLOCK_RECORD
  5
6E7E
330
1
100
AcDbSymbolTableRecord
100
AcDbBlockTableRecord
  2
*D40
340
0
  0
BLOCK_RECORD
  5
6ED1
330
1
100
AcDbSymbolTableRecord
100
AcDbBlockTableRecord
  2
*D41
340
0
  0
BLOCK_RECORD
  5
6EDC
330
1
100
AcDbSymbolTableRecord
100
AcDbBlockTableRecord
  2
*D42
340
0
  0
BLOCK_RECORD
  5
6F3F
330
1
100
AcDbSymbolTableRecord
100
AcDbBlockTableRecord
  2
*D43
340
0
  0
BLOCK_RECORD
  5
6F4A
330
1
100
AcDbSymbolTableRecord
100
AcDbBlockTableRecord
  2
*D44
340
0
  0
ENDTAB
  0
ENDSEC
  0
SECTION
  2
BLOCKS
  0
BLOCK
  5
20
330
1F
100
AcDbEntity
  8
0
100
AcDbBlockBegin
  2
*Model_Space
 70
     0
 10
0.0
 20
0.0
 30
0.0
  3
*Model_Space
  1

  0
ENDBLK
  5
21
330
1F
100
AcDbEntity
  8
0
100
AcDbBlockEnd
  0
BLOCK
  5
76EE
330
76D6
100
AcDbEntity
 67
     1
  8
0
100
AcDbBlockBegin
  2
*Paper_Space
 70
     0
 10
0.0
 20
0.0
 30
0.0
  3
*Paper_Space
  1

  0
ENDBLK
  5
76EF
330
76D6
100
AcDbEntity
 67
     1
  8
0
100
AcDbBlockEnd
  0
BLOCK
  5
116
330
AB
100
AcDbEntity
  8
0
100
AcDbBlockBegin
  2
JIS A4 title block (portrait)
 70
     2
 10
0.0
 20
0.0
 30
0.0
  3
JIS A4 title block (portrait)
  1

  4
JIS A4 title block and attributes (portrait)
  0
LINE
  5
28C
330
AB
100
AcDbEntity
  8
0
100
AcDbLine
 10
0.0
 20
297.0
 30
0.0
 11
25.0
 21
297.0
 31
0.0
1001
AcDbBlockRepETag
1070
     1
1071
        0
1005
28C
  0
LINE
  5
28D
330
AB
100
AcDbEntity
  8
0
100
AcDbLine
 10
0.0
 20
287.0
 30
0.0
 11
0.0
 21
297.0
 31
0.0
1001
AcDbBlockRepETag
1070
     1
1071
        1
1005
28D
  0
LINE
  5
2E7
330
AB
100
AcDbEntity
  8
0
100
AcDbLine
 10
17.5
 20
10.0
 30
0.0
 11
17.5
 21
287.0
 31
0.0
1001
AcDbBlockRepETag
1070
     1
1071
        2
1005
2E7
  0
LINE
  5
2E8
330
AB
100
AcDbEntity
  8
0
100
AcDbLine
 10
192.5
 20
287.0
 30
0.0
 11
192.5
 21
10.0
 31
0.0
1001
AcDbBlockRepETag
1070
     1
1071
        3
1005
2E8
  0
LINE
  5
2E9
330
AB
100
AcDbEntity
  8
0
100
AcDbLine
 10
192.5
 20
10.0
 30
0.0
 11
17.5
 21
10.0
 31
0.0
1001
AcDbBlockRepETag
1070
     1
1071
        4
1005
2E9
  0
LINE
  5
2EA
330
AB
100
AcDbEntity
  8
0
100
AcDbLine
 10
25.0
 20
0.0
 30
0.0
 11
0.0
 21
0.0
 31
0.0
1001
AcDbBlockRepETag
1070
     1
1071
        5
1005
2EA
  0
LINE
  5
2EB
330
AB
100
AcDbEntity
  8
0
100
AcDbLine
 10
0.0
 20
0.0
 30
0.0
 11
0.0
 21
10.0
 31
0.0
1001
AcDbBlockRepETag
1070
     1
1071
        6
1005
2EB
  0
LINE
  5
2EC
330
AB
100
AcDbEntity
  8
0
100
AcDbLine
 10
61.25
 20
10.0
 30
0.0
 11
61.25
 21
5.0
 31
0.0
1001
AcDbBlockRepETag
1070
     1
1071
        7
1005
2EC
  0
LINE
  5
2ED
330
AB
100
AcDbEntity
  8
0
100
AcDbLine
 10
17.5
 20
148.5
 30
0.0
 11
0.0
 21
148.5
 31
0.0
1001
AcDbBlockRepETag
1070
     1
1071
        8
1005
2ED
  0
LINE
  5
2EE
330
AB
100
AcDbEntity
  8
0
100
AcDbLine
 10
17.5
 20
56.16666666666668
 30
0.0
 11
12.5
 21
56.16666666666668
 31
0.0
1001
AcDbBlockRepETag
1070
     1
1071
        9
1005
2EE
  0
LINE
  5
2EF
330
AB
100
AcDbEntity
  8
0
100
AcDbLine
 10
17.5
 20
102.3333333333333
 30
0.0
 11
12.5
 21
102.3333333333333
 31
0.0
1001
AcDbBlockRepETag
1070
     1
1071
       10
1005
2EF
  0
LINE
  5
2F0
330
AB
100
AcDbEntity
  8
0
100
AcDbLine
 10
17.5
 20
148.5
 30
0.0
 11
12.5
 21
148.5
 31
0.0
1001
AcDbBlockRepETag
1070
     1
1071
       11
1005
2F0
  0
LINE
  5
2F1
330
AB
100
AcDbEntity
  8
0
100
AcDbLine
 10
105.0
 20
10.0
 30
0.0
 11
105.0
 21
0.0
 31
0.0
1001
AcDbBlockRepETag
1070
     1
1071
       12
1005
2F1
  0
LINE
  5
2F2
330
AB
100
AcDbEntity
  8
0
100
AcDbLine
 10
210.0
 20
10.0
 30
0.0
 11
210.0
 21
0.0
 31
0.0
1001
AcDbBlockRepETag
1070
     1
1071
       13
1005
2F2
  0
LINE
  5
2F3
330
AB
100
AcDbEntity
  8
0
100
AcDbLine
 10
148.75
 20
10.0
 30
0.0
 11
148.75
 21
5.0
 31
0.0
1001
AcDbBlockRepETag
1070
     1
1071
       14
1005
2F3
  0
LINE
  5
2F4
330
AB
100
AcDbEntity
  8
0
100
AcDbLine
 10
210.0
 20
0.0
 30
0.0
 11
200.0
 21
0.0
 31
0.0
1001
AcDbBlockRepETag
1070
     1
1071
       15
1005
2F4
  0
LINE
  5
2F5
330
AB
100
AcDbEntity
  8
0
100
AcDbLine
 10
192.5
 20
56.16666666666668
 30
0.0
 11
197.5
 21
56.16666666666668
 31
0.0
1001
AcDbBlockRepETag
1070
     1
1071
       16
1005
2F5
  0
LINE
  5
2F6
330
AB
100
AcDbEntity
  8
0
100
AcDbLine
 10
192.5
 20
102.3333333333333
 30
0.0
 11
197.5
 21
102.3333333333333
 31
0.0
1001
AcDbBlockRepETag
1070
     1
1071
       17
1005
2F6
  0
LINE
  5
2F7
330
AB
100
AcDbEntity
  8
0
100
AcDbLine
 10
192.5
 20
148.5
 30
0.0
 11
210.0
 21
148.5
 31
0.0
1001
AcDbBlockRepETag
1070
     1
1071
       18
1005
2F7
  0
LINE
  5
2F8
330
AB
100
AcDbEntity
  8
0
100
AcDbLine
 10
192.5
 20
148.5
 30
0.0
 11
197.5
 21
148.5
 31
0.0
1001
AcDbBlockRepETag
1070
     1
1071
       19
1005
2F8
  0
LINE
  5
2F9
330
AB
100
AcDbEntity
  8
0
100
AcDbLine
 10
17.5
 20
287.0
 30
0.0
 11
192.5
 21
287.0
 31
0.0
1001
AcDbBlockRepETag
1070
     1
1071
       20
1005
2F9
  0
LINE
  5
2FA
330
AB
100
AcDbEntity
  8
0
100
AcDbLine
 10
17.5
 20
194.6666666666666
 30
0.0
 11
12.5
 21
194.6666666666666
 31
0.0
1001
AcDbBlockRepETag
1070
     1
1071
       21
1005
2FA
  0
LINE
  5
2FB
330
AB
100
AcDbEntity
  8
0
100
AcDbLine
 10
17.5
 20
240.8333333333333
 30
0.0
 11
12.5
 21
240.8333333333333
 31
0.0
1001
AcDbBlockRepETag
1070
     1
1071
       22
1005
2FB
  0
LINE
  5
2FC
330
AB
100
AcDbEntity
  8
0
100
AcDbLine
 10
61.25
 20
287.0
 30
0.0
 11
61.25
 21
292.0
 31
0.0
1001
AcDbBlockRepETag
1070
     1
1071
       24
1005
2FC
  0
ATTDEF
  5
2FD
330
AB
100
AcDbEntity
  8
0
 62
     0
380
     1
100
AcDbText
 10
17.5
 20
293.0
 30
0.0
 40
3.0
  1

  7
Roman
100
AcDbAttributeDefinition
  3
Author:
  2
USER
 70
     8
1001
AcDbBlockRepETag
1070
     1
1071
       25
1005
0
  0
LINE
  5
2FE
330
AB
100
AcDbEntity
  8
0
100
AcDbLine
 10
192.5
 20
194.6666666666667
 30
0.0
 11
197.5
 21
194.6666666666667
 31
0.0
1001
AcDbBlockRepETag
1070
     1
1071
       26
1005
2FE
  0
LINE
  5
2FF
330
AB
100
AcDbEntity
  8
0
100
AcDbLine
 10
192.5
 20
240.8333333333334
 30
0.0
 11
197.5
 21
240.8333333333334
 31
0.0
1001
AcDbBlockRepETag
1070
     1
1071
       27
1005
2FF
  0
ATTDEF
  5
300
330
AB
100
AcDbEntity
  8
0
 62
     0
380
     1
100
AcDbText
 10
125.5
 20
293.0
 30
0.0
 40
3.0
  1

  7
Roman
100
AcDbAttributeDefinition
  3
File name:
  2
FNAME
 70
     8
1001
AcDbBlockRepETag
1070
     1
1071
       28
1005
0
  0
LINE
  5
301
330
AB
100
AcDbEntity
  8
0
100
AcDbLine
 10
105.0
 20
287.0
 30
0.0
 11
105.0
 21
297.0
 31
0.0
1001
AcDbBlockRepETag
1070
     1
1071
       29
1005
301
  0
LINE
  5
302
330
AB
100
AcDbEntity
  8
0
100
AcDbLine
 10
105.0
 20
287.0
 30
0.0
 11
105.0
 21
292.0
 31
0.0
1001
AcDbBlockRepETag
1070
     1
1071
       30
1005
302
  0
ATTDEF
  5
303
330
AB
100
AcDbEntity
  8
0
 62
     0
380
     1
100
AcDbText
 10
77.5
 20
293.0
 30
0.0
 40
3.0
  1

  7
Roman
100
AcDbAttributeDefinition
  3
Revision date:
  2
REVDATE
 70
     8
1001
AcDbBlockRepETag
1070
     1
1071
       31
1005
0
  0
LINE
  5
304
330
AB
100
AcDbEntity
  8
0
100
AcDbLine
 10
210.0
 20
297.0
 30
0.0
 11
210.0
 21
287.0
 31
0.0
1001
AcDbBlockRepETag
1070
     1
1071
       32
1005
304
  0
LINE
  5
305
330
AB
100
AcDbEntity
  8
0
100
AcDbLine
 10
148.75
 20
287.0
 30
0.0
 11
148.75
 21
292.0
 31
0.0
1001
AcDbBlockRepETag
1070
     1
1071
       33
1005
305
  0
LINE
  5
306
330
AB
100
AcDbEntity
  8
0
100
AcDbLine
 10
200.0
 20
297.0
 30
0.0
 11
210.0
 21
297.0
 31
0.0
1001
AcDbBlockRepETag
1070
     1
1071
       34
1005
306
  0
TEXT
  5
307
330
AB
100
AcDbEntity
  8
0
100
AcDbText
 10
13.87568307432493
 20
120.75
 30
0.0
 40
3.0
  1
D
  7
Roman
 72
     1
 11
15.4471116457535
 21
120.75
 31
0.0
100
AcDbText
1001
AcDbBlockRepETag
1070
     1
1071
       35
1005
307
  0
TEXT
  5
308
330
AB
100
AcDbEntity
  8
0
100
AcDbText
 10
13.9471116457535
 20
168.25
 30
0.0
 40
3.0
  1
C
  7
Roman
 72
     1
 11
15.4471116457535
 21
168.25
 31
0.0
100
AcDbText
1001
AcDbBlockRepETag
1070
     1
1071
       36
1005
308
  0
TEXT
  5
309
330
AB
100
AcDbEntity
  8
0
100
AcDbText
 10
13.87568307432493
 20
215.75
 30
0.0
 40
3.0
  1
B
  7
Roman
 72
     1
 11
15.4471116457535
 21
215.75
 31
0.0
100
AcDbText
1001
AcDbBlockRepETag
1070
     1
1071
       37
1005
309
  0
TEXT
  5
30A
330
AB
100
AcDbEntity
  8
0
100
AcDbText
 10
14.16139736003921
 20
263.25
 30
0.0
 40
3.0
  1
A
  7
Roman
 72
     1
 11
15.4471116457535
 21
263.25
 31
0.0
100
AcDbText
1001
AcDbBlockRepETag
1070
     1
1071
       38
1005
30A
  0
TEXT
  5
30B
330
AB
100
AcDbEntity
  8
0
100
AcDbText
 10
38.11904761904761
 20
288.0
 30
0.0
 40
3.0
  1
1
  7
Roman
 72
     1
 11
39.33333333333332
 21
288.0
 31
0.0
100
AcDbText
1001
AcDbBlockRepETag
1070
     1
1071
       39
1005
30B
  0
TEXT
  5
30C
330
AB
100
AcDbEntity
  8
0
100
AcDbText
 10
81.57142857142856
 20
288.0
 30
0.0
 40
3.0
  1
2
  7
Roman
 72
     1
 11
83.0
 21
288.0
 31
0.0
100
AcDbText
1001
AcDbBlockRepETag
1070
     1
1071
       40
1005
30C
  0
TEXT
  5
30D
330
AB
100
AcDbEntity
  8
0
100
AcDbText
 10
125.2380952380953
 20
288.0
 30
0.0
 40
3.0
  1
3
  7
Roman
 72
     1
 11
126.6666666666667
 21
288.0
 31
0.0
100
AcDbText
1001
AcDbBlockRepETag
1070
     1
1071
       41
1005
30D
  0
TEXT
  5
30E
330
AB
100
AcDbEntity
  8
0
100
AcDbText
 10
168.8333333333333
 20
288.0
 30
0.0
 40
3.0
  1
4
  7
Roman
 72
     1
 11
170.3333333333333
 21
288.0
 31
0.0
100
AcDbText
1001
AcDbBlockRepETag
1070
     1
1071
       42
1005
30E
  0
TEXT
  5
30F
330
AB
100
AcDbEntity
  8
0
100
AcDbText
 10
13.9471116457535
 20
28.41666666666668
 30
0.0
 40
3.0
  1
F
  7
Roman
 72
     1
 11
15.4471116457535
 21
28.41666666666668
 31
0.0
100
AcDbText
1001
AcDbBlockRepETag
1070
     1
1071
       43
1005
30F
  0
TEXT
  5
310
330
AB
100
AcDbEntity
  8
0
100
AcDbText
 10
13.9471116457535
 20
75.91666666666668
 30
0.0
 40
3.0
  1
E
  7
Roman
 72
     1
 11
15.4471116457535
 21
75.91666666666668
 31
0.0
100
AcDbText
1001
AcDbBlockRepETag
1070
     1
1071
       44
1005
310
  0
LINE
  5
311
330
AB
100
AcDbEntity
  8
0
100
AcDbLine
 10
192.4978723404242
 20
19.0
 30
0.0
 11
75.49787234042418
 21
19.0
 31
0.0
1001
AcDbBlockRepETag
1070
     1
1071
      166
1005
311
  0
LINE
  5
312
330
AB
100
AcDbEntity
  8
0
100
AcDbLine
 10
115.4978723404242
 20
28.0
 30
0.0
 11
75.49787234042418
 21
28.0
 31
0.0
1001
AcDbBlockRepETag
1070
     1
1071
      168
1005
312
  0
LINE
  5
313
330
AB
100
AcDbEntity
  8
0
100
AcDbLine
 10
192.4978723404242
 20
37.0
 30
0.0
 11
75.49787234042418
 21
37.0
 31
0.0
1001
AcDbBlockRepETag
1070
     1
1071
      169
1005
313
  0
LINE
  5
314
330
AB
100
AcDbEntity
  8
0
100
AcDbLine
 10
192.4978723404242
 20
46.0
 30
0.0
 11
75.49787234042418
 21
46.0
 31
0.0
1001
AcDbBlockRepETag
1070
     1
1071
      170
1005
314
  0
MTEXT
  5
315
330
AB
100
AcDbEntity
  8
0
100
AcDbMText
 10
100.9978723404242
 20
14.5
 30
0.0
 40
4.0
 41
51.0
 71
     5
 72
     5
  1
富国石油株式会社
 73
     1
 44
1.0
1001
AcDbBlockRepETag
1070
     1
1071
      171
1005
315
1001
ACAD
1000
MTEXTBEGIN
1070
    73
1070
     1
1070
    44
1040
1.0
1070
    74
1070
     0
1000
MTEXTEND
  0
MTEXT
  5
316
102
{ACAD_XDICTIONARY
360
7759
102
}
330
AB
100
AcDbEntity
  8
0
100
AcDbMText
 10
78.47796344079569
 20
23.5
 30
0.0
 40
2.0
 41
3.96018220074299
 71
     5
 72
     5
  1
検\P図
 73
     1
 44
1.0
1001
AcDbBlockRepETag
1070
     1
1071
      172
1005
316
1001
ACAD
1000
MTEXTBEGIN
1070
    73
1070
     1
1070
    44
1040
1.0
1070
    74
1070
     0
1000
MTEXTEND
1000
ACAD_MTEXT_DEFINED_HEIGHT_BEGIN
1070
    46
1040
9.0
1000
ACAD_MTEXT_DEFINED_HEIGHT_END
  0
MTEXT
  5
317
330
AB
100
AcDbEntity
  8
0
100
AcDbMText
 10
78.47796344079569
 20
32.5
 30
0.0
 40
2.0
 41
3.96018220074299
 71
     5
 72
     5
  1
確\P認
 73
     1
 44
1.0
1001
AcDbBlockRepETag
1070
     1
1071
      173
1005
317
1001
ACAD
1000
MTEXTBEGIN
1070
    73
1070
     1
1070
    44
1040
1.0
1070
    74
1070
     0
1000
MTEXTEND
1000
ACAD_MTEXT_DEFINED_HEIGHT_BEGIN
1070
    46
1040
9.0
1000
ACAD_MTEXT_DEFINED_HEIGHT_END
  0
MTEXT
  5
318
330
AB
100
AcDbEntity
  8
0
100
AcDbMText
 10
78.47796344079569
 20
41.5
 30
0.0
 40
2.0
 41
3.96018220074299
 71
     5
 72
     5
  1
縮\P尺
 73
     1
 44
1.0
1001
AcDbBlockRepETag
1070
     1
1071
      174
1005
318
1001
ACAD
1000
MTEXTBEGIN
1070
    73
1070
     1
1070
    44
1040
1.0
1070
    74
1070
     0
1000
MTEXTEND
1000
ACAD_MTEXT_DEFINED_HEIGHT_BEGIN
1070
    46
1040
9.0
1000
ACAD_MTEXT_DEFINED_HEIGHT_END
  0
LINE
  5
319
330
AB
100
AcDbEntity
  8
0
100
AcDbLine
 10
95.49787234042415
 20
19.0
 30
0.0
 11
95.49787234042415
 21
46.0
 31
0.0
1001
AcDbBlockRepETag
1070
     1
1071
      175
1005
319
  0
LINE
  5
31A
330
AB
100
AcDbEntity
  8
0
100
AcDbLine
 10
115.4978723404242
 20
19.0
 30
0.0
 11
115.4978723404242
 21
46.0
 31
0.0
1001
AcDbBlockRepETag
1070
     1
1071
      176
1005
31A
  0
LINE
  5
31B
330
AB
100
AcDbEntity
  8
0
100
AcDbLine
 10
147.4978723404241
 20
37.0
 30
0.0
 11
147.4978723404241
 21
46.0
 31
0.0
1001
AcDbBlockRepETag
1070
     1
1071
      194
1005
31B
  0
MTEXT
  5
31C
330
AB
100
AcDbEntity
  8
0
100
AcDbMText
 10
98.47796344079569
 20
32.5
 30
0.0
 40
2.0
 41
3.96018220074299
 71
     5
 72
     5
  1
設\P計
 73
     1
 44
1.0
1001
AcDbBlockRepETag
1070
     1
1071
      177
1005
31C
1001
ACAD
1000
MTEXTBEGIN
1070
    73
1070
     1
1070
    44
1040
1.0
1070
    74
1070
     0
1000
MTEXTEND
1000
ACAD_MTEXT_DEFINED_HEIGHT_BEGIN
1070
    46
1040
9.0
1000
ACAD_MTEXT_DEFINED_HEIGHT_END
  0
MTEXT
  5
31D
330
AB
100
AcDbEntity
  8
0
100
AcDbMText
 10
98.47796344079569
 20
23.5
 30
0.0
 40
2.0
 41
3.96018220074299
 71
     5
 72
     5
  1
製\P図
 73
     1
 44
1.0
1001
AcDbBlockRepETag
1070
     1
1071
      178
1005
31D
1001
ACAD
1000
MTEXTBEGIN
1070
    73
1070
     1
1070
    44
1040
1.0
1070
    74
1070
     0
1000
MTEXTEND
1000
ACAD_MTEXT_DEFINED_HEIGHT_BEGIN
1070
    46
1040
9.0
1000
ACAD_MTEXT_DEFINED_HEIGHT_END
  0
MTEXT
  5
31E
330
AB
100
AcDbEntity
  8
0
100
AcDbMText
 10
118.4779634407957
 20
41.5
 30
0.0
 40
2.0
 41
3.96018220074299
 71
     5
 72
     5
  1
材\P料
 73
     1
 44
1.0
1001
AcDbBlockRepETag
1070
     1
1071
      179
1005
31E
1001
ACAD
1000
MTEXTBEGIN
1070
    73
1070
     1
1070
    44
1040
1.0
1070
    74
1070
     0
1000
MTEXTEND
1000
ACAD_MTEXT_DEFINED_HEIGHT_BEGIN
1070
    46
1040
9.0
1000
ACAD_MTEXT_DEFINED_HEIGHT_END
  0
LINE
  5
31F
330
AB
100
AcDbEntity
  8
0
  6
HIDDEN2
 48
0.5
100
AcDbLine
 10
192.4978723404242
 20
32.5
 30
0.0
 11
115.4978723404242
 21
32.5
 31
0.0
1001
AcDbBlockRepETag
1070
     1
1071
      180
1005
31F
  0
POINT
  5
320
330
AB
100
AcDbEntity
  8
0
100
AcDbPoint
 10
101.2478723404242
 20
37.0
 30
0.0
1001
AcDbBlockRepETag
1070
     1
1071
      189
1005
320
  0
POINT
  5
321
330
AB
100
AcDbEntity
  8
0
100
AcDbPoint
 10
101.2478723404242
 20
28.0
 30
0.0
1001
AcDbBlockRepETag
1070
     1
1071
      190
1005
321
  0
MTEXT
  5
322
330
AB
100
AcDbEntity
  8
0
100
AcDbMText
 10
108.3728723404242
 20
23.5
 30
0.0
 40
3.0
 41
14.25
 71
     5
 72
     5
  1
齊藤
 73
     1
 44
1.0
1001
AcDbBlockRepETag
1070
     1
1071
      192
1005
322
1001
ACAD
1000
MTEXTBEGIN
1070
    73
1070
     1
1070
    44
1040
1.0
1070
    74
1070
     0
1000
MTEXTEND
1000
ACAD_MTEXT_DEFINED_HEIGHT_BEGIN
1070
    46
1040
9.0
1000
ACAD_MTEXT_DEFINED_HEIGHT_END
  0
TEXT
  5
323
330
AB
100
AcDbEntity
  8
0
100
AcDbText
 10
38.45238095238097
 20
6.230338100985591
 30
0.0
 40
3.0
  1
1
  7
Roman
 72
     1
 11
39.66666666666668
 21
6.230338100985591
 31
0.0
100
AcDbText
1001
AcDbBlockRepETag
1070
     1
1071
       45
1005
323
  0
TEXT
  5
324
330
AB
100
AcDbEntity
  8
0
100
AcDbText
 10
81.90476190476188
 20
6.230338100985591
 30
0.0
 40
3.0
  1
2
  7
Roman
 72
     1
 11
83.33333333333332
 21
6.230338100985591
 31
0.0
100
AcDbText
1001
AcDbBlockRepETag
1070
     1
1071
       46
1005
324
  0
TEXT
  5
325
330
AB
100
AcDbEntity
  8
0
100
AcDbText
 10
125.5714285714286
 20
6.230338100985591
 30
0.0
 40
3.0
  1
3
  7
Roman
 72
     1
 11
127.0
 21
6.230338100985591
 31
0.0
100
AcDbText
1001
AcDbBlockRepETag
1070
     1
1071
       47
1005
325
  0
TEXT
  5
326
330
AB
100
AcDbEntity
  8
0
100
AcDbText
 10
169.1666666666667
 20
6.230338100985591
 30
0.0
 40
3.0
  1
4
  7
Roman
 72
     1
 11
170.6666666666667
 21
6.230338100985591
 31
0.0
100
AcDbText
1001
AcDbBlockRepETag
1070
     1
1071
       48
1005
326
  0
TEXT
  5
327
330
AB
100
AcDbEntity
  8
0
100
AcDbText
 10
193.2387724536951
 20
33.75
 30
0.0
 40
3.0
  1
F
  7
Roman
 72
     1
 11
194.7387724536952
 21
33.75
 31
0.0
100
AcDbText
1001
AcDbBlockRepETag
1070
     1
1071
       49
1005
327
  0
TEXT
  5
328
330
AB
100
AcDbEntity
  8
0
100
AcDbText
 10
193.2387724536951
 20
81.25
 30
0.0
 40
3.0
  1
E
  7
Roman
 72
     1
 11
194.7387724536952
 21
81.25
 31
0.0
100
AcDbText
1001
AcDbBlockRepETag
1070
     1
1071
       50
1005
328
  0
TEXT
  5
329
330
AB
100
AcDbEntity
  8
0
100
AcDbText
 10
193.1673438822666
 20
221.0833333333333
 30
0.0
 40
3.0
  1
B
  7
Roman
 72
     1
 11
194.7387724536952
 21
221.0833333333333
 31
0.0
100
AcDbText
1001
AcDbBlockRepETag
1070
     1
1071
       51
1005
329
  0
TEXT
  5
32A
330
AB
100
AcDbEntity
  8
0
100
AcDbText
 10
193.4530581679809
 20
268.5833333333333
 30
0.0
 40
3.0
  1
A
  7
Roman
 72
     1
 11
194.7387724536952
 21
268.5833333333333
 31
0.0
100
AcDbText
1001
AcDbBlockRepETag
1070
     1
1071
       52
1005
32A
  0
LINE
  5
32B
330
AB
100
AcDbEntity
  8
0
100
AcDbLine
 10
75.49787234042418
 20
10.0
 30
0.0
 11
75.49787234042418
 21
46.0
 31
0.0
1001
AcDbBlockRepETag
1070
     1
1071
      162
1005
32B
  0
LINE
  5
32C
330
AB
100
AcDbEntity
  8
0
100
AcDbLine
 10
126.4978723404242
 20
10.0
 30
0.0
 11
126.4978723404242
 21
19.0
 31
0.0
1001
AcDbBlockRepETag
1070
     1
1071
      167
1005
32C
  0
TEXT
  5
32D
330
AB
100
AcDbEntity
  8
0
100
AcDbText
 10
193.1673438822666
 20
126.0833333333333
 30
0.0
 40
3.0
  1
D
  7
Roman
 72
     1
 11
194.7387724536952
 21
126.0833333333333
 31
0.0
100
AcDbText
1001
AcDbBlockRepETag
1070
     1
1071
       54
1005
32D
  0
TEXT
  5
32E
330
AB
100
AcDbEntity
  8
0
100
AcDbText
 10
193.2387724536951
 20
173.5833333333333
 30
0.0
 40
3.0
  1
C
  7
Roman
 72
     1
 11
194.7387724536952
 21
173.5833333333333
 31
0.0
100
AcDbText
1001
AcDbBlockRepETag
1070
     1
1071
       53
1005
32E
  0
ENDBLK
  5
117
330
AB
100
AcDbEntity
  8
0
100
AcDbBlockEnd
  0
BLOCK
  5
340
330
33F
100
AcDbEntity
  8
0
100
AcDbBlockBegin
  2
_Open30
 70
     0
 10
0.0
 20
0.0
 30
0.0
  3
_Open30
  1

  0
LINE
  5
341
330
33F
100
AcDbEntity
  8
0
  6
ByBlock
 62
     0
370
    -2
100
AcDbLine
 10
-1.0
 20
0.26794919
 30
0.0
 11
0.0
 21
0.0
 31
0.0
  0
LINE
  5
342
330
33F
100
AcDbEntity
  8
0
  6
ByBlock
 62
     0
370
    -2
100
AcDbLine
 10
0.0
 20
0.0
 30
0.0
 11
-1.0
 21
-0.26794919
 31
0.0
  0
LINE
  5
343
330
33F
100
AcDbEntity
  8
0
  6
ByBlock
 62
     0
370
    -2
100
AcDbLine
 10
0.0
 20
0.0
 30
0.0
 11
-1.0
 21
0.0
 31
0.0
  0
ENDBLK
  5
344
330
33F
100
AcDbEntity
  8
0
100
AcDbBlockEnd
  0
BLOCK
  5
4EA
330
4E7
100
AcDbEntity
  8
0
100
AcDbBlockBegin
  2
JIS A3 title block
 70
     2
 10
0.0
 20
0.0
 30
0.0
  3
JIS A3 title block
  1

  4
JIS A3 title block and attributes
  0
LINE
  5
4EB
330
4E7
100
AcDbEntity
  8
0
100
AcDbLine
 10
402.5
 20
10.0
 30
0.0
 11
17.49999999999999
 21
10.0
 31
0.0
1001
AcDbBlockRepETag
1070
     1
1071
        0
1005
4EB
  0
LINE
  5
4EC
330
4E7
100
AcDbEntity
  8
0
100
AcDbLine
 10
17.5
 20
287.0
 30
0.0
 11
402.5
 21
287.0
 31
0.0
1001
AcDbBlockRepETag
1070
     1
1071
        1
1005
4EC
  0
LINE
  5
4ED
330
4E7
100
AcDbEntity
  8
0
100
AcDbLine
 10
25.0
 20
0.0
 30
0.0
 11
0.0
 21
0.0
 31
0.0
1001
AcDbBlockRepETag
1070
     1
1071
        3
1005
4ED
  0
LINE
  5
4EE
330
4E7
100
AcDbEntity
  8
0
100
AcDbLine
 10
0.0
 20
0.0
 30
0.0
 11
0.0
 21
10.0
 31
0.0
1001
AcDbBlockRepETag
1070
     1
1071
        4
1005
4EE
  0
LINE
  5
4EF
330
4E7
100
AcDbEntity
  8
0
100
AcDbLine
 10
65.625
 20
10.0
 30
0.0
 11
65.625
 21
5.0
 31
0.0
1001
AcDbBlockRepETag
1070
     1
1071
        5
1005
4EF
  0
TEXT
  5
4F0
330
4E7
100
AcDbEntity
  8
0
100
AcDbText
 10
40.34821428571429
 20
6.019997240728746
 30
0.0
 40
3.0
  1
1
  7
Roman
 72
     1
 11
41.5625
 21
6.019997240728746
 31
0.0
100
AcDbText
1001
AcDbBlockRepETag
1070
     1
1071
        6
1005
4F0
  0
ATTDEF
  5
4F1
330
4E7
100
AcDbEntity
  8
0
 62
     0
380
     1
100
AcDbText
 10
11.49999999999999
 20
10.0
 30
0.0
 40
3.0
  1

 50
90.0
  7
Roman
100
AcDbAttributeDefinition
  3
Author:
  2
USER
 70
     8
1001
AcDbBlockRepETag
1070
     1
1071
        7
1005
0
  0
TEXT
  5
4F2
330
4E7
100
AcDbEntity
  8
0
100
AcDbText
 10
13.60716135953388
 20
33.08333333333334
 30
0.0
 40
3.0
  1
F
  7
Roman
 72
     1
 11
15.10716135953388
 21
33.08333333333334
 31
0.0
100
AcDbText
1001
AcDbBlockRepETag
1070
     1
1071
        8
1005
4F2
  0
LINE
  5
4F3
330
4E7
100
AcDbEntity
  8
0
100
AcDbLine
 10
17.49999999999999
 20
148.5
 30
0.0
 11
0.0
 21
148.5
 31
0.0
1001
AcDbBlockRepETag
1070
     1
1071
        9
1005
4F3
  0
ATTDEF
  5
4F4
330
4E7
100
AcDbEntity
  8
0
 62
     0
380
     1
100
AcDbText
 10
11.49999999999999
 20
70.0
 30
0.0
 40
3.0
  1

 50
90.0
  7
Roman
100
AcDbAttributeDefinition
  3
Revision date:
  2
REVDATE
 70
     8
1001
AcDbBlockRepETag
1070
     1
1071
       10
1005
0
  0
LINE
  5
4F5
330
4E7
100
AcDbEntity
  8
0
100
AcDbLine
 10
17.49999999999999
 20
56.16666666666667
 30
0.0
 11
12.49999999999999
 21
56.16666666666667
 31
0.0
1001
AcDbBlockRepETag
1070
     1
1071
       11
1005
4F5
  0
TEXT
  5
4F6
330
4E7
100
AcDbEntity
  8
0
100
AcDbText
 10
13.60716135953388
 20
79.25
 30
0.0
 40
3.0
  1
E
  7
Roman
 72
     1
 11
15.10716135953388
 21
79.25
 31
0.0
100
AcDbText
1001
AcDbBlockRepETag
1070
     1
1071
       12
1005
4F6
  0
ATTDEF
  5
4F7
330
4E7
100
AcDbEntity
  8
0
 62
     0
380
     1
100
AcDbText
 10
11.49999999999999
 20
118.0
 30
0.0
 40
3.0
  1

 50
90.0
  7
Roman
100
AcDbAttributeDefinition
  3
File name:
  2
FNAME
 70
     8
1001
AcDbBlockRepETag
1070
     1
1071
       13
1005
0
  0
LINE
  5
4F8
330
4E7
100
AcDbEntity
  8
0
100
AcDbLine
 10
17.49999999999999
 20
102.3333333333333
 30
0.0
 11
12.49999999999999
 21
102.3333333333333
 31
0.0
1001
AcDbBlockRepETag
1070
     1
1071
       14
1005
4F8
  0
TEXT
  5
4F9
330
4E7
100
AcDbEntity
  8
0
100
AcDbText
 10
13.53573278810531
 20
125.4166666666666
 30
0.0
 40
3.0
  1
D
  7
Roman
 72
     1
 11
15.10716135953388
 21
125.4166666666666
 31
0.0
100
AcDbText
1001
AcDbBlockRepETag
1070
     1
1071
       15
1005
4F9
  0
LINE
  5
4FA
330
4E7
100
AcDbEntity
  8
0
100
AcDbLine
 10
17.49999999999999
 20
148.5
 30
0.0
 11
12.49999999999999
 21
148.5
 31
0.0
1001
AcDbBlockRepETag
1070
     1
1071
       16
1005
4FA
  0
TEXT
  5
4FB
330
4E7
100
AcDbEntity
  8
0
100
AcDbText
 10
136.3839285714286
 20
6.019997240728746
 30
0.0
 40
3.0
  1
3
  7
Roman
 72
     1
 11
137.8125
 21
6.019997240728746
 31
0.0
100
AcDbText
1001
AcDbBlockRepETag
1070
     1
1071
       17
1005
4FB
  0
LINE
  5
4FC
330
4E7
100
AcDbEntity
  8
0
100
AcDbLine
 10
113.75
 20
10.0
 30
0.0
 11
113.75
 21
5.0
 31
0.0
1001
AcDbBlockRepETag
1070
     1
1071
       18
1005
4FC
  0
TEXT
  5
4FD
330
4E7
100
AcDbEntity
  8
0
100
AcDbText
 10
88.25892857142857
 20
6.019997240728746
 30
0.0
 40
3.0
  1
2
  7
Roman
 72
     1
 11
89.6875
 21
6.019997240728746
 31
0.0
100
AcDbText
1001
AcDbBlockRepETag
1070
     1
1071
       19
1005
4FD
  0
LINE
  5
4FE
330
4E7
100
AcDbEntity
  8
0
100
AcDbLine
 10
161.875
 20
10.0
 30
0.0
 11
161.875
 21
5.0
 31
0.0
1001
AcDbBlockRepETag
1070
     1
1071
       20
1005
4FE
  0
TEXT
  5
4FF
330
4E7
100
AcDbEntity
  8
0
100
AcDbText
 10
184.4375
 20
6.019997240728746
 30
0.0
 40
3.0
  1
4
  7
Roman
 72
     1
 11
185.9375
 21
6.019997240728746
 31
0.0
100
AcDbText
1001
AcDbBlockRepETag
1070
     1
1071
       21
1005
4FF
  0
TEXT
  5
500
330
4E7
100
AcDbEntity
  8
0
100
AcDbText
 10
13.60716135953388
 20
171.5833333333333
 30
0.0
 40
3.0
  1
C
  7
Roman
 72
     1
 11
15.10716135953388
 21
171.5833333333333
 31
0.0
100
AcDbText
1001
AcDbBlockRepETag
1070
     1
1071
       22
1005
500
  0
LINE
  5
501
330
4E7
100
AcDbEntity
  8
0
100
AcDbLine
 10
17.49999999999999
 20
194.6666666666666
 30
0.0
 11
12.49999999999999
 21
194.6666666666666
 31
0.0
1001
AcDbBlockRepETag
1070
     1
1071
       23
1005
501
  0
TEXT
  5
502
330
4E7
100
AcDbEntity
  8
0
100
AcDbText
 10
13.53573278810531
 20
217.75
 30
0.0
 40
3.0
  1
B
  7
Roman
 72
     1
 11
15.10716135953388
 21
217.75
 31
0.0
100
AcDbText
1001
AcDbBlockRepETag
1070
     1
1071
       24
1005
502
  0
LINE
  5
503
330
4E7
100
AcDbEntity
  8
0
100
AcDbLine
 10
17.49999999999999
 20
240.8333333333333
 30
0.0
 11
12.49999999999999
 21
240.8333333333333
 31
0.0
1001
AcDbBlockRepETag
1070
     1
1071
       25
1005
503
  0
LINE
  5
504
330
4E7
100
AcDbEntity
  8
0
100
AcDbLine
 10
0.0
 20
297.0
 30
0.0
 11
25.0
 21
297.0
 31
0.0
1001
AcDbBlockRepETag
1070
     1
1071
       26
1005
504
  0
LINE
  5
505
330
4E7
100
AcDbEntity
  8
0
100
AcDbLine
 10
0.0
 20
287.0
 30
0.0
 11
0.0
 21
297.0
 31
0.0
1001
AcDbBlockRepETag
1070
     1
1071
       27
1005
505
  0
LINE
  5
506
330
4E7
100
AcDbEntity
  8
0
100
AcDbLine
 10
65.625
 20
287.0
 30
0.0
 11
65.625
 21
292.0
 31
0.0
1001
AcDbBlockRepETag
1070
     1
1071
       28
1005
506
  0
TEXT
  5
507
330
4E7
100
AcDbEntity
  8
0
100
AcDbText
 10
13.82144707381959
 20
263.9166666666666
 30
0.0
 40
3.0
  1
A
  7
Roman
 72
     1
 11
15.10716135953388
 21
263.9166666666666
 31
0.0
100
AcDbText
1001
AcDbBlockRepETag
1070
     1
1071
       29
1005
507
  0
TEXT
  5
508
330
4E7
100
AcDbEntity
  8
0
100
AcDbText
 10
40.34821428571429
 20
288.0
 30
0.0
 40
3.0
  1
1
  7
Roman
 72
     1
 11
41.5625
 21
288.0
 31
0.0
100
AcDbText
1001
AcDbBlockRepETag
1070
     1
1071
       30
1005
508
  0
TEXT
  5
509
330
4E7
100
AcDbEntity
  8
0
100
AcDbText
 10
136.3839285714286
 20
288.0
 30
0.0
 40
3.0
  1
3
  7
Roman
 72
     1
 11
137.8125
 21
288.0
 31
0.0
100
AcDbText
1001
AcDbBlockRepETag
1070
     1
1071
       31
1005
509
  0
LINE
  5
50A
330
4E7
100
AcDbEntity
  8
0
100
AcDbLine
 10
113.75
 20
287.0
 30
0.0
 11
113.75
 21
292.0
 31
0.0
1001
AcDbBlockRepETag
1070
     1
1071
       32
1005
50A
  0
TEXT
  5
50B
330
4E7
100
AcDbEntity
  8
0
100
AcDbText
 10
88.25892857142857
 20
288.0
 30
0.0
 40
3.0
  1
2
  7
Roman
 72
     1
 11
89.6875
 21
288.0
 31
0.0
100
AcDbText
1001
AcDbBlockRepETag
1070
     1
1071
       33
1005
50B
  0
LINE
  5
50C
330
4E7
100
AcDbEntity
  8
0
100
AcDbLine
 10
161.875
 20
287.0
 30
0.0
 11
161.875
 21
292.0
 31
0.0
1001
AcDbBlockRepETag
1070
     1
1071
       34
1005
50C
  0
TEXT
  5
50D
330
4E7
100
AcDbEntity
  8
0
100
AcDbText
 10
184.4375
 20
288.0
 30
0.0
 40
3.0
  1
4
  7
Roman
 72
     1
 11
185.9375
 21
288.0
 31
0.0
100
AcDbText
1001
AcDbBlockRepETag
1070
     1
1071
       35
1005
50D
  0
LINE
  5
50E
330
4E7
100
AcDbEntity
  8
0
100
AcDbLine
 10
402.5
 20
287.0
 30
0.0
 11
402.5
 21
10.0
 31
0.0
1001
AcDbBlockRepETag
1070
     1
1071
       36
1005
50E
  0
LINE
  5
50F
330
4E7
100
AcDbEntity
  8
0
100
AcDbLine
 10
210.0
 20
10.0
 30
0.0
 11
210.0
 21
0.0
 31
0.0
1001
AcDbBlockRepETag
1070
     1
1071
       37
1005
50F
  0
LINE
  5
510
330
4E7
100
AcDbEntity
  8
0
100
AcDbLine
 10
258.125
 20
10.0
 30
0.0
 11
258.125
 21
5.0
 31
0.0
1001
AcDbBlockRepETag
1070
     1
1071
       39
1005
510
  0
TEXT
  5
511
330
4E7
100
AcDbEntity
  8
0
100
AcDbText
 10
232.6339285714286
 20
6.019997240728746
 30
0.0
 40
3.0
  1
5
  7
Roman
 72
     1
 11
234.0625
 21
6.019997240728746
 31
0.0
100
AcDbText
1001
AcDbBlockRepETag
1070
     1
1071
       40
1005
511
  0
LINE
  5
512
330
4E7
100
AcDbEntity
  8
0
100
AcDbLine
 10
306.25
 20
10.0
 30
0.0
 11
306.25
 21
5.0
 31
0.0
1001
AcDbBlockRepETag
1070
     1
1071
       41
1005
512
  0
TEXT
  5
513
330
4E7
100
AcDbEntity
  8
0
100
AcDbText
 10
280.6875
 20
6.019997240728746
 30
0.0
 40
3.0
  1
6
  7
Roman
 72
     1
 11
282.1875
 21
6.019997240728746
 31
0.0
100
AcDbText
1001
AcDbBlockRepETag
1070
     1
1071
       42
1005
513
  0
TEXT
  5
514
330
4E7
100
AcDbEntity
  8
0
100
AcDbText
 10
328.8839285714285
 20
6.019997240728746
 30
0.0
 40
3.0
  1
7
  7
Roman
 72
     1
 11
330.3125
 21
6.019997240728746
 31
0.0
100
AcDbText
1001
AcDbBlockRepETag
1070
     1
1071
       43
1005
514
  0
LINE
  5
515
330
4E7
100
AcDbEntity
  8
0
100
AcDbLine
 10
354.375
 20
10.0
 30
0.0
 11
354.375
 21
5.0
 31
0.0
1001
AcDbBlockRepETag
1070
     1
1071
       44
1005
515
  0
TEXT
  5
516
330
4E7
100
AcDbEntity
  8
0
100
AcDbText
 10
377.0089285714286
 20
6.019997240728746
 30
0.0
 40
3.0
  1
8
  7
Roman
 72
     1
 11
378.4375
 21
6.019997240728746
 31
0.0
100
AcDbText
1001
AcDbBlockRepETag
1070
     1
1071
       45
1005
516
  0
LINE
  5
517
330
4E7
100
AcDbEntity
  8
0
100
AcDbLine
 10
420.0
 20
10.0
 30
0.0
 11
420.0
 21
0.0
 31
0.0
1001
AcDbBlockRepETag
1070
     1
1071
       46
1005
517
  0
LINE
  5
518
330
4E7
100
AcDbEntity
  8
0
100
AcDbLine
 10
420.0
 20
0.0
 30
0.0
 11
410.0
 21
0.0
 31
0.0
1001
AcDbBlockRepETag
1070
     1
1071
       47
1005
518
  0
LINE
  5
519
330
4E7
100
AcDbEntity
  8
0
 62
     0
380
     1
100
AcDbLine
 10
402.5
 20
49.00000000000036
 30
0.0
 11
402.5
 21
10.0
 31
0.0
1001
AcDbBlockRepETag
1070
     1
1071
       48
1005
519
  0
LINE
  5
51A
330
4E7
100
AcDbEntity
  8
0
 62
     0
380
     1
100
AcDbLine
 10
402.5
 20
10.0
 30
0.0
 11
402.5
 21
49.00000000000036
 31
0.0
1001
AcDbBlockRepETag
1070
     1
1071
       49
1005
51A
  0
TEXT
  5
51B
330
4E7
100
AcDbEntity
  8
0
100
AcDbText
 10
403.8708251683468
 20
33.08333333333334
 30
0.0
 40
3.0
  1
F
  7
Roman
 72
     1
 11
405.3708251683468
 21
33.08333333333334
 31
0.0
100
AcDbText
1001
AcDbBlockRepETag
1070
     1
1071
       50
1005
51B
  0
LINE
  5
51C
330
4E7
100
AcDbEntity
  8
0
100
AcDbLine
 10
402.5
 20
56.16666666666668
 30
0.0
 11
407.5
 21
56.16666666666668
 31
0.0
1001
AcDbBlockRepETag
1070
     1
1071
       51
1005
51C
  0
TEXT
  5
51D
330
4E7
100
AcDbEntity
  8
0
100
AcDbText
 10
403.8708251683468
 20
79.25
 30
0.0
 40
3.0
  1
E
  7
Roman
 72
     1
 11
405.3708251683468
 21
79.25
 31
0.0
100
AcDbText
1001
AcDbBlockRepETag
1070
     1
1071
       52
1005
51D
  0
LINE
  5
51E
330
4E7
100
AcDbEntity
  8
0
100
AcDbLine
 10
402.5
 20
102.3333333333333
 30
0.0
 11
407.5
 21
102.3333333333333
 31
0.0
1001
AcDbBlockRepETag
1070
     1
1071
       53
1005
51E
  0
TEXT
  5
51F
330
4E7
100
AcDbEntity
  8
0
100
AcDbText
 10
403.7993965969183
 20
125.4166666666666
 30
0.0
 40
3.0
  1
D
  7
Roman
 72
     1
 11
405.3708251683468
 21
125.4166666666666
 31
0.0
100
AcDbText
1001
AcDbBlockRepETag
1070
     1
1071
       54
1005
51F
  0
LINE
  5
520
330
4E7
100
AcDbEntity
  8
0
100
AcDbLine
 10
402.5
 20
148.5
 30
0.0
 11
420.0
 21
148.5
 31
0.0
1001
AcDbBlockRepETag
1070
     1
1071
       56
1005
520
  0
LINE
  5
521
330
4E7
100
AcDbEntity
  8
0
100
AcDbLine
 10
210.0
 20
287.0
 30
0.0
 11
210.0
 21
297.0
 31
0.0
1001
AcDbBlockRepETag
1070
     1
1071
       57
1005
521
  0
LINE
  5
522
330
4E7
100
AcDbEntity
  8
0
100
AcDbLine
 10
258.125
 20
287.0
 30
0.0
 11
258.125
 21
292.0
 31
0.0
1001
AcDbBlockRepETag
1070
     1
1071
       58
1005
522
  0
LINE
  5
523
330
4E7
100
AcDbEntity
  8
0
100
AcDbLine
 10
210.0
 20
287.0
 30
0.0
 11
210.0
 21
292.0
 31
0.0
1001
AcDbBlockRepETag
1070
     1
1071
       59
1005
523
  0
TEXT
  5
524
330
4E7
100
AcDbEntity
  8
0
100
AcDbText
 10
232.6339285714286
 20
288.0
 30
0.0
 40
3.0
  1
5
  7
Roman
 72
     1
 11
234.0625
 21
288.0
 31
0.0
100
AcDbText
1001
AcDbBlockRepETag
1070
     1
1071
       60
1005
524
  0
LINE
  5
525
330
4E7
100
AcDbEntity
  8
0
100
AcDbLine
 10
306.25
 20
287.0
 30
0.0
 11
306.25
 21
292.0
 31
0.0
1001
AcDbBlockRepETag
1070
     1
1071
       61
1005
525
  0
TEXT
  5
526
330
4E7
100
AcDbEntity
  8
0
100
AcDbText
 10
280.6875
 20
288.0
 30
0.0
 40
3.0
  1
6
  7
Roman
 72
     1
 11
282.1875
 21
288.0
 31
0.0
100
AcDbText
1001
AcDbBlockRepETag
1070
     1
1071
       62
1005
526
  0
TEXT
  5
527
330
4E7
100
AcDbEntity
  8
0
100
AcDbText
 10
328.8839285714285
 20
288.0
 30
0.0
 40
3.0
  1
7
  7
Roman
 72
     1
 11
330.3125
 21
288.0
 31
0.0
100
AcDbText
1001
AcDbBlockRepETag
1070
     1
1071
       63
1005
527
  0
TEXT
  5
528
330
4E7
100
AcDbEntity
  8
0
100
AcDbText
 10
403.8708251683468
 20
171.5833333333333
 30
0.0
 40
3.0
  1
C
  7
Roman
 72
     1
 11
405.3708251683468
 21
171.5833333333333
 31
0.0
100
AcDbText
1001
AcDbBlockRepETag
1070
     1
1071
       64
1005
528
  0
LINE
  5
529
330
4E7
100
AcDbEntity
  8
0
100
AcDbLine
 10
402.5
 20
194.6666666666667
 30
0.0
 11
407.5
 21
194.6666666666667
 31
0.0
1001
AcDbBlockRepETag
1070
     1
1071
       65
1005
529
  0
TEXT
  5
52A
330
4E7
100
AcDbEntity
  8
0
100
AcDbText
 10
403.7993965969183
 20
217.75
 30
0.0
 40
3.0
  1
B
  7
Roman
 72
     1
 11
405.3708251683468
 21
217.75
 31
0.0
100
AcDbText
1001
AcDbBlockRepETag
1070
     1
1071
       66
1005
52A
  0
LINE
  5
52B
330
4E7
100
AcDbEntity
  8
0
100
AcDbLine
 10
402.5
 20
240.8333333333334
 30
0.0
 11
407.5
 21
240.8333333333334
 31
0.0
1001
AcDbBlockRepETag
1070
     1
1071
       67
1005
52B
  0
LINE
  5
52C
330
4E7
100
AcDbEntity
  8
0
100
AcDbLine
 10
354.375
 20
287.0
 30
0.0
 11
354.375
 21
292.0
 31
0.0
1001
AcDbBlockRepETag
1070
     1
1071
       68
1005
52C
  0
TEXT
  5
52D
330
4E7
100
AcDbEntity
  8
0
100
AcDbText
 10
377.0089285714286
 20
288.0
 30
0.0
 40
3.0
  1
8
  7
Roman
 72
     1
 11
378.4375
 21
288.0
 31
0.0
100
AcDbText
1001
AcDbBlockRepETag
1070
     1
1071
       69
1005
52D
  0
LINE
  5
52E
330
4E7
100
AcDbEntity
  8
0
100
AcDbLine
 10
420.0
 20
297.0
 30
0.0
 11
420.0
 21
287.0
 31
0.0
1001
AcDbBlockRepETag
1070
     1
1071
       70
1005
52E
  0
TEXT
  5
52F
330
4E7
100
AcDbEntity
  8
0
100
AcDbText
 10
404.0851108826325
 20
263.9166666666666
 30
0.0
 40
3.0
  1
A
  7
Roman
 72
     1
 11
405.3708251683468
 21
263.9166666666666
 31
0.0
100
AcDbText
1001
AcDbBlockRepETag
1070
     1
1071
       71
1005
52F
  0
LINE
  5
530
330
4E7
100
AcDbEntity
  8
0
100
AcDbLine
 10
410.0
 20
297.0
 30
0.0
 11
420.0
 21
297.0
 31
0.0
1001
AcDbBlockRepETag
1070
     1
1071
       72
1005
530
  0
LINE
  5
531
330
4E7
100
AcDbEntity
  8
0
100
AcDbLine
 10
286.4978723404242
 20
10.0
 30
0.0
 11
286.4978723404242
 21
10.0
 31
0.0
1001
AcDbBlockRepETag
1070
     1
1071
      161
1005
531
  0
LINE
  5
532
330
4E7
100
AcDbEntity
  8
0
100
AcDbLine
 10
285.4978723404242
 20
10.0
 30
0.0
 11
285.4978723404242
 21
46.0
 31
0.0
1001
AcDbBlockRepETag
1070
     1
1071
      162
1005
532
  0
LINE
  5
533
330
4E7
100
AcDbEntity
  8
0
100
AcDbLine
 10
402.4978723404242
 20
19.0
 30
0.0
 11
285.4978723404242
 21
19.0
 31
0.0
1001
AcDbBlockRepETag
1070
     1
1071
      166
1005
533
  0
LINE
  5
534
330
4E7
100
AcDbEntity
  8
0
100
AcDbLine
 10
336.4978723404242
 20
10.0
 30
0.0
 11
336.4978723404242
 21
19.0
 31
0.0
1001
AcDbBlockRepETag
1070
     1
1071
      167
1005
534
  0
LINE
  5
535
330
4E7
100
AcDbEntity
  8
0
100
AcDbLine
 10
325.4978723404242
 20
28.0
 30
0.0
 11
285.4978723404242
 21
28.0
 31
0.0
1001
AcDbBlockRepETag
1070
     1
1071
      168
1005
535
  0
LINE
  5
536
330
4E7
100
AcDbEntity
  8
0
100
AcDbLine
 10
402.4978723404242
 20
37.0
 30
0.0
 11
285.4978723404242
 21
37.0
 31
0.0
1001
AcDbBlockRepETag
1070
     1
1071
      169
1005
536
  0
LINE
  5
537
330
4E7
100
AcDbEntity
  8
0
100
AcDbLine
 10
402.4978723404242
 20
46.0
 30
0.0
 11
285.4978723404242
 21
46.0
 31
0.0
1001
AcDbBlockRepETag
1070
     1
1071
      170
1005
537
  0
MTEXT
  5
538
330
4E7
100
AcDbEntity
  8
0
100
AcDbMText
 10
310.9978723404242
 20
14.5
 30
0.0
 40
4.0
 41
51.0
 71
     5
 72
     5
  1
富国石油株式会社
 73
     1
 44
1.0
1001
AcDbBlockRepETag
1070
     1
1071
      171
1005
538
1001
ACAD
1000
MTEXTBEGIN
1070
    73
1070
     1
1070
    44
1040
1.0
1070
    74
1070
     0
1000
MTEXTEND
  0
MTEXT
  5
539
102
{ACAD_XDICTIONARY
360
775B
102
}
330
4E7
100
AcDbEntity
  8
0
100
AcDbMText
 10
288.4779634407957
 20
23.5
 30
0.0
 40
2.0
 41
3.96018220074299
 71
     5
 72
     5
  1
検\P図
 73
     1
 44
1.0
1001
AcDbBlockRepETag
1070
     1
1071
      172
1005
539
1001
ACAD
1000
MTEXTBEGIN
1070
    73
1070
     1
1070
    44
1040
1.0
1070
    74
1070
     0
1000
MTEXTEND
1000
ACAD_MTEXT_DEFINED_HEIGHT_BEGIN
1070
    46
1040
9.0
1000
ACAD_MTEXT_DEFINED_HEIGHT_END
  0
MTEXT
  5
53A
330
4E7
100
AcDbEntity
  8
0
100
AcDbMText
 10
288.4779634407957
 20
32.5
 30
0.0
 40
2.0
 41
3.96018220074299
 71
     5
 72
     5
  1
確\P認
 73
     1
 44
1.0
1001
AcDbBlockRepETag
1070
     1
1071
      173
1005
53A
1001
ACAD
1000
MTEXTBEGIN
1070
    73
1070
     1
1070
    44
1040
1.0
1070
    74
1070
     0
1000
MTEXTEND
1000
ACAD_MTEXT_DEFINED_HEIGHT_BEGIN
1070
    46
1040
9.0
1000
ACAD_MTEXT_DEFINED_HEIGHT_END
  0
MTEXT
  5
53B
330
4E7
100
AcDbEntity
  8
0
100
AcDbMText
 10
288.4779634407957
 20
41.5
 30
0.0
 40
2.0
 41
3.96018220074299
 71
     5
 72
     5
  1
縮\P尺
 73
     1
 44
1.0
1001
AcDbBlockRepETag
1070
     1
1071
      174
1005
53B
1001
ACAD
1000
MTEXTBEGIN
1070
    73
1070
     1
1070
    44
1040
1.0
1070
    74
1070
     0
1000
MTEXTEND
1000
ACAD_MTEXT_DEFINED_HEIGHT_BEGIN
1070
    46
1040
9.0
1000
ACAD_MTEXT_DEFINED_HEIGHT_END
  0
LINE
  5
53C
330
4E7
100
AcDbEntity
  8
0
100
AcDbLine
 10
305.4978723404242
 20
19.0
 30
0.0
 11
305.4978723404242
 21
46.0
 31
0.0
1001
AcDbBlockRepETag
1070
     1
1071
      175
1005
53C
  0
LINE
  5
53D
330
4E7
100
AcDbEntity
  8
0
100
AcDbLine
 10
325.4978723404242
 20
19.0
 30
0.0
 11
325.4978723404242
 21
46.0
 31
0.0
1001
AcDbBlockRepETag
1070
     1
1071
      176
1005
53D
  0
LINE
  5
53E
330
4E7
100
AcDbEntity
  8
0
100
AcDbLine
 10
357.4978723404242
 20
37.0
 30
0.0
 11
357.4978723404242
 21
46.0
 31
0.0
1001
AcDbBlockRepETag
1070
     1
1071
      194
1005
53E
  0
MTEXT
  5
53F
330
4E7
100
AcDbEntity
  8
0
100
AcDbMText
 10
308.4779634407957
 20
32.5
 30
0.0
 40
2.0
 41
3.96018220074299
 71
     5
 72
     5
  1
設\P計
 73
     1
 44
1.0
1001
AcDbBlockRepETag
1070
     1
1071
      177
1005
53F
1001
ACAD
1000
MTEXTBEGIN
1070
    73
1070
     1
1070
    44
1040
1.0
1070
    74
1070
     0
1000
MTEXTEND
1000
ACAD_MTEXT_DEFINED_HEIGHT_BEGIN
1070
    46
1040
9.0
1000
ACAD_MTEXT_DEFINED_HEIGHT_END
  0
MTEXT
  5
540
330
4E7
100
AcDbEntity
  8
0
100
AcDbMText
 10
308.4779634407957
 20
23.5
 30
0.0
 40
2.0
 41
3.96018220074299
 71
     5
 72
     5
  1
製\P図
 73
     1
 44
1.0
1001
AcDbBlockRepETag
1070
     1
1071
      178
1005
540
1001
ACAD
1000
MTEXTBEGIN
1070
    73
1070
     1
1070
    44
1040
1.0
1070
    74
1070
     0
1000
MTEXTEND
1000
ACAD_MTEXT_DEFINED_HEIGHT_BEGIN
1070
    46
1040
9.0
1000
ACAD_MTEXT_DEFINED_HEIGHT_END
  0
MTEXT
  5
541
330
4E7
100
AcDbEntity
  8
0
100
AcDbMText
 10
328.4779634407957
 20
41.5
 30
0.0
 40
2.0
 41
3.96018220074299
 71
     5
 72
     5
  1
材\P料
 73
     1
 44
1.0
1001
AcDbBlockRepETag
1070
     1
1071
      179
1005
541
1001
ACAD
1000
MTEXTBEGIN
1070
    73
1070
     1
1070
    44
1040
1.0
1070
    74
1070
     0
1000
MTEXTEND
1000
ACAD_MTEXT_DEFINED_HEIGHT_BEGIN
1070
    46
1040
9.0
1000
ACAD_MTEXT_DEFINED_HEIGHT_END
  0
LINE
  5
542
330
4E7
100
AcDbEntity
  8
0
  6
HIDDEN2
 48
0.5
100
AcDbLine
 10
402.4978723404242
 20
32.5
 30
0.0
 11
325.4978723404242
 21
32.5
 31
0.0
1001
AcDbBlockRepETag
1070
     1
1071
      180
1005
542
  0
POINT
  5
543
330
4E7
100
AcDbEntity
  8
0
100
AcDbPoint
 10
311.2478723404242
 20
37.0
 30
0.0
1001
AcDbBlockRepETag
1070
     1
1071
      189
1005
543
  0
POINT
  5
544
330
4E7
100
AcDbEntity
  8
0
100
AcDbPoint
 10
311.2478723404242
 20
28.0
 30
0.0
1001
AcDbBlockRepETag
1070
     1
1071
      190
1005
544
  0
LINE
  5
545
330
4E7
100
AcDbEntity
  8
0
100
AcDbLine
 10
17.5
 20
10.0
 30
0.0
 11
17.5
 21
287.0
 31
0.0
1001
AcDbBlockRepETag
1070
     1
1071
       74
1005
545
  0
ENDBLK
  5
546
330
4E7
100
AcDbEntity
  8
0
100
AcDbBlockEnd
  0
BLOCK
  5
6F0
330
6ED
100
AcDbEntity
  8
0
100
AcDbBlockBegin
  2
JIS A4 title block (landscape)
 70
     2
 10
0.0
 20
0.0
 30
0.0
  3
JIS A4 title block (landscape)
  1

  4
JIS A3 title block and attributes
  0
LINE
  5
92E
330
6ED
100
AcDbEntity
  8
0
100
AcDbLine
 10
0.0
 20
297.0
 30
0.0
 11
25.0
 21
297.0
 31
0.0
1001
AcDbBlockRepETag
1070
     1
1071
       26
1005
92E
  0
LINE
  5
92F
330
6ED
100
AcDbEntity
  8
0
100
AcDbLine
 10
0.0
 20
287.0
 30
0.0
 11
0.0
 21
297.0
 31
0.0
1001
AcDbBlockRepETag
1070
     1
1071
       27
1005
92F
  0
LINE
  5
989
330
6ED
100
AcDbEntity
  8
0
100
AcDbLine
 10
279.5
 20
97.0
 30
0.0
 11
17.5
 21
97.0
 31
0.0
1001
AcDbBlockRepETag
1070
     1
1071
        0
1005
989
  0
LINE
  5
98A
330
6ED
100
AcDbEntity
  8
0
100
AcDbLine
 10
17.5
 20
287.0
 30
0.0
 11
279.5
 21
287.0
 31
0.0
1001
AcDbBlockRepETag
1070
     1
1071
        1
1005
98A
  0
LINE
  5
98B
330
6ED
100
AcDbEntity
  8
0
100
AcDbLine
 10
17.5
 20
97.0
 30
0.0
 11
17.5
 21
287.0
 31
0.0
1001
AcDbBlockRepETag
1070
     1
1071
        2
1005
98B
  0
LINE
  5
98C
330
6ED
100
AcDbEntity
  8
0
100
AcDbLine
 10
25.0
 20
87.0
 30
0.0
 11
0.0
 21
87.0
 31
0.0
1001
AcDbBlockRepETag
1070
     1
1071
        3
1005
98C
  0
LINE
  5
98D
330
6ED
100
AcDbEntity
  8
0
100
AcDbLine
 10
0.0
 20
87.0
 30
0.0
 11
0.0
 21
97.0
 31
0.0
1001
AcDbBlockRepETag
1070
     1
1071
        4
1005
98D
  0
LINE
  5
98E
330
6ED
100
AcDbEntity
  8
0
100
AcDbLine
 10
61.16666666666668
 20
97.0
 30
0.0
 11
61.16666666666668
 21
92.0
 31
0.0
1001
AcDbBlockRepETag
1070
     1
1071
        5
1005
98E
  0
TEXT
  5
98F
330
6ED
100
AcDbEntity
  8
0
100
AcDbText
 10
38.11904761904761
 20
93.23033810098564
 30
0.0
 40
3.0
  1
1
  7
Roman
 72
     1
 11
39.33333333333332
 21
93.23033810098564
 31
0.0
100
AcDbText
1001
AcDbBlockRepETag
1070
     1
1071
        6
1005
98F
  0
ATTDEF
  5
990
330
6ED
100
AcDbEntity
  8
0
 62
     0
100
AcDbText
 10
11.5
 20
97.0
 30
0.0
 40
3.0
  1

 50
90.0
  7
Roman
100
AcDbAttributeDefinition
  3
Author:
  2
USER
 70
     8
1001
AcDbBlockRepETag
1070
     1
1071
        7
1005
0
  0
TEXT
  5
991
330
6ED
100
AcDbEntity
  8
0
100
AcDbText
 10
13.87568307432493
 20
120.75
 30
0.0
 40
3.0
  1
D
  7
Roman
 72
     1
 11
15.4471116457535
 21
120.75
 31
0.0
100
AcDbText
1001
AcDbBlockRepETag
1070
     1
1071
        8
1005
991
  0
LINE
  5
992
330
6ED
100
AcDbEntity
  8
0
100
AcDbLine
 10
17.5
 20
192.0
 30
0.0
 11
0.0
 21
192.0
 31
0.0
1001
AcDbBlockRepETag
1070
     1
1071
        9
1005
992
  0
ATTDEF
  5
993
330
6ED
100
AcDbEntity
  8
0
 62
     0
100
AcDbText
 10
11.5
 20
157.0
 30
0.0
 40
3.0
  1

 50
90.0
  7
Roman
100
AcDbAttributeDefinition
  3
Revision date:
  2
REVDATE
 70
     8
1001
AcDbBlockRepETag
1070
     1
1071
       10
1005
0
  0
LINE
  5
994
330
6ED
100
AcDbEntity
  8
0
100
AcDbLine
 10
17.5
 20
144.5
 30
0.0
 11
12.5
 21
144.5
 31
0.0
1001
AcDbBlockRepETag
1070
     1
1071
       11
1005
994
  0
TEXT
  5
995
330
6ED
100
AcDbEntity
  8
0
100
AcDbText
 10
13.9471116457535
 20
168.25
 30
0.0
 40
3.0
  1
C
  7
Roman
 72
     1
 11
15.4471116457535
 21
168.25
 31
0.0
100
AcDbText
1001
AcDbBlockRepETag
1070
     1
1071
       12
1005
995
  0
ATTDEF
  5
996
330
6ED
100
AcDbEntity
  8
0
 62
     0
100
AcDbText
 10
11.5
 20
205.0
 30
0.0
 40
3.0
  1

 50
90.0
  7
Roman
100
AcDbAttributeDefinition
  3
File name:
  2
FNAME
 70
     8
1001
AcDbBlockRepETag
1070
     1
1071
       13
1005
0
  0
LINE
  5
997
330
6ED
100
AcDbEntity
  8
0
100
AcDbLine
 10
17.5
 20
192.0
 30
0.0
 11
12.5
 21
192.0
 31
0.0
1001
AcDbBlockRepETag
1070
     1
1071
       14
1005
997
  0
TEXT
  5
998
330
6ED
100
AcDbEntity
  8
0
100
AcDbText
 10
13.87568307432493
 20
215.75
 30
0.0
 40
3.0
  1
B
  7
Roman
 72
     1
 11
15.4471116457535
 21
215.75
 31
0.0
100
AcDbText
1001
AcDbBlockRepETag
1070
     1
1071
       15
1005
998
  0
LINE
  5
999
330
6ED
100
AcDbEntity
  8
0
100
AcDbLine
 10
104.8333333333333
 20
97.0
 30
0.0
 11
104.8333333333333
 21
92.0
 31
0.0
1001
AcDbBlockRepETag
1070
     1
1071
       16
1005
999
  0
TEXT
  5
99A
330
6ED
100
AcDbEntity
  8
0
100
AcDbText
 10
81.57142857142856
 20
93.23033810098564
 30
0.0
 40
3.0
  1
2
  7
Roman
 72
     1
 11
83.0
 21
93.23033810098564
 31
0.0
100
AcDbText
1001
AcDbBlockRepETag
1070
     1
1071
       17
1005
99A
  0
TEXT
  5
99B
330
6ED
100
AcDbEntity
  8
0
100
AcDbText
 10
125.2380952380953
 20
93.23033810098564
 30
0.0
 40
3.0
  1
3
  7
Roman
 72
     1
 11
126.6666666666667
 21
93.23033810098564
 31
0.0
100
AcDbText
1001
AcDbBlockRepETag
1070
     1
1071
       18
1005
99B
  0
LINE
  5
99C
330
6ED
100
AcDbEntity
  8
0
100
AcDbLine
 10
148.5
 20
97.0
 30
0.0
 11
148.5
 21
87.0
 31
0.0
1001
AcDbBlockRepETag
1070
     1
1071
       19
1005
99C
  0
LINE
  5
99D
330
6ED
100
AcDbEntity
  8
0
100
AcDbLine
 10
148.5
 20
97.0
 30
0.0
 11
148.5
 21
92.0
 31
0.0
1001
AcDbBlockRepETag
1070
     1
1071
       20
1005
99D
  0
LINE
  5
99E
330
6ED
100
AcDbEntity
  8
0
100
AcDbLine
 10
192.1666666666667
 20
97.0
 30
0.0
 11
192.1666666666667
 21
92.0
 31
0.0
1001
AcDbBlockRepETag
1070
     1
1071
       21
1005
99E
  0
TEXT
  5
99F
330
6ED
100
AcDbEntity
  8
0
100
AcDbText
 10
168.8333333333333
 20
93.23033810098564
 30
0.0
 40
3.0
  1
4
  7
Roman
 72
     1
 11
170.3333333333333
 21
93.23033810098564
 31
0.0
100
AcDbText
1001
AcDbBlockRepETag
1070
     1
1071
       22
1005
99F
  0
LINE
  5
9A0
330
6ED
100
AcDbEntity
  8
0
100
AcDbLine
 10
17.5
 20
239.5
 30
0.0
 11
12.5
 21
239.5
 31
0.0
1001
AcDbBlockRepETag
1070
     1
1071
       25
1005
9A0
  0
TEXT
  5
9A1
330
6ED
100
AcDbEntity
  8
0
100
AcDbText
 10
14.16139736003921
 20
263.25
 30
0.0
 40
3.0
  1
A
  7
Roman
 72
     1
 11
15.4471116457535
 21
263.25
 31
0.0
100
AcDbText
1001
AcDbBlockRepETag
1070
     1
1071
       75
1005
9A1
  0
TEXT
  5
9A2
330
6ED
100
AcDbEntity
  8
0
100
AcDbText
 10
38.11904761904761
 20
288.0
 30
0.0
 40
3.0
  1
1
  7
Roman
 72
     1
 11
39.33333333333332
 21
288.0
 31
0.0
100
AcDbText
1001
AcDbBlockRepETag
1070
     1
1071
       76
1005
9A2
  0
LINE
  5
9A3
330
6ED
100
AcDbEntity
  8
0
100
AcDbLine
 10
61.16666666666666
 20
287.0
 30
0.0
 11
61.16666666666666
 21
292.0
 31
0.0
1001
AcDbBlockRepETag
1070
     1
1071
       28
1005
9A3
  0
TEXT
  5
9A4
330
6ED
100
AcDbEntity
  8
0
100
AcDbText
 10
81.57142857142856
 20
288.0
 30
0.0
 40
3.0
  1
2
  7
Roman
 72
     1
 11
83.0
 21
288.0
 31
0.0
100
AcDbText
1001
AcDbBlockRepETag
1070
     1
1071
       29
1005
9A4
  0
LINE
  5
9A5
330
6ED
100
AcDbEntity
  8
0
100
AcDbLine
 10
104.8333333333333
 20
287.0
 30
0.0
 11
104.8333333333333
 21
292.0
 31
0.0
1001
AcDbBlockRepETag
1070
     1
1071
       30
1005
9A5
  0
TEXT
  5
9A6
330
6ED
100
AcDbEntity
  8
0
100
AcDbText
 10
125.2380952380953
 20
288.0
 30
0.0
 40
3.0
  1
3
  7
Roman
 72
     1
 11
126.6666666666667
 21
288.0
 31
0.0
100
AcDbText
1001
AcDbBlockRepETag
1070
     1
1071
       31
1005
9A6
  0
TEXT
  5
9A7
330
6ED
100
AcDbEntity
  8
0
100
AcDbText
 10
168.8333333333333
 20
288.0
 30
0.0
 40
3.0
  1
4
  7
Roman
 72
     1
 11
170.3333333333333
 21
288.0
 31
0.0
100
AcDbText
1001
AcDbBlockRepETag
1070
     1
1071
       32
1005
9A7
  0
LINE
  5
9A8
330
6ED
100
AcDbEntity
  8
0
100
AcDbLine
 10
148.5
 20
287.0
 30
0.0
 11
148.5
 21
297.0
 31
0.0
1001
AcDbBlockRepETag
1070
     1
1071
       33
1005
9A8
  0
LINE
  5
9A9
330
6ED
100
AcDbEntity
  8
0
100
AcDbLine
 10
148.5
 20
287.0
 30
0.0
 11
148.5
 21
292.0
 31
0.0
1001
AcDbBlockRepETag
1070
     1
1071
       34
1005
9A9
  0
LINE
  5
9AA
330
6ED
100
AcDbEntity
  8
0
100
AcDbLine
 10
192.1666666666666
 20
287.0
 30
0.0
 11
192.1666666666666
 21
292.0
 31
0.0
1001
AcDbBlockRepETag
1070
     1
1071
       35
1005
9AA
  0
LINE
  5
9AB
330
6ED
100
AcDbEntity
  8
0
100
AcDbLine
 10
279.5
 20
287.0
 30
0.0
 11
279.5
 21
97.0
 31
0.0
1001
AcDbBlockRepETag
1070
     1
1071
       36
1005
9AB
  0
LINE
  5
9AC
330
6ED
100
AcDbEntity
  8
0
100
AcDbLine
 10
235.8333333333334
 20
97.0
 30
0.0
 11
235.8333333333334
 21
92.0
 31
0.0
1001
AcDbBlockRepETag
1070
     1
1071
       37
1005
9AC
  0
TEXT
  5
9AD
330
6ED
100
AcDbEntity
  8
0
100
AcDbText
 10
212.5714285714286
 20
93.23033810098564
 30
0.0
 40
3.0
  1
5
  7
Roman
 72
     1
 11
214.0
 21
93.23033810098564
 31
0.0
100
AcDbText
1001
AcDbBlockRepETag
1070
     1
1071
       38
1005
9AD
  0
TEXT
  5
9AE
330
6ED
100
AcDbEntity
  8
0
100
AcDbText
 10
256.1666666666667
 20
93.23033810098564
 30
0.0
 40
3.0
  1
6
  7
Roman
 72
     1
 11
257.6666666666667
 21
93.23033810098564
 31
0.0
100
AcDbText
1001
AcDbBlockRepETag
1070
     1
1071
       39
1005
9AE
  0
LINE
  5
9AF
330
6ED
100
AcDbEntity
  8
0
100
AcDbLine
 10
297.0
 20
97.0
 30
0.0
 11
297.0
 21
87.0
 31
0.0
1001
AcDbBlockRepETag
1070
     1
1071
       40
1005
9AF
  0
LINE
  5
9B0
330
6ED
100
AcDbEntity
  8
0
100
AcDbLine
 10
297.0
 20
87.0
 30
0.0
 11
287.0
 21
87.0
 31
0.0
1001
AcDbBlockRepETag
1070
     1
1071
       41
1005
9B0
  0
TEXT
  5
9B1
330
6ED
100
AcDbEntity
  8
0
100
AcDbText
 10
280.1673438822666
 20
120.75
 30
0.0
 40
3.0
  1
D
  7
Roman
 72
     1
 11
281.7387724536952
 21
120.75
 31
0.0
100
AcDbText
1001
AcDbBlockRepETag
1070
     1
1071
       42
1005
9B1
  0
LINE
  5
9B2
330
6ED
100
AcDbEntity
  8
0
100
AcDbLine
 10
279.5
 20
144.5
 30
0.0
 11
284.5
 21
144.5
 31
0.0
1001
AcDbBlockRepETag
1070
     1
1071
       43
1005
9B2
  0
TEXT
  5
9B3
330
6ED
100
AcDbEntity
  8
0
100
AcDbText
 10
280.2387724536952
 20
168.25
 30
0.0
 40
3.0
  1
C
  7
Roman
 72
     1
 11
281.7387724536952
 21
168.25
 31
0.0
100
AcDbText
1001
AcDbBlockRepETag
1070
     1
1071
       44
1005
9B3
  0
LINE
  5
9B4
330
6ED
100
AcDbEntity
  8
0
100
AcDbLine
 10
279.5
 20
192.0
 30
0.0
 11
297.0
 21
192.0
 31
0.0
1001
AcDbBlockRepETag
1070
     1
1071
       45
1005
9B4
  0
LINE
  5
9B5
330
6ED
100
AcDbEntity
  8
0
100
AcDbLine
 10
279.5
 20
192.0
 30
0.0
 11
284.5
 21
192.0
 31
0.0
1001
AcDbBlockRepETag
1070
     1
1071
       46
1005
9B5
  0
TEXT
  5
9B6
330
6ED
100
AcDbEntity
  8
0
100
AcDbText
 10
280.1673438822666
 20
215.75
 30
0.0
 40
3.0
  1
B
  7
Roman
 72
     1
 11
281.7387724536952
 21
215.75
 31
0.0
100
AcDbText
1001
AcDbBlockRepETag
1070
     1
1071
       47
1005
9B6
  0
TEXT
  5
9B7
330
6ED
100
AcDbEntity
  8
0
100
AcDbText
 10
212.5714285714286
 20
288.0
 30
0.0
 40
3.0
  1
5
  7
Roman
 72
     1
 11
214.0
 21
288.0
 31
0.0
100
AcDbText
1001
AcDbBlockRepETag
1070
     1
1071
       48
1005
9B7
  0
LINE
  5
9B8
330
6ED
100
AcDbEntity
  8
0
100
AcDbLine
 10
235.8333333333333
 20
287.0
 30
0.0
 11
235.8333333333333
 21
292.0
 31
0.0
1001
AcDbBlockRepETag
1070
     1
1071
       49
1005
9B8
  0
TEXT
  5
9B9
330
6ED
100
AcDbEntity
  8
0
100
AcDbText
 10
256.1666666666667
 20
288.0
 30
0.0
 40
3.0
  1
6
  7
Roman
 72
     1
 11
257.6666666666667
 21
288.0
 31
0.0
100
AcDbText
1001
AcDbBlockRepETag
1070
     1
1071
       50
1005
9B9
  0
LINE
  5
9BA
330
6ED
100
AcDbEntity
  8
0
100
AcDbLine
 10
279.5
 20
239.5
 30
0.0
 11
284.5
 21
239.5
 31
0.0
1001
AcDbBlockRepETag
1070
     1
1071
       51
1005
9BA
  0
TEXT
  5
9BB
330
6ED
100
AcDbEntity
  8
0
100
AcDbText
 10
280.4530581679809
 20
263.25
 30
0.0
 40
3.0
  1
A
  7
Roman
 72
     1
 11
281.7387724536952
 21
263.25
 31
0.0
100
AcDbText
1001
AcDbBlockRepETag
1070
     1
1071
       52
1005
9BB
  0
LINE
  5
9BC
330
6ED
100
AcDbEntity
  8
0
100
AcDbLine
 10
287.0
 20
297.0
 30
0.0
 11
297.0
 21
297.0
 31
0.0
1001
AcDbBlockRepETag
1070
     1
1071
       53
1005
9BC
  0
LINE
  5
9BD
330
6ED
100
AcDbEntity
  8
0
100
AcDbLine
 10
297.0
 20
297.0
 30
0.0
 11
297.0
 21
287.0
 31
0.0
1001
AcDbBlockRepETag
1070
     1
1071
       54
1005
9BD
  0
LINE
  5
9BE
330
6ED
100
AcDbEntity
  8
0
100
AcDbLine
 10
163.4978723404242
 20
97.0
 30
0.0
 11
163.4978723404242
 21
97.0
 31
0.0
1001
AcDbBlockRepETag
1070
     1
1071
      161
1005
9BE
  0
LINE
  5
9BF
330
6ED
100
AcDbEntity
  8
0
100
AcDbLine
 10
162.4978723404242
 20
97.0
 30
0.0
 11
162.4978723404242
 21
133.0
 31
0.0
1001
AcDbBlockRepETag
1070
     1
1071
      162
1005
9BF
  0
LINE
  5
9C0
330
6ED
100
AcDbEntity
  8
0
100
AcDbLine
 10
279.4978723404242
 20
106.0
 30
0.0
 11
162.4978723404242
 21
106.0
 31
0.0
1001
AcDbBlockRepETag
1070
     1
1071
      166
1005
9C0
  0
LINE
  5
9C1
330
6ED
100
AcDbEntity
  8
0
100
AcDbLine
 10
213.4978723404242
 20
97.0
 30
0.0
 11
213.4978723404242
 21
106.0
 31
0.0
1001
AcDbBlockRepETag
1070
     1
1071
      167
1005
9C1
  0
LINE
  5
9C2
330
6ED
100
AcDbEntity
  8
0
100
AcDbLine
 10
202.4978723404242
 20
115.0
 30
0.0
 11
162.4978723404242
 21
115.0
 31
0.0
1001
AcDbBlockRepETag
1070
     1
1071
      168
1005
9C2
  0
LINE
  5
9C3
330
6ED
100
AcDbEntity
  8
0
100
AcDbLine
 10
279.4978723404242
 20
124.0
 30
0.0
 11
162.4978723404242
 21
124.0
 31
0.0
1001
AcDbBlockRepETag
1070
     1
1071
      169
1005
9C3
  0
LINE
  5
9C4
330
6ED
100
AcDbEntity
  8
0
100
AcDbLine
 10
279.4978723404242
 20
133.0
 30
0.0
 11
162.4978723404242
 21
133.0
 31
0.0
1001
AcDbBlockRepETag
1070
     1
1071
      170
1005
9C4
  0
MTEXT
  5
9C5
330
6ED
100
AcDbEntity
  8
0
100
AcDbMText
 10
187.997872340424
 20
101.5
 30
0.0
 40
4.0
 41
51.0
 71
     5
 72
     5
  1
富国石油株式会社
 73
     1
 44
1.0
1001
AcDbBlockRepETag
1070
     1
1071
      171
1005
9C5
1001
ACAD
1000
MTEXTBEGIN
1070
    73
1070
     1
1070
    44
1040
1.0
1070
    74
1070
     0
1000
MTEXTEND
  0
MTEXT
  5
9C6
102
{ACAD_XDICTIONARY
360
775D
102
}
330
6ED
100
AcDbEntity
  8
0
100
AcDbMText
 10
165.4779634407957
 20
110.5
 30
0.0
 40
2.0
 41
3.96018220074299
 71
     5
 72
     5
  1
検\P図
 73
     1
 44
1.0
1001
AcDbBlockRepETag
1070
     1
1071
      172
1005
9C6
1001
ACAD
1000
MTEXTBEGIN
1070
    73
1070
     1
1070
    44
1040
1.0
1070
    74
1070
     0
1000
MTEXTEND
1000
ACAD_MTEXT_DEFINED_HEIGHT_BEGIN
1070
    46
1040
9.0
1000
ACAD_MTEXT_DEFINED_HEIGHT_END
  0
MTEXT
  5
9C7
330
6ED
100
AcDbEntity
  8
0
100
AcDbMText
 10
165.4779634407957
 20
119.5
 30
0.0
 40
2.0
 41
3.96018220074299
 71
     5
 72
     5
  1
確\P認
 73
     1
 44
1.0
1001
AcDbBlockRepETag
1070
     1
1071
      173
1005
9C7
1001
ACAD
1000
MTEXTBEGIN
1070
    73
1070
     1
1070
    44
1040
1.0
1070
    74
1070
     0
1000
MTEXTEND
1000
ACAD_MTEXT_DEFINED_HEIGHT_BEGIN
1070
    46
1040
9.0
1000
ACAD_MTEXT_DEFINED_HEIGHT_END
  0
MTEXT
  5
9C8
330
6ED
100
AcDbEntity
  8
0
100
AcDbMText
 10
165.4779634407957
 20
128.5
 30
0.0
 40
2.0
 41
3.96018220074299
 71
     5
 72
     5
  1
縮\P尺
 73
     1
 44
1.0
1001
AcDbBlockRepETag
1070
     1
1071
      174
1005
9C8
1001
ACAD
1000
MTEXTBEGIN
1070
    73
1070
     1
1070
    44
1040
1.0
1070
    74
1070
     0
1000
MTEXTEND
1000
ACAD_MTEXT_DEFINED_HEIGHT_BEGIN
1070
    46
1040
9.0
1000
ACAD_MTEXT_DEFINED_HEIGHT_END
  0
LINE
  5
9C9
330
6ED
100
AcDbEntity
  8
0
100
AcDbLine
 10
182.4978723404242
 20
106.0
 30
0.0
 11
182.4978723404242
 21
133.0
 31
0.0
1001
AcDbBlockRepETag
1070
     1
1071
      175
1005
9C9
  0
LINE
  5
9CA
330
6ED
100
AcDbEntity
  8
0
100
AcDbLine
 10
202.4978723404242
 20
106.0
 30
0.0
 11
202.4978723404242
 21
133.0
 31
0.0
1001
AcDbBlockRepETag
1070
     1
1071
      176
1005
9CA
  0
LINE
  5
9CB
330
6ED
100
AcDbEntity
  8
0
100
AcDbLine
 10
234.4978723404242
 20
124.0
 30
0.0
 11
234.4978723404242
 21
133.0
 31
0.0
1001
AcDbBlockRepETag
1070
     1
1071
      194
1005
9CB
  0
MTEXT
  5
9CC
330
6ED
100
AcDbEntity
  8
0
100
AcDbMText
 10
185.4779634407956
 20
119.5
 30
0.0
 40
2.0
 41
3.96018220074299
 71
     5
 72
     5
  1
設\P計
 73
     1
 44
1.0
1001
AcDbBlockRepETag
1070
     1
1071
      177
1005
9CC
1001
ACAD
1000
MTEXTBEGIN
1070
    73
1070
     1
1070
    44
1040
1.0
1070
    74
1070
     0
1000
MTEXTEND
1000
ACAD_MTEXT_DEFINED_HEIGHT_BEGIN
1070
    46
1040
9.0
1000
ACAD_MTEXT_DEFINED_HEIGHT_END
  0
MTEXT
  5
9CD
330
6ED
100
AcDbEntity
  8
0
100
AcDbMText
 10
185.4779634407956
 20
110.5
 30
0.0
 40
2.0
 41
3.96018220074299
 71
     5
 72
     5
  1
製\P図
 73
     1
 44
1.0
1001
AcDbBlockRepETag
1070
     1
1071
      178
1005
9CD
1001
ACAD
1000
MTEXTBEGIN
1070
    73
1070
     1
1070
    44
1040
1.0
1070
    74
1070
     0
1000
MTEXTEND
1000
ACAD_MTEXT_DEFINED_HEIGHT_BEGIN
1070
    46
1040
9.0
1000
ACAD_MTEXT_DEFINED_HEIGHT_END
  0
MTEXT
  5
9CE
330
6ED
100
AcDbEntity
  8
0
100
AcDbMText
 10
205.4779634407957
 20
128.5
 30
0.0
 40
2.0
 41
3.96018220074299
 71
     5
 72
     5
  1
材\P料
 73
     1
 44
1.0
1001
AcDbBlockRepETag
1070
     1
1071
      179
1005
9CE
1001
ACAD
1000
MTEXTBEGIN
1070
    73
1070
     1
1070
    44
1040
1.0
1070
    74
1070
     0
1000
MTEXTEND
1000
ACAD_MTEXT_DEFINED_HEIGHT_BEGIN
1070
    46
1040
9.0
1000
ACAD_MTEXT_DEFINED_HEIGHT_END
  0
LINE
  5
9CF
330
6ED
100
AcDbEntity
  8
0
  6
HIDDEN2
 48
0.5
100
AcDbLine
 10
279.4978723404242
 20
119.5
 30
0.0
 11
202.4978723404242
 21
119.5
 31
0.0
1001
AcDbBlockRepETag
1070
     1
1071
      180
1005
9CF
  0
POINT
  5
9D0
330
6ED
100
AcDbEntity
  8
0
100
AcDbPoint
 10
188.2478723404242
 20
124.0
 30
0.0
1001
AcDbBlockRepETag
1070
     1
1071
      189
1005
9D0
  0
POINT
  5
9D1
330
6ED
100
AcDbEntity
  8
0
100
AcDbPoint
 10
188.2478723404242
 20
115.0
 30
0.0
1001
AcDbBlockRepETag
1070
     1
1071
      190
1005
9D1
  0
ENDBLK
  5
74C
330
6ED
100
AcDbEntity
  8
0
100
AcDbBlockEnd
  0
BLOCK
  5
674D
330
6743
100
AcDbEntity
  8
0
100
AcDbBlockBegin
  2
*D4
 70
     1
 10
0.0
 20
0.0
 30
0.0
  3
*D4
  1

  0
LINE
  5
686F
330
6743
100
AcDbEntity
  8
Dims
 62
     0
370
    -2
100
AcDbLine
 10
-5.868901910480642
 20
1838.031452436354
 30
0.0
 11
-5.868901910480644
 21
1815.632245318549
 31
0.0
  0
LINE
  5
6870
330
6743
100
AcDbEntity
  8
Dims
 62
     0
370
    -2
100
AcDbLine
 10
-30.86890191048043
 20
1836.031452436354
 30
0.0
 11
-30.86890191048043
 21
1815.632245318549
 31
0.0
  0
LINE
  5
6871
330
6743
100
AcDbEntity
  8
Dims
 62
     0
370
    -2
100
AcDbLine
 10
-9.868901910480646
 20
1816.632245318549
 30
0.0
 11
-26.86890191048043
 21
1816.632245318549
 31
0.0
  0
INSERT
  5
6872
330
6743
100
AcDbEntity
  8
Dims
 62
     0
370
    -2
100
AcDbBlockReference
  2
_Open30
 10
-5.868901910480644
 20
1816.632245318549
 30
0.0
 41
4.0
 42
4.0
 43
4.0
  0
INSERT
  5
6873
330
6743
100
AcDbEntity
  8
Dims
 62
     0
370
    -2
100
AcDbBlockReference
  2
_Open30
 10
-30.86890191048043
 20
1816.632245318549
 30
0.0
 41
4.0
 42
4.0
 43
4.0
 50
180.0
  0
MTEXT
  5
6874
330
6743
100
AcDbEntity
  8
Dims
 62
     0
100
AcDbMText
 10
-18.36890191048053
 20
1820.632245318549
 30
0.0
 40
5.0
 41
0.0
 71
     5
 72
     1
  1
\A1;Ｄ
 73
     1
 44
1.0
1001
ACAD
1000
MTEXTBEGIN
1070
    73
1070
     1
1070
    44
1040
1.0
1070
    74
1070
     0
1000
MTEXTEND
  0
POINT
  5
6875
330
6743
100
AcDbEntity
  8
Defpoints
 62
     0
100
AcDbPoint
 10
-5.868901910480642
 20
1839.031452436353
 30
0.0
  0
POINT
  5
6876
330
6743
100
AcDbEntity
  8
Defpoints
 62
     0
100
AcDbPoint
 10
-30.86890191048043
 20
1837.031452436353
 30
0.0
  0
POINT
  5
6877
330
6743
100
AcDbEntity
  8
Defpoints
 62
     0
100
AcDbPoint
 10
-30.86890191048043
 20
1816.632245318549
 30
0.0
  0
ENDBLK
  5
674E
330
6743
100
AcDbEntity
  8
0
100
AcDbBlockEnd
  0
BLOCK
  5
6759
330
674F
100
AcDbEntity
  8
0
100
AcDbBlockBegin
  2
*D5
 70
     1
 10
0.0
 20
0.0
 30
0.0
  3
*D5
  1

  0
LINE
  5
684B
330
674F
100
AcDbEntity
  8
Dims
 62
     0
370
    -2
100
AcDbLine
 10
-74.37987736546938
 20
1846.031452436353
 30
0.0
 11
-74.37987736546938
 21
1891.945615123645
 31
0.0
  0
LINE
  5
684C
330
674F
100
AcDbEntity
  8
Dims
 62
     0
370
    -2
100
AcDbLine
 10
-104.3798773654692
 20
1854.031452436354
 30
0.0
 11
-104.3798773654692
 21
1891.945615123645
 31
0.0
  0
LINE
  5
684D
330
674F
100
AcDbEntity
  8
Dims
 62
     0
370
    -2
100
AcDbLine
 10
-78.37987736546939
 20
1890.945615123645
 30
0.0
 11
-100.3798773654692
 21
1890.945615123645
 31
0.0
  0
INSERT
  5
684E
330
674F
100
AcDbEntity
  8
Dims
 62
     0
370
    -2
100
AcDbBlockReference
  2
_Open30
 10
-74.37987736546938
 20
1890.945615123645
 30
0.0
 41
4.0
 42
4.0
 43
4.0
  0
INSERT
  5
684F
330
674F
100
AcDbEntity
  8
Dims
 62
     0
370
    -2
100
AcDbBlockReference
  2
_Open30
 10
-104.3798773654692
 20
1890.945615123645
 30
0.0
 41
4.0
 42
4.0
 43
4.0
 50
180.0
  0
MTEXT
  5
6850
330
674F
100
AcDbEntity
  8
Dims
 62
     0
100
AcDbMText
 10
-89.37987736546933
 20
1894.945615123645
 30
0.0
 40
5.0
 41
0.0
 71
     5
 72
     1
  1
\A1;Ｇ
 73
     1
 44
1.0
1001
ACAD
1000
MTEXTBEGIN
1070
    73
1070
     1
1070
    44
1040
1.0
1070
    74
1070
     0
1000
MTEXTEND
  0
POINT
  5
6851
330
674F
100
AcDbEntity
  8
Defpoints
 62
     0
100
AcDbPoint
 10
-74.37987736546938
 20
1845.031452436353
 30
0.0
  0
POINT
  5
6852
330
674F
100
AcDbEntity
  8
Defpoints
 62
     0
100
AcDbPoint
 10
-104.3798773654692
 20
1853.031452436353
 30
0.0
  0
POINT
  5
6853
330
674F
100
AcDbEntity
  8
Defpoints
 62
     0
100
AcDbPoint
 10
-104.3798773654692
 20
1890.945615123645
 30
0.0
  0
ENDBLK
  5
675A
330
674F
100
AcDbEntity
  8
0
100
AcDbBlockEnd
  0
BLOCK
  5
6765
330
675B
100
AcDbEntity
  8
0
100
AcDbBlockBegin
  2
*D6
 70
     1
 10
0.0
 20
0.0
 30
0.0
  3
*D6
  1

  0
LINE
  5
6842
330
675B
100
AcDbEntity
  8
Dims
 62
     0
370
    -2
100
AcDbLine
 10
-134.3798773654691
 20
1846.031452436353
 30
0.0
 11
-134.3798773654691
 21
1891.945615123645
 31
0.0
  0
LINE
  5
6843
330
675B
100
AcDbEntity
  8
Dims
 62
     0
370
    -2
100
AcDbLine
 10
-104.3798773654692
 20
1854.031452436354
 30
0.0
 11
-104.3798773654692
 21
1891.945615123645
 31
0.0
  0
LINE
  5
6844
330
675B
100
AcDbEntity
  8
Dims
 62
     0
370
    -2
100
AcDbLine
 10
-130.3798773654691
 20
1890.945615123645
 30
0.0
 11
-108.3798773654693
 21
1890.945615123645
 31
0.0
  0
INSERT
  5
6845
330
675B
100
AcDbEntity
  8
Dims
 62
     0
370
    -2
100
AcDbBlockReference
  2
_Open30
 10
-134.3798773654691
 20
1890.945615123645
 30
0.0
 41
4.0
 42
4.0
 43
4.0
 50
180.0
  0
INSERT
  5
6846
330
675B
100
AcDbEntity
  8
Dims
 62
     0
370
    -2
100
AcDbBlockReference
  2
_Open30
 10
-104.3798773654692
 20
1890.945615123645
 30
0.0
 41
4.0
 42
4.0
 43
4.0
  0
MTEXT
  5
6847
330
675B
100
AcDbEntity
  8
Dims
 62
     0
100
AcDbMText
 10
-119.3798773654692
 20
1894.945615123645
 30
0.0
 40
5.0
 41
0.0
 71
     5
 72
     1
  1
\A1;Ｇ
 73
     1
 44
1.0
1001
ACAD
1000
MTEXTBEGIN
1070
    73
1070
     1
1070
    44
1040
1.0
1070
    74
1070
     0
1000
MTEXTEND
  0
POINT
  5
6848
330
675B
100
AcDbEntity
  8
Defpoints
 62
     0
100
AcDbPoint
 10
-134.3798773654691
 20
1845.031452436353
 30
0.0
  0
POINT
  5
6849
330
675B
100
AcDbEntity
  8
Defpoints
 62
     0
100
AcDbPoint
 10
-104.3798773654692
 20
1853.031452436353
 30
0.0
  0
POINT
  5
684A
330
675B
100
AcDbEntity
  8
Defpoints
 62
     0
100
AcDbPoint
 10
-104.3798773654692
 20
1890.945615123645
 30
0.0
  0
ENDBLK
  5
6766
330
675B
100
AcDbEntity
  8
0
100
AcDbBlockEnd
  0
BLOCK
  5
6771
330
6767
100
AcDbEntity
  8
0
100
AcDbBlockBegin
  2
*D7
 70
     1
 10
0.0
 20
0.0
 30
0.0
  3
*D7
  1

  0
LINE
  5
6A12
330
6767
100
AcDbEntity
  8
Dims
 62
     0
370
    -2
100
AcDbLine
 10
-105.3798773654692
 20
1848.017611781601
 30
0.0
 11
-149.4188094475121
 21
1848.017611781601
 31
0.0
  0
LINE
  5
6A13
330
6767
100
AcDbEntity
  8
Dims
 62
     0
370
    -2
100
AcDbLine
 10
-112.8798773654694
 20
1877.731452436353
 30
0.0
 11
-149.4188094475121
 21
1877.731452436353
 31
0.0
  0
LINE
  5
6A14
330
6767
100
AcDbEntity
  8
Dims
 62
     0
370
    -2
100
AcDbLine
 10
-148.4188094475121
 20
1852.017611781601
 30
0.0
 11
-148.4188094475121
 21
1873.731452436354
 31
0.0
  0
MTEXT
  5
6A15
330
6767
100
AcDbEntity
  8
Dims
 62
     0
100
AcDbMText
 10
-152.5191731809686
 20
1863.40909721299
 30
0.0
 40
5.0
 41
0.0
 71
     5
 72
     1
  1
\A1;Ｃ
 11
0.9999999998476914
 21
-0.000017453292519
 31
0.0
 73
     1
 44
1.0
1001
ACAD
1000
MTEXTBEGIN
1070
    73
1070
     1
1070
    44
1040
1.0
1070
    74
1070
     0
1000
MTEXTEND
  0
INSERT
  5
6A16
330
6767
100
AcDbEntity
  8
Dims
 62
     0
370
    -2
100
AcDbBlockReference
  2
_Open30
 10
-148.4188094475121
 20
1848.017611781601
 30
0.0
 41
4.0
 42
4.0
 43
4.0
 50
270.0
  0
INSERT
  5
6A17
330
6767
100
AcDbEntity
  8
Dims
 62
     0
370
    -2
100
AcDbBlockReference
  2
_Open30
 10
-148.4188094475121
 20
1877.731452436353
 30
0.0
 41
4.0
 42
4.0
 43
4.0
 50
90.0
  0
POINT
  5
6A18
330
6767
100
AcDbEntity
  8
Defpoints
 62
     0
100
AcDbPoint
 10
-104.3798773654692
 20
1848.017611781601
 30
0.0
  0
POINT
  5
6A19
330
6767
100
AcDbEntity
  8
Defpoints
 62
     0
100
AcDbPoint
 10
-111.8798773654694
 20
1877.731452436353
 30
0.0
  0
POINT
  5
6A1A
330
6767
100
AcDbEntity
  8
Defpoints
 62
     0
100
AcDbPoint
 10
-148.4188094475121
 20
1877.731452436353
 30
0.0
  0
ENDBLK
  5
6772
330
6767
100
AcDbEntity
  8
0
100
AcDbBlockEnd
  0
BLOCK
  5
677D
330
6773
100
AcDbEntity
  8
0
100
AcDbBlockBegin
  2
*D8
 70
     1
 10
0.0
 20
0.0
 30
0.0
  3
*D8
  1

  0
LINE
  5
6A24
330
6773
100
AcDbEntity
  8
Dims
 62
     0
370
    -2
100
AcDbLine
 10
-104.8798773654692
 20
1848.017611781601
 30
0.0
 11
-149.4188094475121
 21
1848.017611781601
 31
0.0
  0
LINE
  5
6A25
330
6773
100
AcDbEntity
  8
Dims
 62
     0
370
    -2
100
AcDbLine
 10
-105.3962739774884
 20
1785.031519649704
 30
0.0
 11
-149.4188094475121
 21
1785.031519649704
 31
0.0
  0
LINE
  5
6A26
330
6773
100
AcDbEntity
  8
Dims
 62
     0
370
    -2
100
AcDbLine
 10
-148.4188094475121
 20
1844.017611781601
 30
0.0
 11
-148.4188094475121
 21
1789.031519649704
 31
0.0
  0
MTEXT
  5
6A27
330
6773
100
AcDbEntity
  8
Dims
 62
     0
100
AcDbMText
 10
-152.2825948569886
 20
1819.652757446463
 30
0.0
 40
5.0
 41
0.0
 71
     5
 72
     1
  1
\A1;Ｂ
 11
0.9999999998476914
 21
-0.000017453292519
 31
0.0
 73
     1
 44
1.0
1001
ACAD
1000
MTEXTBEGIN
1070
    73
1070
     1
1070
    44
1040
1.0
1070
    74
1070
     0
1000
MTEXTEND
  0
INSERT
  5
6A28
330
6773
100
AcDbEntity
  8
Dims
 62
     0
370
    -2
100
AcDbBlockReference
  2
_Open30
 10
-148.4188094475121
 20
1848.017611781601
 30
0.0
 41
4.0
 42
4.0
 43
4.0
 50
90.0
  0
INSERT
  5
6A29
330
6773
100
AcDbEntity
  8
Dims
 62
     0
370
    -2
100
AcDbBlockReference
  2
_Open30
 10
-148.4188094475121
 20
1785.031519649704
 30
0.0
 41
4.0
 42
4.0
 43
4.0
 50
270.0
  0
POINT
  5
6A2A
330
6773
100
AcDbEntity
  8
Defpoints
 62
     0
100
AcDbPoint
 10
-103.8798773654692
 20
1848.017611781601
 30
0.0
  0
POINT
  5
6A2B
330
6773
100
AcDbEntity
  8
Defpoints
 62
     0
100
AcDbPoint
 10
-104.3962739774884
 20
1785.031519649704
 30
0.0
  0
POINT
  5
6A2C
330
6773
100
AcDbEntity
  8
Defpoints
 62
     0
100
AcDbPoint
 10
-148.4188094475121
 20
1785.031519649704
 30
0.0
  0
ENDBLK
  5
677E
330
6773
100
AcDbEntity
  8
0
100
AcDbBlockEnd
  0
BLOCK
  5
6789
330
677F
100
AcDbEntity
  8
0
100
AcDbBlockBegin
  2
*D9
 70
     1
 10
0.0
 20
0.0
 30
0.0
  3
*D9
  1

  0
LINE
  5
6A36
330
677F
100
AcDbEntity
  8
Dims
 62
     0
370
    -2
100
AcDbLine
 10
-105.3962739774884
 20
1785.031519649704
 30
0.0
 11
-160.8549027113018
 21
1785.031519649704
 31
0.0
  0
LINE
  5
6A37
330
677F
100
AcDbEntity
  8
Dims
 62
     0
370
    -2
100
AcDbLine
 10
-112.8798773654694
 20
1877.731452436353
 30
0.0
 11
-160.8549027113017
 21
1877.731452436353
 31
0.0
  0
LINE
  5
6A38
330
677F
100
AcDbEntity
  8
Dims
 62
     0
370
    -2
100
AcDbLine
 10
-159.8549027113018
 20
1789.031519649704
 30
0.0
 11
-159.8549027113017
 21
1873.731452436354
 31
0.0
  0
MTEXT
  5
6A39
330
677F
100
AcDbEntity
  8
Dims
 62
     0
100
AcDbMText
 10
-164.3480930584996
 20
1830.296191443727
 30
0.0
 40
5.0
 41
0.0
 71
     5
 72
     1
  1
\A1;Ａ
 11
0.9999999998476914
 21
-0.000017453292519
 31
0.0
 73
     1
 44
1.0
1001
ACAD
1000
MTEXTBEGIN
1070
    73
1070
     1
1070
    44
1040
1.0
1070
    74
1070
     0
1000
MTEXTEND
  0
INSERT
  5
6A3A
330
677F
100
AcDbEntity
  8
Dims
 62
     0
370
    -2
100
AcDbBlockReference
  2
_Open30
 10
-159.8549027113018
 20
1785.031519649704
 30
0.0
 41
4.0
 42
4.0
 43
4.0
 50
270.0
  0
INSERT
  5
6A3B
330
677F
100
AcDbEntity
  8
Dims
 62
     0
370
    -2
100
AcDbBlockReference
  2
_Open30
 10
-159.8549027113017
 20
1877.731452436353
 30
0.0
 41
4.0
 42
4.0
 43
4.0
 50
90.0
  0
POINT
  5
6A3C
330
677F
100
AcDbEntity
  8
Defpoints
 62
     0
100
AcDbPoint
 10
-104.3962739774884
 20
1785.031519649704
 30
0.0
  0
POINT
  5
6A3D
330
677F
100
AcDbEntity
  8
Defpoints
 62
     0
100
AcDbPoint
 10
-111.8798773654694
 20
1877.731452436353
 30
0.0
  0
POINT
  5
6A3E
330
677F
100
AcDbEntity
  8
Defpoints
 62
     0
100
AcDbPoint
 10
-159.8549027113017
 20
1877.731452436353
 30
0.0
  0
ENDBLK
  5
678A
330
677F
100
AcDbEntity
  8
0
100
AcDbBlockEnd
  0
BLOCK
  5
6794
330
678B
100
AcDbEntity
  8
0
100
AcDbBlockBegin
  2
*D10
 70
     1
 10
0.0
 20
0.0
 30
0.0
  3
*D10
  1

  0
LINE
  5
6A69
330
678B
100
AcDbEntity
  8
Dims
 62
     0
370
    -2
100
AcDbLine
 10
24.64376715021558
 20
1813.461665116373
 30
0.0
 11
2.502254755827606
 21
1835.649566389381
 31
0.0
  0
LINE
  5
6A6A
330
678B
100
AcDbEntity
  8
Dims
 62
     0
370
    -2
100
AcDbLine
 10
-7.740058576789351
 20
1845.913338483328
 30
0.0
 11
-10.56552432371813
 21
1848.744723888555
 31
0.0
  0
MTEXT
  5
6A6B
330
678B
100
AcDbEntity
  8
Dims
 62
     0
100
AcDbMText
 10
25.19649331410619
 20
1818.570564143786
 30
0.0
 40
5.0
 41
0.0
 71
     5
 72
     1
  1
\A1;Ｆ
 11
0.7063664367321999
 21
-0.7078463513067331
 31
0.0
 73
     1
 44
1.0
1001
ACAD
1000
MTEXTBEGIN
1070
    73
1070
     1
1070
    44
1040
1.0
1070
    74
1070
     0
1000
MTEXTEND
  0
LINE
  5
6A6C
330
678B
100
AcDbEntity
  8
Dims
 62
     0
370
    -2
100
AcDbLine
 10
-4.914592829860565
 20
1843.081953078101
 30
0.0
 11
-0.3232109911011776
 21
1838.480951794608
 31
0.0
  0
INSERT
  5
6A6D
330
678B
100
AcDbEntity
  8
Dims
 62
     0
370
    -2
100
AcDbBlockReference
  2
_Open30
 10
-4.914592829860565
 20
1843.081953078101
 30
0.0
 41
4.0
 42
4.0
 43
4.0
 50
314.9400423833483
  0
INSERT
  5
6A6E
330
678B
100
AcDbEntity
  8
Dims
 62
     0
370
    -2
100
AcDbBlockReference
  2
_Open30
 10
-0.3232109911011776
 20
1838.480951794608
 30
0.0
 41
4.0
 42
4.0
 43
4.0
 50
134.9400423833483
  0
POINT
  5
6A6F
330
678B
100
AcDbEntity
  8
Defpoints
 62
     0
100
AcDbPoint
 10
-0.3232109911011776
 20
1838.480951794608
 30
0.0
  0
POINT
  5
6A70
330
678B
100
AcDbEntity
  8
Defpoints
 62
     0
100
AcDbPoint
 10
-4.914592829860565
 20
1843.081953078101
 30
0.0
  0
ENDBLK
  5
6795
330
678B
100
AcDbEntity
  8
0
100
AcDbBlockEnd
  0
BLOCK
  5
67A6
330
6796
100
AcDbEntity
  8
0
100
AcDbBlockBegin
  2
*D11
 70
     1
 10
0.0
 20
0.0
 30
0.0
  3
*D11
  1

  0
LINE
  5
696B
330
6796
100
AcDbEntity
  8
Dims
 62
     0
370
    -2
100
AcDbLine
 10
34.15113580191496
 20
1839.682880078014
 30
0.0
 11
34.15113580191496
 21
1835.682880078014
 31
0.0
  0
LINE
  5
696C
330
6796
100
AcDbEntity
  8
Dims
 62
     0
370
    -2
100
AcDbLine
 10
34.15113580191496
 20
1857.009111781601
 30
0.0
 11
34.15113580191496
 21
1861.009111781601
 31
0.0
  0
MTEXT
  5
696D
330
6796
100
AcDbEntity
  8
Dims
 62
     0
100
AcDbMText
 10
30.13844544658501
 20
1861.009111781601
 30
0.0
 40
5.0
 41
0.0
 71
     5
 72
     1
  1
\A1;　
 11
0.0000000000000001
 21
1.0
 31
0.0
 73
     1
 44
1.0
1001
ACAD
1000
MTEXTBEGIN
1070
    73
1070
     1
1070
    44
1040
1.0
1070
    74
1070
     0
1000
MTEXTEND
  0
LINE
  5
696E
330
6796
100
AcDbEntity
  8
Dims
 62
     0
370
    -2
100
AcDbLine
 10
34.15113580191496
 20
1843.682880078014
 30
0.0
 11
34.15113580191496
 21
1853.009111781601
 31
0.0
  0
INSERT
  5
696F
330
6796
100
AcDbEntity
  8
Dims
 62
     0
370
    -2
100
AcDbBlockReference
  2
_Open30
 10
34.15113580191496
 20
1843.682880078014
 30
0.0
 41
4.0
 42
4.0
 43
4.0
 50
90.0
  0
INSERT
  5
6970
330
6796
100
AcDbEntity
  8
Dims
 62
     0
370
    -2
100
AcDbBlockReference
  2
_Open30
 10
34.15113580191496
 20
1853.009111781601
 30
0.0
 41
4.0
 42
4.0
 43
4.0
 50
270.0
  0
POINT
  5
6971
330
6796
100
AcDbEntity
  8
Defpoints
 62
     0
100
AcDbPoint
 10
34.15113580191496
 20
1843.682880078014
 30
0.0
  0
POINT
  5
6972
330
6796
100
AcDbEntity
  8
Defpoints
 62
     0
100
AcDbPoint
 10
34.15113580191496
 20
1853.009111781601
 30
0.0
  0
POINT
  5
6973
330
6796
100
AcDbEntity
  8
Defpoints
 62
     0
100
AcDbPoint
 10
34.15113580191496
 20
1853.009111781601
 30
0.0
  0
ENDBLK
  5
67A7
330
6796
100
AcDbEntity
  8
0
100
AcDbBlockEnd
  0
BLOCK
  5
697E
330
6975
100
AcDbEntity
  8
0
100
AcDbBlockBegin
  2
*D12
 70
     1
 10
0.0
 20
0.0
 30
0.0
  3
*D12
  1

  0
LINE
  5
699A
330
6975
100
AcDbEntity
  8
Object
 62
     0
370
    -2
100
AcDbLine
 10
-78.95651781397804
 20
1822.963363752467
 30
0.0
 11
-97.97560620095886
 21
1841.706321651887
 31
0.0
  0
LINE
  5
699B
330
6975
100
AcDbEntity
  8
Object
 62
     0
370
    -2
100
AcDbLine
 10
-110.78414852998
 20
1854.328901911314
 30
0.0
 11
-113.6331820236175
 21
1857.136571434626
 31
0.0
  0
MTEXT
  5
699C
330
6975
100
AcDbEntity
  8
Object
 62
     0
100
AcDbMText
 10
-78.5678871312848
 20
1827.494322586473
 30
0.0
 40
5.0
 41
0.0
 71
     5
 72
     1
  1
\A1;Ｅ
 11
0.7122583734093994
 21
-0.7019173808278272
 31
0.0
 73
     1
 44
1.0
1001
ACAD
1000
MTEXTBEGIN
1070
    73
1070
     1
1070
    44
1040
1.0
1070
    74
1070
     0
1000
MTEXTEND
  0
LINE
  5
699D
330
6975
100
AcDbEntity
  8
Object
 62
     0
370
    -2
100
AcDbLine
 10
-107.9351150363424
 20
1851.521232388003
 30
0.0
 11
-100.8246396945964
 21
1844.513991175199
 31
0.0
  0
INSERT
  5
699E
330
6975
100
AcDbEntity
  8
Object
 62
     0
370
    -2
100
AcDbBlockReference
  2
_Open30
 10
-107.9351150363424
 20
1851.521232388003
 30
0.0
 41
4.0
 42
4.0
 43
4.0
 50
315.4189611291535
  0
INSERT
  5
699F
330
6975
100
AcDbEntity
  8
Object
 62
     0
370
    -2
100
AcDbBlockReference
  2
_Open30
 10
-100.8246396945964
 20
1844.513991175199
 30
0.0
 41
4.0
 42
4.0
 43
4.0
 50
135.4189611291535
  0
POINT
  5
69A0
330
6975
100
AcDbEntity
  8
Defpoints
 62
     0
100
AcDbPoint
 10
-100.8246396945964
 20
1844.513991175199
 30
0.0
  0
POINT
  5
69A1
330
6975
100
AcDbEntity
  8
Defpoints
 62
     0
100
AcDbPoint
 10
-107.9351150363424
 20
1851.521232388003
 30
0.0
  0
ENDBLK
  5
697F
330
6975
100
AcDbEntity
  8
0
100
AcDbBlockEnd
  0
BLOCK
  5
6A4C
330
6A40
100
AcDbEntity
  8
0
100
AcDbBlockBegin
  2
*D13
 70
     1
 10
0.0
 20
0.0
 30
0.0
  3
*D13
  1

  0
LINE
  5
6A87
330
6A40
100
AcDbEntity
  8
Object
 62
     0
370
    -2
100
AcDbLine
 10
-61.90205623177534
 20
1837.031452436354
 30
0.0
 11
-55.46834421684025
 21
1837.031452436354
 31
0.0
  0
LINE
  5
6A88
330
6A40
100
AcDbEntity
  8
Object
 62
     0
370
    -2
100
AcDbLine
 10
-59.73069659061158
 20
1844.031452436354
 30
0.0
 11
-55.46834421684025
 21
1844.031452436354
 31
0.0
  0
LINE
  5
6A89
330
6A40
100
AcDbEntity
  8
Object
 62
     0
370
    -2
100
AcDbLine
 10
-56.46834421684026
 20
1833.031452436354
 30
0.0
 11
-56.46834421684026
 21
1829.031452436353
 31
0.0
  0
LINE
  5
6A8A
330
6A40
100
AcDbEntity
  8
Object
 62
     0
370
    -2
100
AcDbLine
 10
-56.46834421684025
 20
1848.031452436353
 30
0.0
 11
-56.46834421684025
 21
1852.031452436354
 31
0.0
  0
MTEXT
  5
6A8B
330
6A40
100
AcDbEntity
  8
Object
 62
     0
100
AcDbMText
 10
-56.20709401322506
 20
1865.33238949768
 30
0.0
 40
5.0
 41
0.0
 71
     5
 72
     1
  1
\A1;Ｆ
 11
0.9999999998476914
 21
-0.000017453292519
 31
0.0
 73
     1
 44
1.0
1001
ACAD
1000
MTEXTBEGIN
1070
    73
1070
     1
1070
    44
1040
1.0
1070
    74
1070
     0
1000
MTEXTEND
  0
LINE
  5
6A8C
330
6A40
100
AcDbEntity
  8
Object
 62
     0
370
    -2
100
AcDbLine
 10
-56.46834421684026
 20
1837.031452436354
 30
0.0
 11
-56.46834421684025
 21
1844.031452436354
 31
0.0
  0
INSERT
  5
6A8D
330
6A40
100
AcDbEntity
  8
Object
 62
     0
370
    -2
100
AcDbBlockReference
  2
_Open30
 10
-56.46834421684026
 20
1837.031452436354
 30
0.0
 41
4.0
 42
4.0
 43
4.0
 50
90.0
  0
INSERT
  5
6A8E
330
6A40
100
AcDbEntity
  8
Object
 62
     0
370
    -2
100
AcDbBlockReference
  2
_Open30
 10
-56.46834421684025
 20
1844.031452436354
 30
0.0
 41
4.0
 42
4.0
 43
4.0
 50
270.0
  0
POINT
  5
6A8F
330
6A40
100
AcDbEntity
  8
Defpoints
 62
     0
100
AcDbPoint
 10
-62.90205623177534
 20
1837.031452436354
 30
0.0
  0
POINT
  5
6A90
330
6A40
100
AcDbEntity
  8
Defpoints
 62
     0
100
AcDbPoint
 10
-60.73069659061157
 20
1844.031452436354
 30
0.0
  0
POINT
  5
6A91
330
6A40
100
AcDbEntity
  8
Defpoints
 62
     0
100
AcDbPoint
 10
-56.46834421684025
 20
1844.031452436354
 30
0.0
  0
ENDBLK
  5
6A4D
330
6A40
100
AcDbEntity
  8
0
100
AcDbBlockEnd
  0
BLOCK
  5
6B89
330
6B7F
100
AcDbEntity
  8
0
100
AcDbBlockBegin
  2
*D14
 70
     1
 10
0.0
 20
0.0
 30
0.0
  3
*D14
  1

  0
LINE
  5
6BEC
330
6B7F
100
AcDbEntity
  8
Dims
 62
     0
370
    -2
100
AcDbLine
 10
284.0100549679307
 20
1838.031452436354
 30
0.0
 11
284.0100549679307
 21
1815.632245318549
 31
0.0
  0
LINE
  5
6BED
330
6B7F
100
AcDbEntity
  8
Dims
 62
     0
370
    -2
100
AcDbLine
 10
259.010054967931
 20
1836.031452436354
 30
0.0
 11
259.010054967931
 21
1815.632245318549
 31
0.0
  0
LINE
  5
6BEE
330
6B7F
100
AcDbEntity
  8
Dims
 62
     0
370
    -2
100
AcDbLine
 10
280.0100549679306
 20
1816.632245318549
 30
0.0
 11
263.010054967931
 21
1816.632245318549
 31
0.0
  0
INSERT
  5
6BEF
330
6B7F
100
AcDbEntity
  8
Dims
 62
     0
370
    -2
100
AcDbBlockReference
  2
_Open30
 10
284.0100549679307
 20
1816.632245318549
 30
0.0
 41
4.0
 42
4.0
 43
4.0
  0
INSERT
  5
6BF0
330
6B7F
100
AcDbEntity
  8
Dims
 62
     0
370
    -2
100
AcDbBlockReference
  2
_Open30
 10
259.010054967931
 20
1816.632245318549
 30
0.0
 41
4.0
 42
4.0
 43
4.0
 50
180.0
  0
MTEXT
  5
6BF1
330
6B7F
100
AcDbEntity
  8
Dims
 62
     0
100
AcDbMText
 10
271.5100549679308
 20
1820.632245318549
 30
0.0
 40
5.0
 41
0.0
 71
     5
 72
     1
  1
\A1;Ｄ
 73
     1
 44
1.0
1001
ACAD
1000
MTEXTBEGIN
1070
    73
1070
     1
1070
    44
1040
1.0
1070
    74
1070
     0
1000
MTEXTEND
  0
POINT
  5
6BF2
330
6B7F
100
AcDbEntity
  8
Defpoints
 62
     0
100
AcDbPoint
 10
284.0100549679307
 20
1839.031452436353
 30
0.0
  0
POINT
  5
6BF3
330
6B7F
100
AcDbEntity
  8
Defpoints
 62
     0
100
AcDbPoint
 10
259.010054967931
 20
1837.031452436353
 30
0.0
  0
POINT
  5
6BF4
330
6B7F
100
AcDbEntity
  8
Defpoints
 62
     0
100
AcDbPoint
 10
259.010054967931
 20
1816.632245318549
 30
0.0
  0
ENDBLK
  5
6B8A
330
6B7F
100
AcDbEntity
  8
0
100
AcDbBlockEnd
  0
BLOCK
  5
6B95
330
6B8B
100
AcDbEntity
  8
0
100
AcDbBlockBegin
  2
*D15
 70
     1
 10
0.0
 20
0.0
 30
0.0
  3
*D15
  1

  0
LINE
  5
6BF5
330
6B8B
100
AcDbEntity
  8
Dims
 62
     0
370
    -2
100
AcDbLine
 10
215.499079512942
 20
1846.031452436353
 30
0.0
 11
215.499079512942
 21
1891.945615123645
 31
0.0
  0
LINE
  5
6BF6
330
6B8B
100
AcDbEntity
  8
Dims
 62
     0
370
    -2
100
AcDbLine
 10
185.4990795129421
 20
1854.031452436354
 30
0.0
 11
185.4990795129421
 21
1891.945615123645
 31
0.0
  0
LINE
  5
6BF7
330
6B8B
100
AcDbEntity
  8
Dims
 62
     0
370
    -2
100
AcDbLine
 10
211.499079512942
 20
1890.945615123645
 30
0.0
 11
189.499079512942
 21
1890.945615123645
 31
0.0
  0
INSERT
  5
6BF8
330
6B8B
100
AcDbEntity
  8
Dims
 62
     0
370
    -2
100
AcDbBlockReference
  2
_Open30
 10
215.499079512942
 20
1890.945615123645
 30
0.0
 41
4.0
 42
4.0
 43
4.0
  0
INSERT
  5
6BF9
330
6B8B
100
AcDbEntity
  8
Dims
 62
     0
370
    -2
100
AcDbBlockReference
  2
_Open30
 10
185.4990795129421
 20
1890.945615123645
 30
0.0
 41
4.0
 42
4.0
 43
4.0
 50
180.0
  0
MTEXT
  5
6BFA
330
6B8B
100
AcDbEntity
  8
Dims
 62
     0
100
AcDbMText
 10
200.499079512942
 20
1894.945615123645
 30
0.0
 40
5.0
 41
0.0
 71
     5
 72
     1
  1
\A1;Ｇ
 73
     1
 44
1.0
1001
ACAD
1000
MTEXTBEGIN
1070
    73
1070
     1
1070
    44
1040
1.0
1070
    74
1070
     0
1000
MTEXTEND
  0
POINT
  5
6BFB
330
6B8B
100
AcDbEntity
  8
Defpoints
 62
     0
100
AcDbPoint
 10
215.499079512942
 20
1845.031452436353
 30
0.0
  0
POINT
  5
6BFC
330
6B8B
100
AcDbEntity
  8
Defpoints
 62
     0
100
AcDbPoint
 10
185.4990795129421
 20
1853.031452436353
 30
0.0
  0
POINT
  5
6BFD
330
6B8B
100
AcDbEntity
  8
Defpoints
 62
     0
100
AcDbPoint
 10
185.4990795129421
 20
1890.945615123645
 30
0.0
  0
ENDBLK
  5
6B96
330
6B8B
100
AcDbEntity
  8
0
100
AcDbBlockEnd
  0
BLOCK
  5
6BA1
330
6B97
100
AcDbEntity
  8
0
100
AcDbBlockBegin
  2
*D16
 70
     1
 10
0.0
 20
0.0
 30
0.0
  3
*D16
  1

  0
LINE
  5
6BFE
330
6B97
100
AcDbEntity
  8
Dims
 62
     0
370
    -2
100
AcDbLine
 10
155.4990795129422
 20
1846.031452436353
 30
0.0
 11
155.4990795129422
 21
1891.945615123645
 31
0.0
  0
LINE
  5
6BFF
330
6B97
100
AcDbEntity
  8
Dims
 62
     0
370
    -2
100
AcDbLine
 10
185.4990795129421
 20
1854.031452436354
 30
0.0
 11
185.4990795129421
 21
1891.945615123645
 31
0.0
  0
LINE
  5
6C00
330
6B97
100
AcDbEntity
  8
Dims
 62
     0
370
    -2
100
AcDbLine
 10
159.4990795129422
 20
1890.945615123645
 30
0.0
 11
181.4990795129421
 21
1890.945615123645
 31
0.0
  0
INSERT
  5
6C01
330
6B97
100
AcDbEntity
  8
Dims
 62
     0
370
    -2
100
AcDbBlockReference
  2
_Open30
 10
155.4990795129422
 20
1890.945615123645
 30
0.0
 41
4.0
 42
4.0
 43
4.0
 50
180.0
  0
INSERT
  5
6C02
330
6B97
100
AcDbEntity
  8
Dims
 62
     0
370
    -2
100
AcDbBlockReference
  2
_Open30
 10
185.4990795129421
 20
1890.945615123645
 30
0.0
 41
4.0
 42
4.0
 43
4.0
  0
MTEXT
  5
6C03
330
6B97
100
AcDbEntity
  8
Dims
 62
     0
100
AcDbMText
 10
170.499079512942
 20
1894.945615123645
 30
0.0
 40
5.0
 41
0.0
 71
     5
 72
     1
  1
\A1;Ｇ
 73
     1
 44
1.0
1001
ACAD
1000
MTEXTBEGIN
1070
    73
1070
     1
1070
    44
1040
1.0
1070
    74
1070
     0
1000
MTEXTEND
  0
POINT
  5
6C04
330
6B97
100
AcDbEntity
  8
Defpoints
 62
     0
100
AcDbPoint
 10
155.4990795129422
 20
1845.031452436353
 30
0.0
  0
POINT
  5
6C05
330
6B97
100
AcDbEntity
  8
Defpoints
 62
     0
100
AcDbPoint
 10
185.4990795129421
 20
1853.031452436353
 30
0.0
  0
POINT
  5
6C06
330
6B97
100
AcDbEntity
  8
Defpoints
 62
     0
100
AcDbPoint
 10
185.4990795129421
 20
1890.945615123645
 30
0.0
  0
ENDBLK
  5
6BA2
330
6B97
100
AcDbEntity
  8
0
100
AcDbBlockEnd
  0
BLOCK
  5
6BAD
330
6BA3
100
AcDbEntity
  8
0
100
AcDbBlockBegin
  2
*D17
 70
     1
 10
0.0
 20
0.0
 30
0.0
  3
*D17
  1

  0
LINE
  5
6C07
330
6BA3
100
AcDbEntity
  8
Dims
 62
     0
370
    -2
100
AcDbLine
 10
184.4990795129421
 20
1848.017611781601
 30
0.0
 11
140.4601474308992
 21
1848.017611781601
 31
0.0
  0
LINE
  5
6C08
330
6BA3
100
AcDbEntity
  8
Dims
 62
     0
370
    -2
100
AcDbLine
 10
176.999079512942
 20
1877.731452436353
 30
0.0
 11
140.4601474308992
 21
1877.731452436353
 31
0.0
  0
LINE
  5
6C09
330
6BA3
100
AcDbEntity
  8
Dims
 62
     0
370
    -2
100
AcDbLine
 10
141.4601474308992
 20
1852.017611781601
 30
0.0
 11
141.4601474308993
 21
1873.731452436354
 31
0.0
  0
MTEXT
  5
6C0A
330
6BA3
100
AcDbEntity
  8
Dims
 62
     0
100
AcDbMText
 10
137.3597836974427
 20
1863.40909721299
 30
0.0
 40
5.0
 41
0.0
 71
     5
 72
     1
  1
\A1;Ｃ
 11
0.9999999998476914
 21
-0.000017453292519
 31
0.0
 73
     1
 44
1.0
1001
ACAD
1000
MTEXTBEGIN
1070
    73
1070
     1
1070
    44
1040
1.0
1070
    74
1070
     0
1000
MTEXTEND
  0
INSERT
  5
6C0B
330
6BA3
100
AcDbEntity
  8
Dims
 62
     0
370
    -2
100
AcDbBlockReference
  2
_Open30
 10
141.4601474308992
 20
1848.017611781601
 30
0.0
 41
4.0
 42
4.0
 43
4.0
 50
270.0
  0
INSERT
  5
6C0C
330
6BA3
100
AcDbEntity
  8
Dims
 62
     0
370
    -2
100
AcDbBlockReference
  2
_Open30
 10
141.4601474308993
 20
1877.731452436353
 30
0.0
 41
4.0
 42
4.0
 43
4.0
 50
90.0
  0
POINT
  5
6C0D
330
6BA3
100
AcDbEntity
  8
Defpoints
 62
     0
100
AcDbPoint
 10
185.4990795129421
 20
1848.017611781601
 30
0.0
  0
POINT
  5
6C0E
330
6BA3
100
AcDbEntity
  8
Defpoints
 62
     0
100
AcDbPoint
 10
177.999079512942
 20
1877.731452436353
 30
0.0
  0
POINT
  5
6C0F
330
6BA3
100
AcDbEntity
  8
Defpoints
 62
     0
100
AcDbPoint
 10
141.4601474308993
 20
1877.731452436353
 30
0.0
  0
ENDBLK
  5
6BAE
330
6BA3
100
AcDbEntity
  8
0
100
AcDbBlockEnd
  0
BLOCK
  5
6BB9
330
6BAF
100
AcDbEntity
  8
0
100
AcDbBlockBegin
  2
*D18
 70
     1
 10
0.0
 20
0.0
 30
0.0
  3
*D18
  1

  0
LINE
  5
6C10
330
6BAF
100
AcDbEntity
  8
Dims
 62
     0
370
    -2
100
AcDbLine
 10
184.999079512942
 20
1848.017611781601
 30
0.0
 11
140.4601474308992
 21
1848.017611781601
 31
0.0
  0
LINE
  5
6C11
330
6BAF
100
AcDbEntity
  8
Dims
 62
     0
370
    -2
100
AcDbLine
 10
184.4826829009229
 20
1785.031519649704
 30
0.0
 11
140.4601474308992
 21
1785.031519649704
 31
0.0
  0
LINE
  5
6C12
330
6BAF
100
AcDbEntity
  8
Dims
 62
     0
370
    -2
100
AcDbLine
 10
141.4601474308992
 20
1844.017611781601
 30
0.0
 11
141.4601474308992
 21
1789.031519649704
 31
0.0
  0
MTEXT
  5
6C13
330
6BAF
100
AcDbEntity
  8
Dims
 62
     0
100
AcDbMText
 10
137.5963620214227
 20
1819.652757446463
 30
0.0
 40
5.0
 41
0.0
 71
     5
 72
     1
  1
\A1;Ｂ
 11
0.9999999998476914
 21
-0.000017453292519
 31
0.0
 73
     1
 44
1.0
1001
ACAD
1000
MTEXTBEGIN
1070
    73
1070
     1
1070
    44
1040
1.0
1070
    74
1070
     0
1000
MTEXTEND
  0
INSERT
  5
6C14
330
6BAF
100
AcDbEntity
  8
Dims
 62
     0
370
    -2
100
AcDbBlockReference
  2
_Open30
 10
141.4601474308992
 20
1848.017611781601
 30
0.0
 41
4.0
 42
4.0
 43
4.0
 50
90.0
  0
INSERT
  5
6C15
330
6BAF
100
AcDbEntity
  8
Dims
 62
     0
370
    -2
100
AcDbBlockReference
  2
_Open30
 10
141.4601474308992
 20
1785.031519649704
 30
0.0
 41
4.0
 42
4.0
 43
4.0
 50
270.0
  0
POINT
  5
6C16
330
6BAF
100
AcDbEntity
  8
Defpoints
 62
     0
100
AcDbPoint
 10
185.999079512942
 20
1848.017611781601
 30
0.0
  0
POINT
  5
6C17
330
6BAF
100
AcDbEntity
  8
Defpoints
 62
     0
100
AcDbPoint
 10
185.4826829009229
 20
1785.031519649704
 30
0.0
  0
POINT
  5
6C18
330
6BAF
100
AcDbEntity
  8
Defpoints
 62
     0
100
AcDbPoint
 10
141.4601474308992
 20
1785.031519649704
 30
0.0
  0
ENDBLK
  5
6BBA
330
6BAF
100
AcDbEntity
  8
0
100
AcDbBlockEnd
  0
BLOCK
  5
6BC5
330
6BBB
100
AcDbEntity
  8
0
100
AcDbBlockBegin
  2
*D19
 70
     1
 10
0.0
 20
0.0
 30
0.0
  3
*D19
  1

  0
LINE
  5
6C19
330
6BBB
100
AcDbEntity
  8
Dims
 62
     0
370
    -2
100
AcDbLine
 10
184.4826829009229
 20
1785.031519649704
 30
0.0
 11
129.0240541671096
 21
1785.031519649704
 31
0.0
  0
LINE
  5
6C1A
330
6BBB
100
AcDbEntity
  8
Dims
 62
     0
370
    -2
100
AcDbLine
 10
176.999079512942
 20
1877.731452436353
 30
0.0
 11
129.0240541671096
 21
1877.731452436353
 31
0.0
  0
LINE
  5
6C1B
330
6BBB
100
AcDbEntity
  8
Dims
 62
     0
370
    -2
100
AcDbLine
 10
130.0240541671096
 20
1789.031519649704
 30
0.0
 11
130.0240541671096
 21
1873.731452436354
 31
0.0
  0
MTEXT
  5
6C1C
330
6BBB
100
AcDbEntity
  8
Dims
 62
     0
100
AcDbMText
 10
125.5308638199117
 20
1830.296191443727
 30
0.0
 40
5.0
 41
0.0
 71
     5
 72
     1
  1
\A1;Ａ
 11
0.9999999998476914
 21
-0.000017453292519
 31
0.0
 73
     1
 44
1.0
1001
ACAD
1000
MTEXTBEGIN
1070
    73
1070
     1
1070
    44
1040
1.0
1070
    74
1070
     0
1000
MTEXTEND
  0
INSERT
  5
6C1D
330
6BBB
100
AcDbEntity
  8
Dims
 62
     0
370
    -2
100
AcDbBlockReference
  2
_Open30
 10
130.0240541671096
 20
1785.031519649704
 30
0.0
 41
4.0
 42
4.0
 43
4.0
 50
270.0
  0
INSERT
  5
6C1E
330
6BBB
100
AcDbEntity
  8
Dims
 62
     0
370
    -2
100
AcDbBlockReference
  2
_Open30
 10
130.0240541671096
 20
1877.731452436353
 30
0.0
 41
4.0
 42
4.0
 43
4.0
 50
90.0
  0
POINT
  5
6C1F
330
6BBB
100
AcDbEntity
  8
Defpoints
 62
     0
100
AcDbPoint
 10
185.4826829009229
 20
1785.031519649704
 30
0.0
  0
POINT
  5
6C20
330
6BBB
100
AcDbEntity
  8
Defpoints
 62
     0
100
AcDbPoint
 10
177.999079512942
 20
1877.731452436353
 30
0.0
  0
POINT
  5
6C21
330
6BBB
100
AcDbEntity
  8
Defpoints
 62
     0
100
AcDbPoint
 10
130.0240541671096
 20
1877.731452436353
 30
0.0
  0
ENDBLK
  5
6BC6
330
6BBB
100
AcDbEntity
  8
0
100
AcDbBlockEnd
  0
BLOCK
  5
6BD0
330
6BC7
100
AcDbEntity
  8
0
100
AcDbBlockBegin
  2
*D20
 70
     1
 10
0.0
 20
0.0
 30
0.0
  3
*D20
  1

  0
LINE
  5
6C22
330
6BC7
100
AcDbEntity
  8
Dims
 62
     0
370
    -2
100
AcDbLine
 10
314.5227240286299
 20
1813.461665116375
 30
0.0
 11
292.3812116342393
 21
1835.649566389381
 31
0.0
  0
LINE
  5
6C23
330
6BC7
100
AcDbEntity
  8
Dims
 62
     0
370
    -2
100
AcDbLine
 10
282.1388983016217
 20
1845.913338483328
 30
0.0
 11
279.3134325546926
 21
1848.744723888555
 31
0.0
  0
MTEXT
  5
6C24
330
6BC7
100
AcDbEntity
  8
Dims
 62
     0
100
AcDbMText
 10
315.0754501925195
 20
1818.570564143788
 30
0.0
 40
5.0
 41
0.0
 71
     5
 72
     1
  1
\A1;Ｆ
 11
0.7063664367322641
 21
-0.7078463513066691
 31
0.0
 73
     1
 44
1.0
1001
ACAD
1000
MTEXTBEGIN
1070
    73
1070
     1
1070
    44
1040
1.0
1070
    74
1070
     0
1000
MTEXTEND
  0
LINE
  5
6C25
330
6BC7
100
AcDbEntity
  8
Dims
 62
     0
370
    -2
100
AcDbLine
 10
284.9643640485507
 20
1843.081953078101
 30
0.0
 11
289.5557458873103
 21
1838.480951794608
 31
0.0
  0
INSERT
  5
6C26
330
6BC7
100
AcDbEntity
  8
Dims
 62
     0
370
    -2
100
AcDbBlockReference
  2
_Open30
 10
284.9643640485507
 20
1843.081953078101
 30
0.0
 41
4.0
 42
4.0
 43
4.0
 50
314.9400423833535
  0
INSERT
  5
6C27
330
6BC7
100
AcDbEntity
  8
Dims
 62
     0
370
    -2
100
AcDbBlockReference
  2
_Open30
 10
289.5557458873103
 20
1838.480951794608
 30
0.0
 41
4.0
 42
4.0
 43
4.0
 50
134.9400423833535
  0
POINT
  5
6C28
330
6BC7
100
AcDbEntity
  8
Defpoints
 62
     0
100
AcDbPoint
 10
289.5557458873103
 20
1838.480951794608
 30
0.0
  0
POINT
  5
6C29
330
6BC7
100
AcDbEntity
  8
Defpoints
 62
     0
100
AcDbPoint
 10
284.9643640485507
 20
1843.081953078101
 30
0.0
  0
ENDBLK
  5
6BD1
330
6BC7
100
AcDbEntity
  8
0
100
AcDbBlockEnd
  0
BLOCK
  5
6BDC
330
6BD2
100
AcDbEntity
  8
0
100
AcDbBlockBegin
  2
*D21
 70
     1
 10
0.0
 20
0.0
 30
0.0
  3
*D21
  1

  0
LINE
  5
6C2A
330
6BD2
100
AcDbEntity
  8
Dims
 62
     0
370
    -2
100
AcDbLine
 10
324.0300926803263
 20
1839.682880078014
 30
0.0
 11
324.0300926803263
 21
1835.682880078014
 31
0.0
  0
LINE
  5
6C2B
330
6BD2
100
AcDbEntity
  8
Dims
 62
     0
370
    -2
100
AcDbLine
 10
324.0300926803263
 20
1857.009111781601
 30
0.0
 11
324.0300926803263
 21
1861.009111781601
 31
0.0
  0
MTEXT
  5
6C2C
330
6BD2
100
AcDbEntity
  8
Dims
 62
     0
100
AcDbMText
 10
320.0174023249964
 20
1861.009111781601
 30
0.0
 40
5.0
 41
0.0
 71
     5
 72
     1
  1
\A1;　
 11
0.0000000000000001
 21
1.0
 31
0.0
 73
     1
 44
1.0
1001
ACAD
1000
MTEXTBEGIN
1070
    73
1070
     1
1070
    44
1040
1.0
1070
    74
1070
     0
1000
MTEXTEND
  0
LINE
  5
6C2D
330
6BD2
100
AcDbEntity
  8
Dims
 62
     0
370
    -2
100
AcDbLine
 10
324.0300926803263
 20
1843.682880078014
 30
0.0
 11
324.0300926803263
 21
1853.009111781601
 31
0.0
  0
INSERT
  5
6C2E
330
6BD2
100
AcDbEntity
  8
Dims
 62
     0
370
    -2
100
AcDbBlockReference
  2
_Open30
 10
324.0300926803263
 20
1843.682880078014
 30
0.0
 41
4.0
 42
4.0
 43
4.0
 50
90.0
  0
INSERT
  5
6C2F
330
6BD2
100
AcDbEntity
  8
Dims
 62
     0
370
    -2
100
AcDbBlockReference
  2
_Open30
 10
324.0300926803263
 20
1853.009111781601
 30
0.0
 41
4.0
 42
4.0
 43
4.0
 50
270.0
  0
POINT
  5
6C30
330
6BD2
100
AcDbEntity
  8
Defpoints
 62
     0
100
AcDbPoint
 10
324.0300926803263
 20
1843.682880078014
 30
0.0
  0
POINT
  5
6C31
330
6BD2
100
AcDbEntity
  8
Defpoints
 62
     0
100
AcDbPoint
 10
324.0300926803263
 20
1853.009111781601
 30
0.0
  0
POINT
  5
6C32
330
6BD2
100
AcDbEntity
  8
Defpoints
 62
     0
100
AcDbPoint
 10
324.0300926803263
 20
1853.009111781601
 30
0.0
  0
ENDBLK
  5
6BDD
330
6BD2
100
AcDbEntity
  8
0
100
AcDbBlockEnd
  0
BLOCK
  5
6BEA
330
6BDE
100
AcDbEntity
  8
0
100
AcDbBlockBegin
  2
*D22
 70
     1
 10
0.0
 20
0.0
 30
0.0
  3
*D22
  1

  0
LINE
  5
6BDF
330
6BDE
100
AcDbEntity
  8
Object
 62
     0
370
    -2
100
AcDbLine
 10
181.4990795129421
 20
1789.031452436353
 30
0.0
 11
181.4990795129421
 21
1774.0369332309
 31
0.0
  0
LINE
  5
6BE0
330
6BDE
100
AcDbEntity
  8
Object
 62
     0
370
    -2
100
AcDbLine
 10
189.499079512942
 20
1789.031452436353
 30
0.0
 11
189.499079512942
 21
1774.0369332309
 31
0.0
  0
LINE
  5
6BE1
330
6BDE
100
AcDbEntity
  8
Object
 62
     0
370
    -2
100
AcDbLine
 10
177.499079512942
 20
1775.0369332309
 30
0.0
 11
173.499079512942
 21
1775.0369332309
 31
0.0
  0
LINE
  5
6BE2
330
6BDE
100
AcDbEntity
  8
Object
 62
     0
370
    -2
100
AcDbLine
 10
193.4990795129422
 20
1775.0369332309
 30
0.0
 11
197.4990795129422
 21
1775.0369332309
 31
0.0
  0
LINE
  5
6BE3
330
6BDE
100
AcDbEntity
  8
Object
 62
     0
370
    -2
100
AcDbLine
 10
181.4990795129421
 20
1775.0369332309
 30
0.0
 11
189.499079512942
 21
1775.0369332309
 31
0.0
  0
INSERT
  5
6BE4
330
6BDE
100
AcDbEntity
  8
Object
 62
     0
370
    -2
100
AcDbBlockReference
  2
_Open30
 10
181.4990795129421
 20
1775.0369332309
 30
0.0
 41
4.0
 42
4.0
 43
4.0
  0
INSERT
  5
6BE5
330
6BDE
100
AcDbEntity
  8
Object
 62
     0
370
    -2
100
AcDbBlockReference
  2
_Open30
 10
189.499079512942
 20
1775.0369332309
 30
0.0
 41
4.0
 42
4.0
 43
4.0
 50
180.0
  0
MTEXT
  5
6BE6
330
6BDE
100
AcDbEntity
  8
Object
 62
     0
100
AcDbMText
 10
185.4990795129421
 20
1778.5369332309
 30
0.0
 40
5.0
 41
0.0
 71
     5
 72
     1
  1
\A1;8
 73
     1
 44
1.0
1001
ACAD
1000
MTEXTBEGIN
1070
    73
1070
     1
1070
    44
1040
1.0
1070
    74
1070
     0
1000
MTEXTEND
  0
POINT
  5
6BE7
330
6BDE
100
AcDbEntity
  8
Defpoints
 62
     0
100
AcDbPoint
 10
181.4990795129421
 20
1790.031452436354
 30
0.0
  0
POINT
  5
6BE8
330
6BDE
100
AcDbEntity
  8
Defpoints
 62
     0
100
AcDbPoint
 10
189.499079512942
 20
1790.031452436354
 30
0.0
  0
POINT
  5
6BE9
330
6BDE
100
AcDbEntity
  8
Defpoints
 62
     0
100
AcDbPoint
 10
189.499079512942
 20
1775.0369332309
 30
0.0
  0
ENDBLK
  5
6BEB
330
6BDE
100
AcDbEntity
  8
0
100
AcDbBlockEnd
  0
BLOCK
  5
6C3C
330
6C33
100
AcDbEntity
  8
0
100
AcDbBlockBegin
  2
*D23
 70
     1
 10
0.0
 20
0.0
 30
0.0
  3
*D23
  1

  0
LINE
  5
6C34
330
6C33
100
AcDbEntity
  8
Object
 62
     0
370
    -2
100
AcDbLine
 10
210.9224390644334
 20
1822.963363752467
 30
0.0
 11
191.9033506774525
 21
1841.706321651888
 31
0.0
  0
LINE
  5
6C35
330
6C33
100
AcDbEntity
  8
Object
 62
     0
370
    -2
100
AcDbLine
 10
179.0948083484313
 20
1854.328901911314
 30
0.0
 11
176.2457748547938
 21
1857.136571434626
 31
0.0
  0
MTEXT
  5
6C36
330
6C33
100
AcDbEntity
  8
Object
 62
     0
100
AcDbMText
 10
211.3110697471269
 20
1827.494322586474
 30
0.0
 40
5.0
 41
0.0
 71
     5
 72
     1
  1
\A1;Ｅ
 11
0.7122583734094055
 21
-0.7019173808278209
 31
0.0
 73
     1
 44
1.0
1001
ACAD
1000
MTEXTBEGIN
1070
    73
1070
     1
1070
    44
1040
1.0
1070
    74
1070
     0
1000
MTEXTEND
  0
LINE
  5
6C37
330
6C33
100
AcDbEntity
  8
Object
 62
     0
370
    -2
100
AcDbLine
 10
181.943841842069
 20
1851.521232388003
 30
0.0
 11
189.0543171838148
 21
1844.513991175199
 31
0.0
  0
INSERT
  5
6C38
330
6C33
100
AcDbEntity
  8
Object
 62
     0
370
    -2
100
AcDbBlockReference
  2
_Open30
 10
181.943841842069
 20
1851.521232388003
 30
0.0
 41
4.0
 42
4.0
 43
4.0
 50
315.418961129154
  0
INSERT
  5
6C39
330
6C33
100
AcDbEntity
  8
Object
 62
     0
370
    -2
100
AcDbBlockReference
  2
_Open30
 10
189.0543171838148
 20
1844.513991175199
 30
0.0
 41
4.0
 42
4.0
 43
4.0
 50
135.418961129154
  0
POINT
  5
6C3A
330
6C33
100
AcDbEntity
  8
Defpoints
 62
     0
100
AcDbPoint
 10
189.0543171838148
 20
1844.513991175199
 30
0.0
  0
POINT
  5
6C3B
330
6C33
100
AcDbEntity
  8
Defpoints
 62
     0
100
AcDbPoint
 10
181.943841842069
 20
1851.521232388003
 30
0.0
  0
ENDBLK
  5
6C3D
330
6C33
100
AcDbEntity
  8
0
100
AcDbBlockEnd
  0
BLOCK
  5
6C4A
330
6C3E
100
AcDbEntity
  8
0
100
AcDbBlockBegin
  2
*D24
 70
     1
 10
0.0
 20
0.0
 30
0.0
  3
*D24
  1

  0
LINE
  5
6C3F
330
6C3E
100
AcDbEntity
  8
Object
 62
     0
370
    -2
100
AcDbLine
 10
227.976900646636
 20
1837.031452436354
 30
0.0
 11
234.4106126615711
 21
1837.031452436354
 31
0.0
  0
LINE
  5
6C40
330
6C3E
100
AcDbEntity
  8
Object
 62
     0
370
    -2
100
AcDbLine
 10
230.1482602877998
 20
1844.031452436354
 30
0.0
 11
234.4106126615711
 21
1844.031452436354
 31
0.0
  0
LINE
  5
6C41
330
6C3E
100
AcDbEntity
  8
Object
 62
     0
370
    -2
100
AcDbLine
 10
233.4106126615711
 20
1833.031452436354
 30
0.0
 11
233.4106126615711
 21
1829.031452436353
 31
0.0
  0
LINE
  5
6C42
330
6C3E
100
AcDbEntity
  8
Object
 62
     0
370
    -2
100
AcDbLine
 10
233.4106126615711
 20
1848.031452436353
 30
0.0
 11
233.4106126615711
 21
1852.031452436354
 31
0.0
  0
MTEXT
  5
6C43
330
6C3E
100
AcDbEntity
  8
Object
 62
     0
100
AcDbMText
 10
233.6718628651863
 20
1865.33238949768
 30
0.0
 40
5.0
 41
0.0
 71
     5
 72
     1
  1
\A1;Ｆ
 11
0.9999999998476914
 21
-0.000017453292519
 31
0.0
 73
     1
 44
1.0
1001
ACAD
1000
MTEXTBEGIN
1070
    73
1070
     1
1070
    44
1040
1.0
1070
    74
1070
     0
1000
MTEXTEND
  0
LINE
  5
6C44
330
6C3E
100
AcDbEntity
  8
Object
 62
     0
370
    -2
100
AcDbLine
 10
233.4106126615711
 20
1837.031452436354
 30
0.0
 11
233.4106126615711
 21
1844.031452436354
 31
0.0
  0
INSERT
  5
6C45
330
6C3E
100
AcDbEntity
  8
Object
 62
     0
370
    -2
100
AcDbBlockReference
  2
_Open30
 10
233.4106126615711
 20
1837.031452436354
 30
0.0
 41
4.0
 42
4.0
 43
4.0
 50
90.0
  0
INSERT
  5
6C46
330
6C3E
100
AcDbEntity
  8
Object
 62
     0
370
    -2
100
AcDbBlockReference
  2
_Open30
 10
233.4106126615711
 20
1844.031452436354
 30
0.0
 41
4.0
 42
4.0
 43
4.0
 50
270.0
  0
POINT
  5
6C47
330
6C3E
100
AcDbEntity
  8
Defpoints
 62
     0
100
AcDbPoint
 10
226.976900646636
 20
1837.031452436354
 30
0.0
  0
POINT
  5
6C48
330
6C3E
100
AcDbEntity
  8
Defpoints
 62
     0
100
AcDbPoint
 10
229.1482602877998
 20
1844.031452436354
 30
0.0
  0
POINT
  5
6C49
330
6C3E
100
AcDbEntity
  8
Defpoints
 62
     0
100
AcDbPoint
 10
233.4106126615711
 20
1844.031452436354
 30
0.0
  0
ENDBLK
  5
6C4B
330
6C3E
100
AcDbEntity
  8
0
100
AcDbBlockEnd
  0
BLOCK
  5
6DD6
330
6DCC
100
AcDbEntity
  8
0
100
AcDbBlockBegin
  2
*D25
 70
     1
 10
0.0
 20
0.0
 30
0.0
  3
*D25
  1

  0
LINE
  5
7686
330
6DCC
100
AcDbEntity
  8
Dims
  6
HIDDEN
 62
     0
370
    -2
100
AcDbLine
 10
266.1404567061363
 20
1560.568851240574
 30
0.0
 11
266.1404567061363
 21
1511.168356767206
 31
0.0
  0
LINE
  5
7687
330
6DCC
100
AcDbEntity
  8
Dims
  6
HIDDEN
 62
     0
370
    -2
100
AcDbLine
 10
239.1404567061365
 20
1558.408851240574
 30
0.0
 11
239.1404567061365
 21
1511.168356767206
 31
0.0
  0
LINE
  5
7688
330
6DCC
100
AcDbEntity
  8
Dims
  6
HIDDEN
 62
     0
370
    -2
100
AcDbLine
 10
258.1404567061363
 20
1512.168356767207
 30
0.0
 11
247.1404567061365
 21
1512.168356767207
 31
0.0
  0
INSERT
  5
7689
330
6DCC
100
AcDbEntity
  8
Dims
  6
HIDDEN
 62
     0
370
    -2
100
AcDbBlockReference
  2
_Open30
 10
266.1404567061363
 20
1512.168356767207
 30
0.0
 41
8.0
 42
8.0
 43
8.0
  0
INSERT
  5
768A
330
6DCC
100
AcDbEntity
  8
Dims
  6
HIDDEN
 62
     0
370
    -2
100
AcDbBlockReference
  2
_Open30
 10
239.1404567061365
 20
1512.168356767207
 30
0.0
 41
8.0
 42
8.0
 43
8.0
 50
180.0
  0
MTEXT
  5
768B
330
6DCC
100
AcDbEntity
  8
Dims
  6
HIDDEN
 62
     0
100
AcDbMText
 10
252.6404567061364
 20
1519.168356767206
 30
0.0
 40
8.0
 41
0.0
 71
     5
 72
     1
  1
\A1;Ｄ
 73
     1
 44
1.0
1001
ACAD
1000
MTEXTBEGIN
1070
    73
1070
     1
1070
    44
1040
1.0
1070
    74
1070
     0
1000
MTEXTEND
  0
POINT
  5
768C
330
6DCC
100
AcDbEntity
  8
Defpoints
  6
HIDDEN
 62
     0
100
AcDbPoint
 10
266.1404567061363
 20
1561.568851240574
 30
0.0
  0
POINT
  5
768D
330
6DCC
100
AcDbEntity
  8
Defpoints
  6
HIDDEN
 62
     0
100
AcDbPoint
 10
239.1404567061365
 20
1559.408851240574
 30
0.0
  0
POINT
  5
768E
330
6DCC
100
AcDbEntity
  8
Defpoints
  6
HIDDEN
 62
     0
100
AcDbPoint
 10
239.1404567061365
 20
1512.168356767207
 30
0.0
  0
ENDBLK
  5
6DD7
330
6DCC
100
AcDbEntity
  8
0
100
AcDbBlockEnd
  0
BLOCK
  5
6DE2
330
6DD8
100
AcDbEntity
  8
0
100
AcDbBlockBegin
  2
*D26
 70
     1
 10
0.0
 20
0.0
 30
0.0
  3
*D26
  1

  0
LINE
  5
73A8
330
6DD8
100
AcDbEntity
  8
Dims
  6
HIDDEN
 62
     0
370
    -2
100
AcDbLine
 10
192.1486032147484
 20
1569.048851240574
 30
0.0
 11
192.1486032147484
 21
1618.636146942849
 31
0.0
  0
LINE
  5
73A9
330
6DD8
100
AcDbEntity
  8
Dims
  6
HIDDEN
 62
     0
370
    -2
100
AcDbLine
 10
159.7486032147485
 20
1577.688851240575
 30
0.0
 11
159.7486032147485
 21
1618.636146942849
 31
0.0
  0
LINE
  5
73AA
330
6DD8
100
AcDbEntity
  8
Dims
  6
HIDDEN
 62
     0
370
    -2
100
AcDbLine
 10
184.1486032147484
 20
1617.636146942849
 30
0.0
 11
167.7486032147485
 21
1617.636146942849
 31
0.0
  0
INSERT
  5
73AB
330
6DD8
100
AcDbEntity
  8
Dims
  6
HIDDEN
 62
     0
370
    -2
100
AcDbBlockReference
  2
_Open30
 10
192.1486032147484
 20
1617.636146942849
 30
0.0
 41
8.0
 42
8.0
 43
8.0
  0
INSERT
  5
73AC
330
6DD8
100
AcDbEntity
  8
Dims
  6
HIDDEN
 62
     0
370
    -2
100
AcDbBlockReference
  2
_Open30
 10
159.7486032147485
 20
1617.636146942849
 30
0.0
 41
8.0
 42
8.0
 43
8.0
 50
180.0
  0
MTEXT
  5
73AD
330
6DD8
100
AcDbEntity
  8
Dims
  6
HIDDEN
 62
     0
100
AcDbMText
 10
175.9486032147484
 20
1624.636146942849
 30
0.0
 40
8.0
 41
0.0
 71
     5
 72
     1
  1
\A1;Ｇ
 73
     1
 44
1.0
1001
ACAD
1000
MTEXTBEGIN
1070
    73
1070
     1
1070
    44
1040
1.0
1070
    74
1070
     0
1000
MTEXTEND
  0
POINT
  5
73AE
330
6DD8
100
AcDbEntity
  8
Defpoints
  6
HIDDEN
 62
     0
100
AcDbPoint
 10
192.1486032147484
 20
1568.048851240574
 30
0.0
  0
POINT
  5
73AF
330
6DD8
100
AcDbEntity
  8
Defpoints
  6
HIDDEN
 62
     0
100
AcDbPoint
 10
159.7486032147485
 20
1576.688851240574
 30
0.0
  0
POINT
  5
73B0
330
6DD8
100
AcDbEntity
  8
Defpoints
  6
HIDDEN
 62
     0
100
AcDbPoint
 10
159.7486032147485
 20
1617.636146942849
 30
0.0
  0
ENDBLK
  5
6DE3
330
6DD8
100
AcDbEntity
  8
0
100
AcDbBlockEnd
  0
BLOCK
  5
6DEE
330
6DE4
100
AcDbEntity
  8
0
100
AcDbBlockBegin
  2
*D27
 70
     1
 10
0.0
 20
0.0
 30
0.0
  3
*D27
  1

  0
LINE
  5
739F
330
6DE4
100
AcDbEntity
  8
Dims
  6
HIDDEN
 62
     0
370
    -2
100
AcDbLine
 10
127.3486032147486
 20
1569.048851240574
 30
0.0
 11
127.3486032147486
 21
1618.636146942849
 31
0.0
  0
LINE
  5
73A0
330
6DE4
100
AcDbEntity
  8
Dims
  6
HIDDEN
 62
     0
370
    -2
100
AcDbLine
 10
159.7486032147485
 20
1577.688851240575
 30
0.0
 11
159.7486032147485
 21
1618.636146942849
 31
0.0
  0
LINE
  5
73A1
330
6DE4
100
AcDbEntity
  8
Dims
  6
HIDDEN
 62
     0
370
    -2
100
AcDbLine
 10
135.3486032147485
 20
1617.636146942849
 30
0.0
 11
151.7486032147485
 21
1617.636146942849
 31
0.0
  0
INSERT
  5
73A2
330
6DE4
100
AcDbEntity
  8
Dims
  6
HIDDEN
 62
     0
370
    -2
100
AcDbBlockReference
  2
_Open30
 10
127.3486032147486
 20
1617.636146942849
 30
0.0
 41
8.0
 42
8.0
 43
8.0
 50
180.0
  0
INSERT
  5
73A3
330
6DE4
100
AcDbEntity
  8
Dims
  6
HIDDEN
 62
     0
370
    -2
100
AcDbBlockReference
  2
_Open30
 10
159.7486032147485
 20
1617.636146942849
 30
0.0
 41
8.0
 42
8.0
 43
8.0
  0
MTEXT
  5
73A4
330
6DE4
100
AcDbEntity
  8
Dims
  6
HIDDEN
 62
     0
100
AcDbMText
 10
143.5486032147486
 20
1624.636146942849
 30
0.0
 40
8.0
 41
0.0
 71
     5
 72
     1
  1
\A1;Ｇ
 73
     1
 44
1.0
1001
ACAD
1000
MTEXTBEGIN
1070
    73
1070
     1
1070
    44
1040
1.0
1070
    74
1070
     0
1000
MTEXTEND
  0
POINT
  5
73A5
330
6DE4
100
AcDbEntity
  8
Defpoints
  6
HIDDEN
 62
     0
100
AcDbPoint
 10
127.3486032147486
 20
1568.048851240575
 30
0.0
  0
POINT
  5
73A6
330
6DE4
100
AcDbEntity
  8
Defpoints
  6
HIDDEN
 62
     0
100
AcDbPoint
 10
159.7486032147485
 20
1576.688851240574
 30
0.0
  0
POINT
  5
73A7
330
6DE4
100
AcDbEntity
  8
Defpoints
  6
HIDDEN
 62
     0
100
AcDbPoint
 10
159.7486032147485
 20
1617.636146942849
 30
0.0
  0
ENDBLK
  5
6DEF
330
6DE4
100
AcDbEntity
  8
0
100
AcDbBlockEnd
  0
BLOCK
  5
6DFA
330
6DF0
100
AcDbEntity
  8
0
100
AcDbBlockBegin
  2
*D28
 70
     1
 10
0.0
 20
0.0
 30
0.0
  3
*D28
  1

  0
LINE
  5
7506
330
6DF0
100
AcDbEntity
  8
Dims
  6
HIDDEN
 62
     0
370
    -2
100
AcDbLine
 10
158.7486032147485
 20
1571.273903333442
 30
0.0
 11
111.1865565661422
 21
1571.273903333442
 31
0.0
  0
LINE
  5
7507
330
6DF0
100
AcDbEntity
  8
Dims
  6
HIDDEN
 62
     0
370
    -2
100
AcDbLine
 10
150.6486032147484
 20
1603.364851240575
 30
0.0
 11
111.1865565661422
 21
1603.364851240575
 31
0.0
  0
LINE
  5
7508
330
6DF0
100
AcDbEntity
  8
Dims
  6
HIDDEN
 62
     0
370
    -2
100
AcDbLine
 10
112.1865565661422
 20
1579.273903333442
 30
0.0
 11
112.1865565661422
 21
1595.364851240574
 31
0.0
  0
MTEXT
  5
7509
330
6DF0
100
AcDbEntity
  8
Dims
  6
HIDDEN
 62
     0
100
AcDbMText
 10
104.4225372087319
 20
1588.261557041453
 30
0.0
 40
8.0
 41
0.0
 71
     5
 72
     1
  1
\A1;Ｃ
 11
0.9999999998476914
 21
-0.000017453292519
 31
0.0
 73
     1
 44
1.0
1001
ACAD
1000
MTEXTBEGIN
1070
    73
1070
     1
1070
    44
1040
1.0
1070
    74
1070
     0
1000
MTEXTEND
  0
INSERT
  5
750A
330
6DF0
100
AcDbEntity
  8
Dims
  6
HIDDEN
 62
     0
370
    -2
100
AcDbBlockReference
  2
_Open30
 10
112.1865565661422
 20
1571.273903333442
 30
0.0
 41
8.0
 42
8.0
 43
8.0
 50
270.0
  0
INSERT
  5
750B
330
6DF0
100
AcDbEntity
  8
Dims
  6
HIDDEN
 62
     0
370
    -2
100
AcDbBlockReference
  2
_Open30
 10
112.1865565661422
 20
1603.364851240575
 30
0.0
 41
8.0
 42
8.0
 43
8.0
 50
90.0
  0
POINT
  5
750C
330
6DF0
100
AcDbEntity
  8
Defpoints
  6
HIDDEN
 62
     0
100
AcDbPoint
 10
159.7486032147485
 20
1571.273903333442
 30
0.0
  0
POINT
  5
750D
330
6DF0
100
AcDbEntity
  8
Defpoints
  6
HIDDEN
 62
     0
100
AcDbPoint
 10
151.6486032147484
 20
1603.364851240575
 30
0.0
  0
POINT
  5
750E
330
6DF0
100
AcDbEntity
  8
Defpoints
  6
HIDDEN
 62
     0
100
AcDbPoint
 10
112.1865565661422
 20
1603.364851240575
 30
0.0
  0
ENDBLK
  5
6DFB
330
6DF0
100
AcDbEntity
  8
0
100
AcDbBlockEnd
  0
BLOCK
  5
6E06
330
6DFC
100
AcDbEntity
  8
0
100
AcDbBlockBegin
  2
*D29
 70
     1
 10
0.0
 20
0.0
 30
0.0
  3
*D29
  1

  0
LINE
  5
756F
330
6DFC
100
AcDbEntity
  8
Dims
  6
HIDDEN
 62
     0
370
    -2
100
AcDbLine
 10
158.7486032147485
 20
1571.273903333442
 30
0.0
 11
111.1865565661422
 21
1571.273903333442
 31
0.0
  0
LINE
  5
7570
330
6DFC
100
AcDbEntity
  8
Dims
  6
HIDDEN
 62
     0
370
    -2
100
AcDbLine
 10
158.7308948737677
 20
1503.248923830993
 30
0.0
 11
111.1865565661422
 21
1503.248923830993
 31
0.0
  0
LINE
  5
7571
330
6DFC
100
AcDbEntity
  8
Dims
  6
HIDDEN
 62
     0
370
    -2
100
AcDbLine
 10
112.1865565661422
 20
1563.273903333442
 30
0.0
 11
112.1865565661422
 21
1511.248923830993
 31
0.0
  0
MTEXT
  5
7572
330
6DFC
100
AcDbEntity
  8
Dims
  6
HIDDEN
 62
     0
100
AcDbMText
 10
104.9302571777989
 20
1540.039946777737
 30
0.0
 40
8.0
 41
0.0
 71
     5
 72
     1
  1
\A1;Ｂ
 11
0.9999999998476914
 21
-0.000017453292519
 31
0.0
 73
     1
 44
1.0
1001
ACAD
1000
MTEXTBEGIN
1070
    73
1070
     1
1070
    44
1040
1.0
1070
    74
1070
     0
1000
MTEXTEND
  0
INSERT
  5
7573
330
6DFC
100
AcDbEntity
  8
Dims
  6
HIDDEN
 62
     0
370
    -2
100
AcDbBlockReference
  2
_Open30
 10
112.1865565661422
 20
1571.273903333442
 30
0.0
 41
8.0
 42
8.0
 43
8.0
 50
90.0
  0
INSERT
  5
7574
330
6DFC
100
AcDbEntity
  8
Dims
  6
HIDDEN
 62
     0
370
    -2
100
AcDbBlockReference
  2
_Open30
 10
112.1865565661422
 20
1503.248923830993
 30
0.0
 41
8.0
 42
8.0
 43
8.0
 50
270.0
  0
POINT
  5
7575
330
6DFC
100
AcDbEntity
  8
Defpoints
  6
HIDDEN
 62
     0
100
AcDbPoint
 10
159.7486032147485
 20
1571.273903333442
 30
0.0
  0
POINT
  5
7576
330
6DFC
100
AcDbEntity
  8
Defpoints
  6
HIDDEN
 62
     0
100
AcDbPoint
 10
159.7308948737676
 20
1503.248923830993
 30
0.0
  0
POINT
  5
7577
330
6DFC
100
AcDbEntity
  8
Defpoints
  6
HIDDEN
 62
     0
100
AcDbPoint
 10
112.1865565661422
 20
1503.248923830993
 30
0.0
  0
ENDBLK
  5
6E07
330
6DFC
100
AcDbEntity
  8
0
100
AcDbBlockEnd
  0
BLOCK
  5
6E12
330
6E08
100
AcDbEntity
  8
0
100
AcDbBlockBegin
  2
*D30
 70
     1
 10
0.0
 20
0.0
 30
0.0
  3
*D30
  1

  0
LINE
  5
74F3
330
6E08
100
AcDbEntity
  8
Dims
  6
HIDDEN
 62
     0
370
    -2
100
AcDbLine
 10
158.7308948737677
 20
1503.248923830993
 30
0.0
 11
92.28358407664192
 21
1503.248923830993
 31
0.0
  0
LINE
  5
74F4
330
6E08
100
AcDbEntity
  8
Dims
  6
HIDDEN
 62
     0
370
    -2
100
AcDbLine
 10
150.6486032147484
 20
1603.364851240575
 30
0.0
 11
92.28358407664194
 21
1603.364851240575
 31
0.0
  0
LINE
  5
74F5
330
6E08
100
AcDbEntity
  8
Dims
  6
HIDDEN
 62
     0
370
    -2
100
AcDbLine
 10
93.28358407664191
 20
1511.248923830993
 30
0.0
 11
93.28358407664195
 21
1595.364851240574
 31
0.0
  0
MTEXT
  5
74F6
330
6E08
100
AcDbEntity
  8
Dims
  6
HIDDEN
 62
     0
100
AcDbMText
 10
84.87533259966358
 20
1552.983642316073
 30
0.0
 40
8.0
 41
0.0
 71
     5
 72
     1
  1
\A1;Ａ
 11
0.9999999998476914
 21
-0.000017453292519
 31
0.0
 73
     1
 44
1.0
1001
ACAD
1000
MTEXTBEGIN
1070
    73
1070
     1
1070
    44
1040
1.0
1070
    74
1070
     0
1000
MTEXTEND
  0
INSERT
  5
74F7
330
6E08
100
AcDbEntity
  8
Dims
  6
HIDDEN
 62
     0
370
    -2
100
AcDbBlockReference
  2
_Open30
 10
93.28358407664191
 20
1503.248923830993
 30
0.0
 41
8.0
 42
8.0
 43
8.0
 50
270.0
  0
INSERT
  5
74F8
330
6E08
100
AcDbEntity
  8
Dims
  6
HIDDEN
 62
     0
370
    -2
100
AcDbBlockReference
  2
_Open30
 10
93.28358407664195
 20
1603.364851240575
 30
0.0
 41
8.0
 42
8.0
 43
8.0
 50
90.0
  0
POINT
  5
74F9
330
6E08
100
AcDbEntity
  8
Defpoints
  6
HIDDEN
 62
     0
100
AcDbPoint
 10
159.7308948737676
 20
1503.248923830993
 30
0.0
  0
POINT
  5
74FA
330
6E08
100
AcDbEntity
  8
Defpoints
  6
HIDDEN
 62
     0
100
AcDbPoint
 10
151.6486032147484
 20
1603.364851240575
 30
0.0
  0
POINT
  5
74FB
330
6E08
100
AcDbEntity
  8
Defpoints
  6
HIDDEN
 62
     0
100
AcDbPoint
 10
93.28358407664195
 20
1603.364851240575
 30
0.0
  0
ENDBLK
  5
6E13
330
6E08
100
AcDbEntity
  8
0
100
AcDbBlockEnd
  0
BLOCK
  5
6E1D
330
6E14
100
AcDbEntity
  8
0
100
AcDbBlockBegin
  2
*D31
 70
     1
 10
0.0
 20
0.0
 30
0.0
  3
*D31
  1

  0
LINE
  5
766B
330
6E14
100
AcDbEntity
  8
Dims
  6
HIDDEN
 62
     0
370
    -2
100
AcDbLine
 10
311.3874573058924
 20
1518.695562067529
 30
0.0
 11
303.3874573058927
 21
1518.695562067529
 31
0.0
  0
LINE
  5
766C
330
6E14
100
AcDbEntity
  8
Dims
  6
HIDDEN
 62
     0
370
    -2
100
AcDbLine
 10
303.3874573058927
 20
1518.695562067529
 30
0.0
 11
276.578060441667
 21
1554.267093710948
 31
0.0
  0
LINE
  5
766D
330
6E14
100
AcDbEntity
  8
Dims
  6
HIDDEN
 62
     0
370
    -2
100
AcDbLine
 10
262.7228529706052
 20
1572.650608770202
 30
0.0
 11
257.9078373420867
 21
1579.039319477154
 31
0.0
  0
MTEXT
  5
766E
330
6E14
100
AcDbEntity
  8
Dims
  6
HIDDEN
 62
     0
100
AcDbMText
 10
317.1488786256893
 20
1518.695562067529
 30
0.0
 40
8.0
 41
0.0
 71
     5
 72
     1
  1
\A1;Ｆ
 11
0.9999999998476914
 21
-0.000017453292519
 31
0.0
 73
     1
 44
1.0
1001
ACAD
1000
MTEXTBEGIN
1070
    73
1070
     1
1070
    44
1040
1.0
1070
    74
1070
     0
1000
MTEXTEND
  0
LINE
  5
766F
330
6E14
100
AcDbEntity
  8
Dims
  6
HIDDEN
 62
     0
370
    -2
100
AcDbLine
 10
267.5378685991237
 20
1566.26189806325
 30
0.0
 11
271.7630448131485
 21
1560.6558044179
 31
0.0
  0
INSERT
  5
7670
330
6E14
100
AcDbEntity
  8
Dims
  6
HIDDEN
 62
     0
370
    -2
100
AcDbBlockReference
  2
_Open30
 10
267.5378685991237
 20
1566.26189806325
 30
0.0
 41
8.0
 42
8.0
 43
8.0
 50
307.0044431469837
  0
INSERT
  5
7671
330
6E14
100
AcDbEntity
  8
Dims
  6
HIDDEN
 62
     0
370
    -2
100
AcDbBlockReference
  2
_Open30
 10
271.7630448131485
 20
1560.6558044179
 30
0.0
 41
8.0
 42
8.0
 43
8.0
 50
127.0044431469837
  0
POINT
  5
7672
330
6E14
100
AcDbEntity
  8
Defpoints
  6
HIDDEN
 62
     0
100
AcDbPoint
 10
271.7630448131485
 20
1560.6558044179
 30
0.0
  0
POINT
  5
7673
330
6E14
100
AcDbEntity
  8
Defpoints
  6
HIDDEN
 62
     0
100
AcDbPoint
 10
267.5378685991237
 20
1566.26189806325
 30
0.0
  0
ENDBLK
  5
6E1E
330
6E14
100
AcDbEntity
  8
0
100
AcDbBlockEnd
  0
BLOCK
  5
6E29
330
6E1F
100
AcDbEntity
  8
0
100
AcDbBlockBegin
  2
*D32
 70
     1
 10
0.0
 20
0.0
 30
0.0
  3
*D32
  1

  0
LINE
  5
7642
330
6E1F
100
AcDbEntity
  8
Dims
  6
HIDDEN
 62
     0
370
    -2
100
AcDbLine
 10
308.3620974355235
 20
1576.664723333442
 30
0.0
 11
297.4524581461585
 21
1576.664723333442
 31
0.0
  0
LINE
  5
7643
330
6E1F
100
AcDbEntity
  8
Dims
  6
HIDDEN
 62
     0
370
    -2
100
AcDbLine
 10
298.4524581461585
 20
1552.388730135542
 30
0.0
 11
298.4524581461585
 21
1544.388730135542
 31
0.0
  0
LINE
  5
7644
330
6E1F
100
AcDbEntity
  8
Dims
  6
HIDDEN
 62
     0
370
    -2
100
AcDbLine
 10
298.4524581461585
 20
1584.664723333442
 30
0.0
 11
298.4524581461585
 21
1592.664723333442
 31
0.0
  0
LINE
  5
7645
330
6E1F
100
AcDbEntity
  8
Dims
  6
HIDDEN
 62
     0
370
    -2
100
AcDbLine
 10
306.4524581461585
 20
1624.717783645858
 30
0.0
 11
298.4524581461585
 21
1624.717783645858
 31
0.0
  0
LINE
  5
7646
330
6E1F
100
AcDbEntity
  8
Dims
  6
HIDDEN
 62
     0
370
    -2
100
AcDbLine
 10
298.4524581461585
 20
1624.717783645858
 30
0.0
 11
298.4524581461585
 21
1592.664723333442
 31
0.0
  0
MTEXT
  5
7647
330
6E1F
100
AcDbEntity
  8
Dims
  6
HIDDEN
 62
     0
100
AcDbMText
 10
312.4981434253461
 20
1624.717783645858
 30
0.0
 40
8.0
 41
0.0
 71
     5
 72
     1
  1
\A1;Ｅ
 11
0.9999999998476914
 21
-0.000017453292519
 31
0.0
 73
     1
 44
1.0
1001
ACAD
1000
MTEXTBEGIN
1070
    73
1070
     1
1070
    44
1040
1.0
1070
    74
1070
     0
1000
MTEXTEND
  0
LINE
  5
7648
330
6E1F
100
AcDbEntity
  8
Dims
  6
HIDDEN
 62
     0
370
    -2
100
AcDbLine
 10
298.4524581461585
 20
1560.388730135542
 30
0.0
 11
298.4524581461585
 21
1576.664723333442
 31
0.0
  0
INSERT
  5
7649
330
6E1F
100
AcDbEntity
  8
Dims
  6
HIDDEN
 62
     0
370
    -2
100
AcDbBlockReference
  2
_Open30
 10
298.4524581461585
 20
1560.388730135542
 30
0.0
 41
8.0
 42
8.0
 43
8.0
 50
90.0
  0
INSERT
  5
764A
330
6E1F
100
AcDbEntity
  8
Dims
  6
HIDDEN
 62
     0
370
    -2
100
AcDbBlockReference
  2
_Open30
 10
298.4524581461585
 20
1576.664723333442
 30
0.0
 41
8.0
 42
8.0
 43
8.0
 50
270.0
  0
POINT
  5
764B
330
6E1F
100
AcDbEntity
  8
Defpoints
  6
HIDDEN
 62
     0
100
AcDbPoint
 10
298.4524581461585
 20
1560.388730135542
 30
0.0
  0
POINT
  5
764C
330
6E1F
100
AcDbEntity
  8
Defpoints
  6
HIDDEN
 62
     0
100
AcDbPoint
 10
309.3620974355236
 20
1576.664723333442
 30
0.0
  0
POINT
  5
764D
330
6E1F
100
AcDbEntity
  8
Defpoints
  6
HIDDEN
 62
     0
100
AcDbPoint
 10
298.4524581461585
 20
1576.664723333442
 30
0.0
  0
ENDBLK
  5
6E2A
330
6E1F
100
AcDbEntity
  8
0
100
AcDbBlockEnd
  0
BLOCK
  5
6E35
330
6E2B
100
AcDbEntity
  8
0
100
AcDbBlockBegin
  2
*D33
 70
     1
 10
0.0
 20
0.0
 30
0.0
  3
*D33
  1

  0
LINE
  5
74C2
330
6E2B
100
AcDbEntity
  8
Dims
  6
HIDDEN
 62
     0
370
    -2
100
AcDbLine
 10
-46.92881672254805
 20
1560.568851240574
 30
0.0
 11
-46.92881672254805
 21
1512.452308858042
 31
0.0
  0
LINE
  5
74C3
330
6E2B
100
AcDbEntity
  8
Dims
  6
HIDDEN
 62
     0
370
    -2
100
AcDbLine
 10
-73.92881672254779
 20
1558.408851240574
 30
0.0
 11
-73.92881672254779
 21
1512.452308858042
 31
0.0
  0
LINE
  5
74C4
330
6E2B
100
AcDbEntity
  8
Dims
  6
HIDDEN
 62
     0
370
    -2
100
AcDbLine
 10
-54.92881672254807
 20
1513.452308858042
 30
0.0
 11
-65.9288167225478
 21
1513.452308858042
 31
0.0
  0
INSERT
  5
74C5
330
6E2B
100
AcDbEntity
  8
Dims
  6
HIDDEN
 62
     0
370
    -2
100
AcDbBlockReference
  2
_Open30
 10
-46.92881672254805
 20
1513.452308858042
 30
0.0
 41
8.0
 42
8.0
 43
8.0
  0
INSERT
  5
74C6
330
6E2B
100
AcDbEntity
  8
Dims
  6
HIDDEN
 62
     0
370
    -2
100
AcDbBlockReference
  2
_Open30
 10
-73.92881672254779
 20
1513.452308858042
 30
0.0
 41
8.0
 42
8.0
 43
8.0
 50
180.0
  0
MTEXT
  5
74C7
330
6E2B
100
AcDbEntity
  8
Dims
  6
HIDDEN
 62
     0
100
AcDbMText
 10
-60.42881672254793
 20
1520.452308858042
 30
0.0
 40
8.0
 41
0.0
 71
     5
 72
     1
  1
\A1;Ｄ
 73
     1
 44
1.0
1001
ACAD
1000
MTEXTBEGIN
1070
    73
1070
     1
1070
    44
1040
1.0
1070
    74
1070
     0
1000
MTEXTEND
  0
POINT
  5
74C8
330
6E2B
100
AcDbEntity
  8
Defpoints
  6
HIDDEN
 62
     0
100
AcDbPoint
 10
-46.92881672254805
 20
1561.568851240574
 30
0.0
  0
POINT
  5
74C9
330
6E2B
100
AcDbEntity
  8
Defpoints
  6
HIDDEN
 62
     0
100
AcDbPoint
 10
-73.92881672254779
 20
1559.408851240574
 30
0.0
  0
POINT
  5
74CA
330
6E2B
100
AcDbEntity
  8
Defpoints
  6
HIDDEN
 62
     0
100
AcDbPoint
 10
-73.92881672254779
 20
1513.452308858042
 30
0.0
  0
ENDBLK
  5
6E36
330
6E2B
100
AcDbEntity
  8
0
100
AcDbBlockEnd
  0
BLOCK
  5
6E41
330
6E37
100
AcDbEntity
  8
0
100
AcDbBlockBegin
  2
*D34
 70
     1
 10
0.0
 20
0.0
 30
0.0
  3
*D34
  1

  0
LINE
  5
7351
330
6E37
100
AcDbEntity
  8
Dims
  6
HIDDEN
 62
     0
370
    -2
100
AcDbLine
 10
-120.9206702139359
 20
1569.048851240574
 30
0.0
 11
-120.9206702139359
 21
1618.636146942849
 31
0.0
  0
LINE
  5
7352
330
6E37
100
AcDbEntity
  8
Dims
  6
HIDDEN
 62
     0
370
    -2
100
AcDbLine
 10
-153.3206702139358
 20
1577.688851240575
 30
0.0
 11
-153.3206702139358
 21
1618.636146942849
 31
0.0
  0
LINE
  5
7353
330
6E37
100
AcDbEntity
  8
Dims
  6
HIDDEN
 62
     0
370
    -2
100
AcDbLine
 10
-128.9206702139359
 20
1617.636146942849
 30
0.0
 11
-145.3206702139356
 21
1617.636146942849
 31
0.0
  0
INSERT
  5
7354
330
6E37
100
AcDbEntity
  8
Dims
  6
HIDDEN
 62
     0
370
    -2
100
AcDbBlockReference
  2
_Open30
 10
-120.9206702139359
 20
1617.636146942849
 30
0.0
 41
8.0
 42
8.0
 43
8.0
  0
INSERT
  5
7355
330
6E37
100
AcDbEntity
  8
Dims
  6
HIDDEN
 62
     0
370
    -2
100
AcDbBlockReference
  2
_Open30
 10
-153.3206702139358
 20
1617.636146942849
 30
0.0
 41
8.0
 42
8.0
 43
8.0
 50
180.0
  0
MTEXT
  5
7356
330
6E37
100
AcDbEntity
  8
Dims
  6
HIDDEN
 62
     0
100
AcDbMText
 10
-137.1206702139358
 20
1624.636146942849
 30
0.0
 40
8.0
 41
0.0
 71
     5
 72
     1
  1
\A1;Ｇ
 73
     1
 44
1.0
1001
ACAD
1000
MTEXTBEGIN
1070
    73
1070
     1
1070
    44
1040
1.0
1070
    74
1070
     0
1000
MTEXTEND
  0
POINT
  5
7357
330
6E37
100
AcDbEntity
  8
Defpoints
  6
HIDDEN
 62
     0
100
AcDbPoint
 10
-120.9206702139359
 20
1568.048851240574
 30
0.0
  0
POINT
  5
7358
330
6E37
100
AcDbEntity
  8
Defpoints
  6
HIDDEN
 62
     0
100
AcDbPoint
 10
-153.3206702139358
 20
1576.688851240574
 30
0.0
  0
POINT
  5
7359
330
6E37
100
AcDbEntity
  8
Defpoints
  6
HIDDEN
 62
     0
100
AcDbPoint
 10
-153.3206702139358
 20
1617.636146942849
 30
0.0
  0
ENDBLK
  5
6E42
330
6E37
100
AcDbEntity
  8
0
100
AcDbBlockEnd
  0
BLOCK
  5
6E4D
330
6E43
100
AcDbEntity
  8
0
100
AcDbBlockBegin
  2
*D35
 70
     1
 10
0.0
 20
0.0
 30
0.0
  3
*D35
  1

  0
LINE
  5
7348
330
6E43
100
AcDbEntity
  8
Dims
  6
HIDDEN
 62
     0
370
    -2
100
AcDbLine
 10
-185.7206702139356
 20
1569.048851240574
 30
0.0
 11
-185.7206702139356
 21
1618.636146942849
 31
0.0
  0
LINE
  5
7349
330
6E43
100
AcDbEntity
  8
Dims
  6
HIDDEN
 62
     0
370
    -2
100
AcDbLine
 10
-153.3206702139358
 20
1577.688851240575
 30
0.0
 11
-153.3206702139358
 21
1618.636146942849
 31
0.0
  0
LINE
  5
734A
330
6E43
100
AcDbEntity
  8
Dims
  6
HIDDEN
 62
     0
370
    -2
100
AcDbLine
 10
-177.7206702139356
 20
1617.636146942849
 30
0.0
 11
-161.3206702139358
 21
1617.636146942849
 31
0.0
  0
INSERT
  5
734B
330
6E43
100
AcDbEntity
  8
Dims
  6
HIDDEN
 62
     0
370
    -2
100
AcDbBlockReference
  2
_Open30
 10
-185.7206702139356
 20
1617.636146942849
 30
0.0
 41
8.0
 42
8.0
 43
8.0
 50
180.0
  0
INSERT
  5
734C
330
6E43
100
AcDbEntity
  8
Dims
  6
HIDDEN
 62
     0
370
    -2
100
AcDbBlockReference
  2
_Open30
 10
-153.3206702139358
 20
1617.636146942849
 30
0.0
 41
8.0
 42
8.0
 43
8.0
  0
MTEXT
  5
734D
330
6E43
100
AcDbEntity
  8
Dims
  6
HIDDEN
 62
     0
100
AcDbMText
 10
-169.5206702139357
 20
1624.636146942849
 30
0.0
 40
8.0
 41
0.0
 71
     5
 72
     1
  1
\A1;Ｇ
 73
     1
 44
1.0
1001
ACAD
1000
MTEXTBEGIN
1070
    73
1070
     1
1070
    44
1040
1.0
1070
    74
1070
     0
1000
MTEXTEND
  0
POINT
  5
734E
330
6E43
100
AcDbEntity
  8
Defpoints
  6
HIDDEN
 62
     0
100
AcDbPoint
 10
-185.7206702139356
 20
1568.048851240575
 30
0.0
  0
POINT
  5
734F
330
6E43
100
AcDbEntity
  8
Defpoints
  6
HIDDEN
 62
     0
100
AcDbPoint
 10
-153.3206702139358
 20
1576.688851240574
 30
0.0
  0
POINT
  5
7350
330
6E43
100
AcDbEntity
  8
Defpoints
  6
HIDDEN
 62
     0
100
AcDbPoint
 10
-153.3206702139358
 20
1617.636146942849
 30
0.0
  0
ENDBLK
  5
6E4E
330
6E43
100
AcDbEntity
  8
0
100
AcDbBlockEnd
  0
BLOCK
  5
6E59
330
6E4F
100
AcDbEntity
  8
0
100
AcDbBlockBegin
  2
*D36
 70
     1
 10
0.0
 20
0.0
 30
0.0
  3
*D36
  1

  0
LINE
  5
7553
330
6E4F
100
AcDbEntity
  8
Dims
  6
HIDDEN
 62
     0
370
    -2
100
AcDbLine
 10
-154.3206702139358
 20
1571.273903333442
 30
0.0
 11
-201.8827168625421
 21
1571.273903333442
 31
0.0
  0
LINE
  5
7554
330
6E4F
100
AcDbEntity
  8
Dims
  6
HIDDEN
 62
     0
370
    -2
100
AcDbLine
 10
-162.4206702139359
 20
1603.364851240575
 30
0.0
 11
-201.8827168625421
 21
1603.364851240575
 31
0.0
  0
LINE
  5
7555
330
6E4F
100
AcDbEntity
  8
Dims
  6
HIDDEN
 62
     0
370
    -2
100
AcDbLine
 10
-200.8827168625421
 20
1579.273903333442
 30
0.0
 11
-200.8827168625421
 21
1595.364851240574
 31
0.0
  0
MTEXT
  5
7556
330
6E4F
100
AcDbEntity
  8
Dims
  6
HIDDEN
 62
     0
100
AcDbMText
 10
-208.9904039335954
 20
1588.282936241188
 30
0.0
 40
8.0
 41
0.0
 71
     5
 72
     1
  1
\A1;Ｃ
 11
0.9999999998476914
 21
-0.000017453292519
 31
0.0
 73
     1
 44
1.0
1001
ACAD
1000
MTEXTBEGIN
1070
    73
1070
     1
1070
    44
1040
1.0
1070
    74
1070
     0
1000
MTEXTEND
  0
INSERT
  5
7557
330
6E4F
100
AcDbEntity
  8
Dims
  6
HIDDEN
 62
     0
370
    -2
100
AcDbBlockReference
  2
_Open30
 10
-200.8827168625421
 20
1571.273903333442
 30
0.0
 41
8.0
 42
8.0
 43
8.0
 50
270.0
  0
INSERT
  5
7558
330
6E4F
100
AcDbEntity
  8
Dims
  6
HIDDEN
 62
     0
370
    -2
100
AcDbBlockReference
  2
_Open30
 10
-200.882716862542
 20
1603.364851240575
 30
0.0
 41
8.0
 42
8.0
 43
8.0
 50
90.0
  0
POINT
  5
7559
330
6E4F
100
AcDbEntity
  8
Defpoints
  6
HIDDEN
 62
     0
100
AcDbPoint
 10
-153.3206702139358
 20
1571.273903333442
 30
0.0
  0
POINT
  5
755A
330
6E4F
100
AcDbEntity
  8
Defpoints
  6
HIDDEN
 62
     0
100
AcDbPoint
 10
-161.4206702139359
 20
1603.364851240575
 30
0.0
  0
POINT
  5
755B
330
6E4F
100
AcDbEntity
  8
Defpoints
  6
HIDDEN
 62
     0
100
AcDbPoint
 10
-200.882716862542
 20
1603.364851240575
 30
0.0
  0
ENDBLK
  5
6E5A
330
6E4F
100
AcDbEntity
  8
0
100
AcDbBlockEnd
  0
BLOCK
  5
6E65
330
6E5B
100
AcDbEntity
  8
0
100
AcDbBlockBegin
  2
*D37
 70
     1
 10
0.0
 20
0.0
 30
0.0
  3
*D37
  1

  0
LINE
  5
7540
330
6E5B
100
AcDbEntity
  8
Dims
  6
HIDDEN
 62
     0
370
    -2
100
AcDbLine
 10
-154.3206702139358
 20
1571.273903333442
 30
0.0
 11
-201.8827168625421
 21
1571.273903333442
 31
0.0
  0
LINE
  5
7541
330
6E5B
100
AcDbEntity
  8
Dims
  6
HIDDEN
 62
     0
370
    -2
100
AcDbLine
 10
-154.3383785549165
 20
1503.248923830993
 30
0.0
 11
-201.8827168625421
 21
1503.248923830993
 31
0.0
  0
LINE
  5
7542
330
6E5B
100
AcDbEntity
  8
Dims
  6
HIDDEN
 62
     0
370
    -2
100
AcDbLine
 10
-200.8827168625421
 20
1563.273903333442
 30
0.0
 11
-200.8827168625421
 21
1511.248923830993
 31
0.0
  0
MTEXT
  5
7543
330
6E5B
100
AcDbEntity
  8
Dims
  6
HIDDEN
 62
     0
100
AcDbMText
 10
-207.2006166503316
 20
1538.404771084733
 30
0.0
 40
8.0
 41
0.0
 71
     5
 72
     1
  1
\A1;Ｂ
 11
0.9999999998476914
 21
-0.000017453292519
 31
0.0
 73
     1
 44
1.0
1001
ACAD
1000
MTEXTBEGIN
1070
    73
1070
     1
1070
    44
1040
1.0
1070
    74
1070
     0
1000
MTEXTEND
  0
INSERT
  5
7544
330
6E5B
100
AcDbEntity
  8
Dims
  6
HIDDEN
 62
     0
370
    -2
100
AcDbBlockReference
  2
_Open30
 10
-200.8827168625421
 20
1571.273903333442
 30
0.0
 41
8.0
 42
8.0
 43
8.0
 50
90.0
  0
INSERT
  5
7545
330
6E5B
100
AcDbEntity
  8
Dims
  6
HIDDEN
 62
     0
370
    -2
100
AcDbBlockReference
  2
_Open30
 10
-200.8827168625421
 20
1503.248923830993
 30
0.0
 41
8.0
 42
8.0
 43
8.0
 50
270.0
  0
POINT
  5
7546
330
6E5B
100
AcDbEntity
  8
Defpoints
  6
HIDDEN
 62
     0
100
AcDbPoint
 10
-153.3206702139358
 20
1571.273903333442
 30
0.0
  0
POINT
  5
7547
330
6E5B
100
AcDbEntity
  8
Defpoints
  6
HIDDEN
 62
     0
100
AcDbPoint
 10
-153.3383785549165
 20
1503.248923830993
 30
0.0
  0
POINT
  5
7548
330
6E5B
100
AcDbEntity
  8
Defpoints
  6
HIDDEN
 62
     0
100
AcDbPoint
 10
-200.8827168625421
 20
1503.248923830993
 30
0.0
  0
ENDBLK
  5
6E66
330
6E5B
100
AcDbEntity
  8
0
100
AcDbBlockEnd
  0
BLOCK
  5
6E71
330
6E67
100
AcDbEntity
  8
0
100
AcDbBlockBegin
  2
*D38
 70
     1
 10
0.0
 20
0.0
 30
0.0
  3
*D38
  1

  0
LINE
  5
7566
330
6E67
100
AcDbEntity
  8
Dims
  6
HIDDEN
 62
     0
370
    -2
100
AcDbLine
 10
-154.3383785549165
 20
1503.248923830993
 30
0.0
 11
-220.0339550518207
 21
1503.248923830993
 31
0.0
  0
LINE
  5
7567
330
6E67
100
AcDbEntity
  8
Dims
  6
HIDDEN
 62
     0
370
    -2
100
AcDbLine
 10
-162.4206702139359
 20
1603.364851240575
 30
0.0
 11
-220.0339550518207
 21
1603.364851240575
 31
0.0
  0
LINE
  5
7568
330
6E67
100
AcDbEntity
  8
Dims
  6
HIDDEN
 62
     0
370
    -2
100
AcDbLine
 10
-219.0339550518207
 20
1511.248923830993
 30
0.0
 11
-219.0339550518207
 21
1595.364851240574
 31
0.0
  0
MTEXT
  5
7569
330
6E67
100
AcDbEntity
  8
Dims
  6
HIDDEN
 62
     0
100
AcDbMText
 10
-226.4408295509734
 20
1552.048574265647
 30
0.0
 40
8.0
 41
0.0
 71
     5
 72
     1
  1
\A1;Ａ
 11
0.9999999998476914
 21
-0.000017453292519
 31
0.0
 73
     1
 44
1.0
1001
ACAD
1000
MTEXTBEGIN
1070
    73
1070
     1
1070
    44
1040
1.0
1070
    74
1070
     0
1000
MTEXTEND
  0
INSERT
  5
756A
330
6E67
100
AcDbEntity
  8
Dims
  6
HIDDEN
 62
     0
370
    -2
100
AcDbBlockReference
  2
_Open30
 10
-219.0339550518207
 20
1503.248923830993
 30
0.0
 41
8.0
 42
8.0
 43
8.0
 50
270.0
  0
INSERT
  5
756B
330
6E67
100
AcDbEntity
  8
Dims
  6
HIDDEN
 62
     0
370
    -2
100
AcDbBlockReference
  2
_Open30
 10
-219.0339550518206
 20
1603.364851240575
 30
0.0
 41
8.0
 42
8.0
 43
8.0
 50
90.0
  0
POINT
  5
756C
330
6E67
100
AcDbEntity
  8
Defpoints
  6
HIDDEN
 62
     0
100
AcDbPoint
 10
-153.3383785549165
 20
1503.248923830993
 30
0.0
  0
POINT
  5
756D
330
6E67
100
AcDbEntity
  8
Defpoints
  6
HIDDEN
 62
     0
100
AcDbPoint
 10
-161.4206702139359
 20
1603.364851240575
 30
0.0
  0
POINT
  5
756E
330
6E67
100
AcDbEntity
  8
Defpoints
  6
HIDDEN
 62
     0
100
AcDbPoint
 10
-219.0339550518206
 20
1603.364851240575
 30
0.0
  0
ENDBLK
  5
6E72
330
6E67
100
AcDbEntity
  8
0
100
AcDbBlockEnd
  0
BLOCK
  5
6E7C
330
6E73
100
AcDbEntity
  8
0
100
AcDbBlockBegin
  2
*D39
 70
     1
 10
0.0
 20
0.0
 30
0.0
  3
*D39
  1

  0
LINE
  5
75D7
330
6E73
100
AcDbEntity
  8
Dims
  6
HIDDEN
 62
     0
370
    -2
100
AcDbLine
 10
-10.41123502394623
 20
1519.000524390463
 30
0.0
 11
-18.41123502394623
 21
1519.000524390464
 31
0.0
  0
LINE
  5
75D8
330
6E73
100
AcDbEntity
  8
Dims
  6
HIDDEN
 62
     0
370
    -2
100
AcDbLine
 10
-18.41123502394623
 20
1519.000524390464
 30
0.0
 11
-37.77594879117612
 21
1553.426994906423
 31
0.0
  0
LINE
  5
75D9
330
6E73
100
AcDbEntity
  8
Dims
  6
HIDDEN
 62
     0
370
    -2
100
AcDbLine
 10
-49.06168465392091
 20
1573.490707574729
 30
0.0
 11
-52.98374750804601
 21
1580.463327094557
 31
0.0
  0
MTEXT
  5
75DA
330
6E73
100
AcDbEntity
  8
Dims
  6
HIDDEN
 62
     0
100
AcDbMText
 10
-4.64981370414921
 20
1519.000524390463
 30
0.0
 40
8.0
 41
0.0
 71
     5
 72
     1
  1
\A1;Ｆ
 11
0.9999999998476914
 21
0.0000174532925191
 31
0.0
 73
     1
 44
1.0
1001
ACAD
1000
MTEXTBEGIN
1070
    73
1070
     1
1070
    44
1040
1.0
1070
    74
1070
     0
1000
MTEXTEND
  0
LINE
  5
75DB
330
6E73
100
AcDbEntity
  8
Dims
  6
HIDDEN
 62
     0
370
    -2
100
AcDbLine
 10
-45.13962179979567
 20
1566.5180880549
 30
0.0
 11
-41.69801164530122
 21
1560.399614426251
 31
0.0
  0
INSERT
  5
75DC
330
6E73
100
AcDbEntity
  8
Dims
  6
HIDDEN
 62
     0
370
    -2
100
AcDbBlockReference
  2
_Open30
 10
-45.13962179979567
 20
1566.5180880549
 30
0.0
 41
8.0
 42
8.0
 43
8.0
 50
299.3575311595584
  0
INSERT
  5
75DD
330
6E73
100
AcDbEntity
  8
Dims
  6
HIDDEN
 62
     0
370
    -2
100
AcDbBlockReference
  2
_Open30
 10
-41.69801164530122
 20
1560.399614426251
 30
0.0
 41
8.0
 42
8.0
 43
8.0
 50
119.3575311595584
  0
POINT
  5
75DE
330
6E73
100
AcDbEntity
  8
Defpoints
  6
HIDDEN
 62
     0
100
AcDbPoint
 10
-41.69801164530122
 20
1560.399614426251
 30
0.0
  0
POINT
  5
75DF
330
6E73
100
AcDbEntity
  8
Defpoints
  6
HIDDEN
 62
     0
100
AcDbPoint
 10
-45.13962179979567
 20
1566.5180880549
 30
0.0
  0
ENDBLK
  5
6E7D
330
6E73
100
AcDbEntity
  8
0
100
AcDbBlockEnd
  0
BLOCK
  5
6E88
330
6E7E
100
AcDbEntity
  8
0
100
AcDbBlockBegin
  2
*D40
 70
     1
 10
0.0
 20
0.0
 30
0.0
  3
*D40
  1

  0
LINE
  5
75CA
330
6E7E
100
AcDbEntity
  8
Dims
  6
HIDDEN
 62
     0
370
    -2
100
AcDbLine
 10
-4.707175993160793
 20
1576.664723333442
 30
0.0
 11
-12.43505624351701
 21
1576.664723333442
 31
0.0
  0
LINE
  5
75CB
330
6E7E
100
AcDbEntity
  8
Dims
  6
HIDDEN
 62
     0
370
    -2
100
AcDbLine
 10
-11.43505624351701
 20
1550.362209295035
 30
0.0
 11
-11.43505624351701
 21
1542.362209295035
 31
0.0
  0
LINE
  5
75CC
330
6E7E
100
AcDbEntity
  8
Dims
  6
HIDDEN
 62
     0
370
    -2
100
AcDbLine
 10
-11.435056243517
 20
1584.664723333442
 30
0.0
 11
-11.435056243517
 21
1592.664723333442
 31
0.0
  0
LINE
  5
75CD
330
6E7E
100
AcDbEntity
  8
Dims
  6
HIDDEN
 62
     0
370
    -2
100
AcDbLine
 10
-3.435056243516998
 20
1623.957489708126
 30
0.0
 11
-11.435056243517
 21
1623.957489708126
 31
0.0
  0
LINE
  5
75CE
330
6E7E
100
AcDbEntity
  8
Dims
  6
HIDDEN
 62
     0
370
    -2
100
AcDbLine
 10
-11.435056243517
 20
1623.957489708126
 30
0.0
 11
-11.435056243517
 21
1592.664723333442
 31
0.0
  0
MTEXT
  5
75CF
330
6E7E
100
AcDbEntity
  8
Dims
  6
HIDDEN
 62
     0
100
AcDbMText
 10
2.610629035670559
 20
1623.957489708126
 30
0.0
 40
8.0
 41
0.0
 71
     5
 72
     1
  1
\A1;Ｅ
 11
0.9999999998476914
 21
-0.000017453292519
 31
0.0
 73
     1
 44
1.0
1001
ACAD
1000
MTEXTBEGIN
1070
    73
1070
     1
1070
    44
1040
1.0
1070
    74
1070
     0
1000
MTEXTEND
  0
LINE
  5
75D0
330
6E7E
100
AcDbEntity
  8
Dims
  6
HIDDEN
 62
     0
370
    -2
100
AcDbLine
 10
-11.43505624351701
 20
1558.362209295035
 30
0.0
 11
-11.43505624351701
 21
1576.664723333442
 31
0.0
  0
INSERT
  5
75D1
330
6E7E
100
AcDbEntity
  8
Dims
  6
HIDDEN
 62
     0
370
    -2
100
AcDbBlockReference
  2
_Open30
 10
-11.43505624351701
 20
1558.362209295035
 30
0.0
 41
8.0
 42
8.0
 43
8.0
 50
90.0
  0
INSERT
  5
75D2
330
6E7E
100
AcDbEntity
  8
Dims
  6
HIDDEN
 62
     0
370
    -2
100
AcDbBlockReference
  2
_Open30
 10
-11.43505624351701
 20
1576.664723333442
 30
0.0
 41
8.0
 42
8.0
 43
8.0
 50
270.0
  0
POINT
  5
75D3
330
6E7E
100
AcDbEntity
  8
Defpoints
  6
HIDDEN
 62
     0
100
AcDbPoint
 10
-11.43505624351701
 20
1558.362209295035
 30
0.0
  0
POINT
  5
75D4
330
6E7E
100
AcDbEntity
  8
Defpoints
  6
HIDDEN
 62
     0
100
AcDbPoint
 10
-3.707175993160793
 20
1576.664723333442
 30
0.0
  0
POINT
  5
75D5
330
6E7E
100
AcDbEntity
  8
Defpoints
  6
HIDDEN
 62
     0
100
AcDbPoint
 10
-11.43505624351701
 20
1576.664723333442
 30
0.0
  0
ENDBLK
  5
6E89
330
6E7E
100
AcDbEntity
  8
0
100
AcDbBlockEnd
  0
BLOCK
  5
6EDA
330
6ED1
100
AcDbEntity
  8
0
100
AcDbBlockBegin
  2
*D41
 70
     1
 10
0.0
 20
0.0
 30
0.0
  3
*D41
  1

  0
LINE
  5
7662
330
6ED1
100
AcDbEntity
  8
Object
  6
HIDDEN
 62
     0
370
    -2
100
AcDbLine
 10
188.3824675999136
 20
1519.528559403265
 30
0.0
 11
180.3824675999135
 21
1519.528559403265
 31
0.0
  0
LINE
  5
7663
330
6ED1
100
AcDbEntity
  8
Object
  6
HIDDEN
 62
     0
370
    -2
100
AcDbLine
 10
180.3824675999135
 20
1519.528559403265
 30
0.0
 11
164.7085072747743
 21
1558.835518712127
 31
0.0
  0
LINE
  5
7664
330
6ED1
100
AcDbEntity
  8
Object
  6
HIDDEN
 62
     0
370
    -2
100
AcDbLine
 10
154.7886991547225
 20
1583.712287954754
 30
0.0
 11
151.8255324121177
 21
1591.143280005317
 31
0.0
  0
MTEXT
  5
7665
330
6ED1
100
AcDbEntity
  8
Object
  6
HIDDEN
 62
     0
100
AcDbMText
 10
194.4281528791016
 20
1519.528559403265
 30
0.0
 40
8.0
 41
0.0
 71
     5
 72
     1
  1
\A1;Ｅ
 11
0.9999999998476914
 21
0.0000174532925191
 31
0.0
 73
     1
 44
1.0
1001
ACAD
1000
MTEXTBEGIN
1070
    73
1070
     1
1070
    44
1040
1.0
1070
    74
1070
     0
1000
MTEXTEND
  0
LINE
  5
7666
330
6ED1
100
AcDbEntity
  8
Object
  6
HIDDEN
 62
     0
370
    -2
100
AcDbLine
 10
157.7518658973273
 20
1576.281295904192
 30
0.0
 11
161.7453405321695
 21
1566.266510762689
 31
0.0
  0
INSERT
  5
7667
330
6ED1
100
AcDbEntity
  8
Object
  6
HIDDEN
 62
     0
370
    -2
100
AcDbBlockReference
  2
_Open30
 10
157.7518658973273
 20
1576.281295904192
 30
0.0
 41
8.0
 42
8.0
 43
8.0
 50
291.7400320015975
  0
INSERT
  5
7668
330
6ED1
100
AcDbEntity
  8
Object
  6
HIDDEN
 62
     0
370
    -2
100
AcDbBlockReference
  2
_Open30
 10
161.7453405321695
 20
1566.266510762689
 30
0.0
 41
8.0
 42
8.0
 43
8.0
 50
111.7400320015975
  0
POINT
  5
7669
330
6ED1
100
AcDbEntity
  8
Defpoints
  6
HIDDEN
 62
     0
100
AcDbPoint
 10
161.7453405321695
 20
1566.266510762689
 30
0.0
  0
POINT
  5
766A
330
6ED1
100
AcDbEntity
  8
Defpoints
  6
HIDDEN
 62
     0
100
AcDbPoint
 10
157.7518658973273
 20
1576.281295904192
 30
0.0
  0
ENDBLK
  5
6EDB
330
6ED1
100
AcDbEntity
  8
0
100
AcDbBlockEnd
  0
BLOCK
  5
6EE8
330
6EDC
100
AcDbEntity
  8
0
100
AcDbBlockBegin
  2
*D42
 70
     1
 10
0.0
 20
0.0
 30
0.0
  3
*D42
  1

  0
LINE
  5
7601
330
6EDC
100
AcDbEntity
  8
Object
  6
HIDDEN
 62
     0
370
    -2
100
AcDbLine
 10
205.544650039138
 20
1559.408851240575
 30
0.0
 11
207.8897184515949
 21
1559.408851240575
 31
0.0
  0
LINE
  5
7602
330
6EDC
100
AcDbEntity
  8
Object
  6
HIDDEN
 62
     0
370
    -2
100
AcDbLine
 10
206.8897184515948
 20
1551.408851240575
 30
0.0
 11
206.8897184515948
 21
1543.408851240575
 31
0.0
  0
LINE
  5
7603
330
6EDC
100
AcDbEntity
  8
Object
  6
HIDDEN
 62
     0
370
    -2
100
AcDbLine
 10
206.8897184515948
 20
1574.968851240575
 30
0.0
 11
206.8897184515948
 21
1582.968851240575
 31
0.0
  0
LINE
  5
7604
330
6EDC
100
AcDbEntity
  8
Object
  6
HIDDEN
 62
     0
370
    -2
100
AcDbLine
 10
214.8897184515949
 20
1624.58156805636
 30
0.0
 11
206.8897184515949
 21
1624.58156805636
 31
0.0
  0
LINE
  5
7605
330
6EDC
100
AcDbEntity
  8
Object
  6
HIDDEN
 62
     0
370
    -2
100
AcDbLine
 10
206.8897184515949
 20
1624.58156805636
 30
0.0
 11
206.8897184515948
 21
1582.968851240575
 31
0.0
  0
MTEXT
  5
7606
330
6EDC
100
AcDbEntity
  8
Object
  6
HIDDEN
 62
     0
100
AcDbMText
 10
220.6511397713916
 20
1624.58156805636
 30
0.0
 40
8.0
 41
0.0
 71
     5
 72
     1
  1
\A1;Ｆ
 11
0.9999999998476914
 21
-0.000017453292519
 31
0.0
 73
     1
 44
1.0
1001
ACAD
1000
MTEXTBEGIN
1070
    73
1070
     1
1070
    44
1040
1.0
1070
    74
1070
     0
1000
MTEXTEND
  0
LINE
  5
7607
330
6EDC
100
AcDbEntity
  8
Object
  6
HIDDEN
 62
     0
370
    -2
100
AcDbLine
 10
206.8897184515948
 20
1559.408851240575
 30
0.0
 11
206.8897184515948
 21
1566.968851240575
 31
0.0
  0
INSERT
  5
7608
330
6EDC
100
AcDbEntity
  8
Object
  6
HIDDEN
 62
     0
370
    -2
100
AcDbBlockReference
  2
_Open30
 10
206.8897184515948
 20
1559.408851240575
 30
0.0
 41
8.0
 42
8.0
 43
8.0
 50
90.0
  0
INSERT
  5
7609
330
6EDC
100
AcDbEntity
  8
Object
  6
HIDDEN
 62
     0
370
    -2
100
AcDbBlockReference
  2
_Open30
 10
206.8897184515948
 20
1566.968851240575
 30
0.0
 41
8.0
 42
8.0
 43
8.0
 50
270.0
  0
POINT
  5
760A
330
6EDC
100
AcDbEntity
  8
Defpoints
  6
HIDDEN
 62
     0
100
AcDbPoint
 10
204.5446500391379
 20
1559.408851240575
 30
0.0
  0
POINT
  5
760B
330
6EDC
100
AcDbEntity
  8
Defpoints
  6
HIDDEN
 62
     0
100
AcDbPoint
 10
206.8897184515948
 20
1566.968851240575
 30
0.0
  0
POINT
  5
760C
330
6EDC
100
AcDbEntity
  8
Defpoints
  6
HIDDEN
 62
     0
100
AcDbPoint
 10
206.8897184515948
 20
1566.968851240575
 30
0.0
  0
ENDBLK
  5
6EE9
330
6EDC
100
AcDbEntity
  8
0
100
AcDbBlockEnd
  0
BLOCK
  5
6F48
330
6F3F
100
AcDbEntity
  8
0
100
AcDbBlockBegin
  2
*D43
 70
     1
 10
0.0
 20
0.0
 30
0.0
  3
*D43
  1

  0
LINE
  5
7453
330
6F3F
100
AcDbEntity
  8
Object
  6
HIDDEN
 62
     0
370
    -2
100
AcDbLine
 10
-125.6694537195224
 20
1519.604965533099
 30
0.0
 11
-133.6694537195233
 21
1519.604965533099
 31
0.0
  0
LINE
  5
7454
330
6F3F
100
AcDbEntity
  8
Object
  6
HIDDEN
 62
     0
370
    -2
100
AcDbLine
 10
-133.6694537195233
 20
1519.604965533099
 30
0.0
 11
-148.5604106331698
 21
1558.75775420537
 31
0.0
  0
LINE
  5
7455
330
6F3F
100
AcDbEntity
  8
Object
  6
HIDDEN
 62
     0
370
    -2
100
AcDbLine
 10
-158.0809297947019
 20
1583.790052461514
 30
0.0
 11
-160.924824092895
 21
1591.267502910745
 31
0.0
  0
MTEXT
  5
7456
330
6F3F
100
AcDbEntity
  8
Object
  6
HIDDEN
 62
     0
100
AcDbMText
 10
-119.6237684403345
 20
1519.604965533099
 30
0.0
 40
8.0
 41
0.0
 71
     5
 72
     1
  1
\A1;Ｅ
 11
0.9999999998476914
 21
0.0000174532925191
 31
0.0
 73
     1
 44
1.0
1001
ACAD
1000
MTEXTBEGIN
1070
    73
1070
     1
1070
    44
1040
1.0
1070
    74
1070
     0
1000
MTEXTEND
  0
LINE
  5
7457
330
6F3F
100
AcDbEntity
  8
Object
  6
HIDDEN
 62
     0
370
    -2
100
AcDbLine
 10
-155.237035496509
 20
1576.312602012283
 30
0.0
 11
-151.4043049313626
 21
1566.235204654601
 31
0.0
  0
INSERT
  5
7458
330
6F3F
100
AcDbEntity
  8
Object
  6
HIDDEN
 62
     0
370
    -2
100
AcDbBlockReference
  2
_Open30
 10
-155.237035496509
 20
1576.312602012283
 30
0.0
 41
8.0
 42
8.0
 43
8.0
 50
290.8232813909537
  0
INSERT
  5
7459
330
6F3F
100
AcDbEntity
  8
Object
  6
HIDDEN
 62
     0
370
    -2
100
AcDbBlockReference
  2
_Open30
 10
-151.4043049313626
 20
1566.235204654601
 30
0.0
 41
8.0
 42
8.0
 43
8.0
 50
110.8232813909536
  0
POINT
  5
745A
330
6F3F
100
AcDbEntity
  8
Defpoints
  6
HIDDEN
 62
     0
100
AcDbPoint
 10
-151.4043049313626
 20
1566.235204654601
 30
0.0
  0
POINT
  5
745B
330
6F3F
100
AcDbEntity
  8
Defpoints
  6
HIDDEN
 62
     0
100
AcDbPoint
 10
-155.237035496509
 20
1576.312602012283
 30
0.0
  0
ENDBLK
  5
6F49
330
6F3F
100
AcDbEntity
  8
0
100
AcDbBlockEnd
  0
BLOCK
  5
6F56
330
6F4A
100
AcDbEntity
  8
0
100
AcDbBlockBegin
  2
*D44
 70
     1
 10
0.0
 20
0.0
 30
0.0
  3
*D44
  1

  0
LINE
  5
74A4
330
6F4A
100
AcDbEntity
  8
Object
  6
HIDDEN
 62
     0
370
    -2
100
AcDbLine
 10
-109.6586091067162
 20
1559.948851240575
 30
0.0
 11
-114.0506212895798
 21
1559.948851240575
 31
0.0
  0
LINE
  5
74A5
330
6F4A
100
AcDbEntity
  8
Object
  6
HIDDEN
 62
     0
370
    -2
100
AcDbLine
 10
-113.0506212895798
 20
1551.948851240575
 30
0.0
 11
-113.0506212895798
 21
1543.948851240575
 31
0.0
  0
LINE
  5
74A6
330
6F4A
100
AcDbEntity
  8
Object
  6
HIDDEN
 62
     0
370
    -2
100
AcDbLine
 10
-113.0506212895798
 20
1578.87347566889
 30
0.0
 11
-113.0506212895798
 21
1586.87347566889
 31
0.0
  0
LINE
  5
74A7
330
6F4A
100
AcDbEntity
  8
Object
  6
HIDDEN
 62
     0
370
    -2
100
AcDbLine
 10
-105.0506212895798
 20
1624.575963249881
 30
0.0
 11
-113.0506212895798
 21
1624.575963249881
 31
0.0
  0
LINE
  5
74A8
330
6F4A
100
AcDbEntity
  8
Object
  6
HIDDEN
 62
     0
370
    -2
100
AcDbLine
 10
-113.0506212895798
 20
1624.575963249881
 30
0.0
 11
-113.0506212895798
 21
1586.87347566889
 31
0.0
  0
MTEXT
  5
74A9
330
6F4A
100
AcDbEntity
  8
Object
  6
HIDDEN
 62
     0
100
AcDbMText
 10
-99.28919996978308
 20
1624.575963249881
 30
0.0
 40
8.0
 41
0.0
 71
     5
 72
     1
  1
\A1;Ｆ
 11
0.9999999998476914
 21
-0.000017453292519
 31
0.0
 73
     1
 44
1.0
1001
ACAD
1000
MTEXTBEGIN
1070
    73
1070
     1
1070
    44
1040
1.0
1070
    74
1070
     0
1000
MTEXTEND
  0
LINE
  5
74AA
330
6F4A
100
AcDbEntity
  8
Object
  6
HIDDEN
 62
     0
370
    -2
100
AcDbLine
 10
-113.0506212895798
 20
1559.948851240575
 30
0.0
 11
-113.0506212895798
 21
1570.87347566889
 31
0.0
  0
INSERT
  5
74AB
330
6F4A
100
AcDbEntity
  8
Object
  6
HIDDEN
 62
     0
370
    -2
100
AcDbBlockReference
  2
_Open30
 10
-113.0506212895798
 20
1559.948851240575
 30
0.0
 41
8.0
 42
8.0
 43
8.0
 50
90.0
  0
INSERT
  5
74AC
330
6F4A
100
AcDbEntity
  8
Object
  6
HIDDEN
 62
     0
370
    -2
100
AcDbBlockReference
  2
_Open30
 10
-113.0506212895798
 20
1570.87347566889
 30
0.0
 41
8.0
 42
8.0
 43
8.0
 50
270.0
  0
POINT
  5
74AD
330
6F4A
100
AcDbEntity
  8
Defpoints
  6
HIDDEN
 62
     0
100
AcDbPoint
 10
-108.6586091067163
 20
1559.948851240575
 30
0.0
  0
POINT
  5
74AE
330
6F4A
100
AcDbEntity
  8
Defpoints
  6
HIDDEN
 62
     0
100
AcDbPoint
 10
-113.0506212895798
 20
1570.87347566889
 30
0.0
  0
POINT
  5
74AF
330
6F4A
100
AcDbEntity
  8
Defpoints
  6
HIDDEN
 62
     0
100
AcDbPoint
 10
-113.0506212895798
 20
1570.87347566889
 30
0.0
  0
ENDBLK
  5
6F57
330
6F4A
100
AcDbEntity
  8
0
100
AcDbBlockEnd
  0
ENDSEC
  0
SECTION
  2
ENTITIES
  0
MTEXT
  5
6C58
330
1F
100
AcDbEntity
  8
Object
100
AcDbMText
 10
-10.17861445416029
 20
1617.911319384723
 30
0.0
 40
8.0
 41
49.94442713483007
 71
     1
 72
     5
  1
（横鉄筋）
 73
     1
 44
1.0
1001
ACAD
1000
MTEXTBEGIN
1070
    73
1070
     1
1070
    44
1040
1.0
1070
    74
1070
     0
1000
MTEXTEND
1000
ACAD_MTEXT_DEFINED_HEIGHT_BEGIN
1070
    46
1040
22.4872029904578
1000
ACAD_MTEXT_DEFINED_HEIGHT_END
  0
LINE
  5
6C59
330
1F
100
AcDbEntity
  8
Bracket
 62
     0
100
AcDbLine
 10
-125.4525148304593
 20
1571.288851240574
 30
0.0
 11
-144.6806702139357
 21
1571.288851240574
 31
0.0
  0
ARC
  5
6C5A
330
1F
100
AcDbEntity
  8
Bracket
 62
     0
100
AcDbCircle
 10
-153.3206702139358
 20
1571.288851240574
 30
0.0
 40
5.4
100
AcDbArc
 50
63.93534964341174
 51
87.13401601740368
  0
LINE
  5
6C5B
330
1F
100
AcDbEntity
  8
Bracket
 62
     0
100
AcDbLine
 10
-157.5798555838015
 20
1567.969312118178
 30
0.0
 11
-158.0861605314853
 21
1567.463007170494
 31
0.0
  0
LINE
  5
6C5C
330
1F
100
AcDbEntity
  8
Bracket
 62
     0
100
AcDbLine
 10
-149.0570164748504
 20
1567.975053299664
 30
0.0
 11
-148.5500297935287
 21
1567.469433543419
 31
0.0
  0
ARC
  5
6C5D
102
{ACAD_REACTORS
330
773D
102
}
330
1F
100
AcDbEntity
  8
Bracket
 62
     0
100
AcDbCircle
 10
-157.6088634541844
 20
1566.985710093193
 30
0.0
 40
0.6749999999999467
100
AcDbArc
 50
135.0000000000078
 51
314.9999999999912
  0
ARC
  5
6C5E
102
{ACAD_REACTORS
330
773D
102
}
330
1F
100
AcDbEntity
  8
Bracket
 62
     0
100
AcDbCircle
 10
-149.026682129611
 20
1566.991492594653
 30
0.0
 40
0.6750000000000699
100
AcDbArc
 50
225.0773439584499
 51
45.0773439584494
  0
LINE
  5
6C5F
102
{ACAD_REACTORS
330
773D
102
}
330
1F
100
AcDbEntity
  8
Bracket
 62
     0
100
AcDbLine
 10
-150.0122094944814
 20
1567.021054658282
 30
0.0
 11
-149.5033344656933
 21
1566.513551645887
 31
0.0
  0
LINE
  5
6C60
102
{ACAD_REACTORS
330
773D
102
}
330
1F
100
AcDbEntity
  8
Bracket
 62
     0
100
AcDbLine
 10
-156.6233781661958
 20
1567.01660122658
 30
0.0
 11
-157.1315663768835
 21
1566.508413015892
 31
0.0
  0
ARC
  5
6C61
330
1F
100
AcDbEntity
  8
Bracket
 62
     0
100
AcDbCircle
 10
-153.3206702139358
 20
1571.288851240574
 30
0.0
 40
5.4
100
AcDbArc
 50
232.2938051765359
 51
307.7833862596476
  0
ARC
  5
6C62
330
1F
100
AcDbEntity
  8
Bracket
 62
     0
100
AcDbCircle
 10
-153.3206702139358
 20
1571.288851240574
 30
0.0
 40
8.100000000000001
100
AcDbArc
 50
63.93534964341174
 51
64.11280697124779
  0
HATCH
  5
6C63
330
1F
100
AcDbEntity
  8
塗潰し
100
AcDbHatch
 10
0.0
 20
0.0
 30
0.0
210
0.0
220
0.0
230
1.0
  2
ANSI37
 70
     0
 71
     1
 91
        4
 92
        7
 72
     1
 73
     1
 93
        6
 10
-122.0006702139359
 20
1566.968851240574
 42
0.0
 10
-140.9006702139356
 20
1566.968851240575
 42
0.0
 10
-140.9006702139359
 20
1559.948851240575
 42
0.0
 10
-108.6586091067162
 20
1559.948851240575
 42
-0.2789087143262612
 10
-107.352089183318
 20
1563.188851240575
 42
0.3239215581654657
 10
-106.1795549770904
 20
1566.968851240575
 42
0.0
 97
        6
330
6CF6
330
6C93
330
6CAD
330
6C94
330
6D03
330
6D04
 92
        7
 72
     1
 73
     1
 93
        7
 10
-149.0006702139357
 20
1559.948851240575
 42
0.0
 10
-145.7606702139358
 20
1559.948851240575
 42
0.0
 10
-145.7606702139358
 20
1566.968851240575
 42
0.0
 10
-146.4688383420925
 20
1566.968851240575
 42
-0.0139906113684241
 10
-146.7211792583073
 20
1566.592393093568
 42
-1.087114457251288
 10
-148.6236414054014
 20
1564.689766427375
 42
-0.0140122339059474
 10
-149.0006702139358
 20
1564.437019368731
 42
0.0
 97
        7
330
6C93
330
6C9E
330
6C9C
330
6C9F
330
6CA2
330
6C95
330
6CAB
 92
        7
 72
     1
 73
     1
 93
        7
 10
-157.6406702139355
 20
1559.948851240575
 42
0.0
 10
-157.6406702139355
 20
1564.437019368731
 42
-0.0136751325148752
 10
-158.0087982191411
 20
1564.683440140059
 42
-1.087114457669377
 10
-159.9138236646105
 20
1566.583500289172
 42
-0.0143277153524825
 10
-160.1725020857793
 20
1566.968851240575
 42
0.0
 10
-160.8806702139359
 20
1566.968851240575
 42
0.0
 10
-160.8806702139357
 20
1559.948851240574
 42
0.0
 97
        7
330
6C9F
330
6C9D
330
6C64
330
6CAA
330
6CAC
330
6C96
330
6CA3
 92
        7
 72
     0
 73
     1
 93
        4
 10
-175.4606702139357
 20
1559.948851240575
 10
-165.7406702139357
 20
1559.948851240574
 10
-165.7406702139359
 20
1566.968851240575
 10
-175.4606702139359
 20
1566.968851240575
 97
        4
330
6CAA
330
6CAF
330
6C97
330
6CAE
 75
     0
 76
     1
 52
0.0
 41
0.5400000000000002
 77
     0
 78
     2
 53
45.0
 43
-40.59040265922895
 44
-424.5851173906873
 45
-1.212334576344334
 46
1.212334576344334
 79
     0
 53
135.0
 43
-40.59040265922895
 44
-424.5851173906873
 45
-1.212334576344334
 46
-1.212334576344334
 79
     0
 47
0.2011762732999513
 98
        4
 10
-119.7015701779382
 20
1564.12207129838
 10
-147.7362796102781
 20
1561.732096791686
 10
-159.0370924170829
 20
1561.297556364548
 10
-174.0324017438871
 20
1564.12207129838
1001
ACAD
1010
0.0
1020
0.0
1030
0.0
  0
ARC
  5
6C64
102
{ACAD_REACTORS
330
6C63
330
773D
102
}
330
1F
100
AcDbEntity
  8
Bracket
 62
     0
100
AcDbCircle
 10
-153.3206702139358
 20
1571.288851240574
 30
0.0
 40
8.100000000000001
100
AcDbArc
 50
180.0
 51
215.5143984478382
  0
LINE
  5
6C65
330
1F
100
AcDbEntity
  8
Center
 62
     0
100
AcDbLine
 10
-149.5244464478478
 20
1584.244108286183
 30
0.0
 11
-153.0506702139357
 21
1576.682097016543
 31
0.0
  0
LINE
  5
6C66
330
1F
100
AcDbEntity
  8
Center
 62
     0
100
AcDbLine
 10
-157.1168939800234
 20
1584.244108286182
 30
0.0
 11
-153.5906702139358
 21
1576.682097016543
 31
0.0
  0
LINE
  5
6C67
330
1F
100
AcDbEntity
  8
Center
 62
     0
100
AcDbLine
 10
-147.705794315121
 20
1583.033224951206
 30
0.0
 11
-149.7842045044848
 21
1578.576059916459
 31
0.0
  0
LINE
  5
6C68
330
1F
100
AcDbEntity
  8
Center
 62
     0
100
AcDbLine
 10
-158.9355461127504
 20
1583.033224951206
 30
0.0
 11
-156.8571359233867
 21
1578.576059916459
 31
0.0
  0
LINE
  5
6C69
330
1F
100
AcDbEntity
  8
Center
 62
     0
100
AcDbLine
 10
-149.1313057342109
 20
1576.781833710447
 30
0.0
 11
-149.1313057342108
 21
1576.781833710447
 31
0.0
  0
LINE
  5
6C6A
330
1F
100
AcDbEntity
  8
Center
 62
     0
100
AcDbLine
 10
-157.5100346936605
 20
1576.781833710447
 30
0.0
 11
-157.5100346936606
 21
1576.781833710447
 31
0.0
  0
ARC
  5
6C6B
330
1F
100
AcDbEntity
  8
Bracket
 62
     0
100
AcDbCircle
 10
-150.3548212467105
 20
1577.352368363797
 30
0.0
 40
1.35
100
AcDbArc
 50
335.0000000000079
 51
63.93534964341174
  0
ARC
  5
6C6C
330
1F
100
AcDbEntity
  8
Bracket
 62
     0
100
AcDbCircle
 10
-156.286519181161
 20
1577.352368363797
 30
0.0
 40
1.35
100
AcDbArc
 50
116.0646503565882
 51
204.9999999999922
  0
ARC
  5
6C6D
330
1F
100
AcDbEntity
  8
Bracket
 62
     0
100
AcDbCircle
 10
-156.2865191811609
 20
1577.352368363797
 30
0.0
 40
1.35
100
AcDbArc
 50
204.9999999999922
 51
296.0646503565879
  0
ARC
  5
6C6E
330
1F
100
AcDbEntity
  8
Bracket
 62
     0
100
AcDbCircle
 10
-150.3548212467103
 20
1577.352368363797
 30
0.0
 40
1.35
100
AcDbArc
 50
243.9353496434145
 51
335.0000000000079
  0
ARC
  5
6C6F
330
1F
100
AcDbEntity
  8
Bracket
 62
     0
100
AcDbCircle
 10
-153.3206702139358
 20
1571.288851240574
 30
0.0
 40
8.100000000000001
100
AcDbArc
 50
115.8871930287522
 51
116.0646503565882
  0
ARC
  5
6C70
330
1F
100
AcDbEntity
  8
Bracket
 62
     0
100
AcDbCircle
 10
-153.3206702139358
 20
1571.288851240574
 30
0.0
 40
5.4
100
AcDbArc
 50
92.86598398260284
 51
116.0646503565852
  0
LINE
  5
6C71
330
1F
100
AcDbEntity
  8
Bracket
 62
     0
100
AcDbLine
 10
-146.5706702139359
 20
1582.884801540379
 30
0.0
 11
-146.5706702139358
 21
1574.712396408945
 31
0.0
  0
LINE
  5
6C72
330
1F
100
AcDbEntity
  8
Bracket
 62
     0
100
AcDbLine
 10
-160.0706702139358
 20
1582.884801540379
 30
0.0
 11
-160.0706702139358
 21
1574.712396408946
 31
0.0
  0
LINE
  5
6C73
330
1F
100
AcDbEntity
  8
Bracket
 62
     0
100
AcDbLine
 10
-143.8706702139354
 20
1587.488851240574
 30
0.0
 11
-146.5706702139357
 21
1587.488851240574
 31
0.0
  0
LINE
  5
6C74
330
1F
100
AcDbEntity
  8
Bracket
 62
     0
100
AcDbLine
 10
-146.5706702139358
 20
1587.488851240574
 30
0.0
 11
-149.5244464478481
 21
1584.244108286183
 31
0.0
  0
LINE
  5
6C75
330
1F
100
AcDbEntity
  8
Bracket
 62
     0
100
AcDbLine
 10
-160.0706702139358
 20
1587.488851240574
 30
0.0
 11
-157.1168939800234
 21
1584.244108286183
 31
0.0
  0
LINE
  5
6C76
330
1F
100
AcDbEntity
  8
Bracket
 62
     0
100
AcDbLine
 10
-147.5099921341007
 20
1583.248314957018
 30
0.0
 11
-147.705794315121
 21
1583.033224951206
 31
0.0
  0
LINE
  5
6C77
330
1F
100
AcDbEntity
  8
Bracket
 62
     0
100
AcDbLine
 10
-159.1313482937709
 20
1583.248314957018
 30
0.0
 11
-158.9355461127504
 21
1583.033224951206
 31
0.0
  0
ARC
  5
6C78
330
1F
100
AcDbEntity
  8
Bracket
 62
     0
100
AcDbCircle
 10
-147.1106702139359
 20
1582.884801540379
 30
0.0
 40
0.5400000000000002
100
AcDbArc
 50
0.0
 51
137.6875671130768
  0
ARC
  5
6C79
330
1F
100
AcDbEntity
  8
Bracket
 62
     0
100
AcDbCircle
 10
-159.5306702139358
 20
1582.884801540379
 30
0.0
 40
0.5400000000000002
100
AcDbArc
 50
42.31243288692321
 51
180.0
  0
LINE
  5
6C7A
330
1F
100
AcDbEntity
  8
Bracket
 62
     0
100
AcDbLine
 10
-160.0706702139359
 20
1587.488851240574
 30
0.0
 11
-162.7706702139359
 21
1587.488851240574
 31
0.0
  0
LINE
  5
6C7B
330
1F
100
AcDbEntity
  8
Bracket
 62
     0
100
AcDbLine
 10
-162.7706702139359
 20
1602.014851240574
 30
0.0
 11
-162.7706702139358
 21
1574.965967751002
 31
0.0
  0
LINE
  5
6C7C
330
1F
100
AcDbEntity
  8
Bracket
 62
     0
100
AcDbLine
 10
-161.4206702139359
 20
1603.364851240575
 30
0.0
 11
-161.4206702139359
 21
1603.364851240575
 31
0.0
  0
LINE
  5
6C7D
330
1F
100
AcDbEntity
  8
Bracket
 62
     0
100
AcDbLine
 10
-145.2206702139359
 20
1603.364851240575
 30
0.0
 11
-145.2206702139356
 21
1603.364851240575
 31
0.0
  0
LINE
  5
6C7E
330
1F
100
AcDbEntity
  8
Bracket
 62
     0
100
AcDbLine
 10
-160.0706702139359
 20
1587.488851240574
 30
0.0
 11
-160.0706702139359
 21
1602.014851240574
 31
0.0
  0
LINE
  5
6C7F
330
1F
100
AcDbEntity
  8
Bracket
 62
     0
100
AcDbLine
 10
-146.5706702139357
 20
1587.488851240574
 30
0.0
 11
-146.5706702139357
 21
1602.014851240574
 31
0.0
  0
ARC
  5
6C80
330
1F
100
AcDbEntity
  8
Bracket
 62
     0
100
AcDbCircle
 10
-161.4206702139359
 20
1602.014851240574
 30
0.0
 40
1.35
100
AcDbArc
 50
90.0
 51
180.0
  0
ARC
  5
6C81
330
1F
100
AcDbEntity
  8
Bracket
 62
     0
100
AcDbCircle
 10
-161.4206702139359
 20
1602.014851240574
 30
0.0
 40
1.35
100
AcDbArc
 50
0.0
 51
90.0
  0
ARC
  5
6C82
330
1F
100
AcDbEntity
  8
Bracket
 62
     0
100
AcDbCircle
 10
-145.2206702139356
 20
1602.014851240574
 30
0.0
 40
1.35
100
AcDbArc
 50
90.0
 51
180.0
  0
ARC
  5
6C83
330
1F
100
AcDbEntity
  8
Bracket
 62
     0
100
AcDbCircle
 10
-145.2206702139359
 20
1602.014851240574
 30
0.0
 40
1.35
100
AcDbArc
 50
0.0
 51
90.0
  0
LINE
  5
6C84
330
1F
100
AcDbEntity
  8
Bracket
 62
     0
100
AcDbLine
 10
-145.2206702139359
 20
1572.368851240574
 30
0.0
 11
-147.9298510449926
 21
1572.368851240574
 31
0.0
  0
ARC
  5
6C85
330
1F
100
AcDbEntity
  8
Bracket
 62
     0
100
AcDbCircle
 10
-153.3206702139358
 20
1571.273903333442
 30
0.0
 40
5.390839893019703
100
AcDbArc
 50
322.2703657221114
 51
0.1588719208411843
  0
LINE
  5
6C86
330
1F
100
AcDbEntity
  8
Bracket
 62
     0
100
AcDbLine
 10
-147.9298510449926
 20
1571.288851240574
 30
0.0
 11
-147.9298510449926
 21
1572.368851240574
 31
0.0
  0
LINE
  5
6C87
330
1F
100
AcDbEntity
  8
Bracket
 62
     0
100
AcDbLine
 10
-158.7114893828789
 20
1571.288851240574
 30
0.0
 11
-158.7114893828789
 21
1572.368851240574
 31
0.0
  0
ARC
  5
6C88
330
1F
100
AcDbEntity
  8
Bracket
 62
     0
100
AcDbCircle
 10
-153.3206702139358
 20
1571.273903333442
 30
0.0
 40
5.390839893019703
100
AcDbArc
 50
179.8411280791588
 51
217.8069782363398
  0
LINE
  5
6C89
330
1F
100
AcDbEntity
  8
Bracket
 62
     0
100
AcDbLine
 10
-158.7114893828789
 20
1572.368851240574
 30
0.0
 11
-161.4206702139358
 21
1572.368851240574
 31
0.0
  0
ARC
  5
6C8A
330
1F
100
AcDbEntity
  8
Bracket
 62
     0
100
AcDbCircle
 10
-149.2706702139359
 20
1574.712396408945
 30
0.0
 40
2.7
100
AcDbArc
 50
299.7752912760564
 51
0.0
  0
ARC
  5
6C8B
330
1F
100
AcDbEntity
  8
Bracket
 62
     0
100
AcDbCircle
 10
-157.3706702139359
 20
1574.712396408946
 30
0.0
 40
2.7
100
AcDbArc
 50
180.0
 51
240.2247087239436
  0
LINE
  5
6C8C
330
1F
100
AcDbEntity
  8
Bracket
 62
     0
100
AcDbLine
 10
-161.4206702139358
 20
1571.288851240574
 30
0.0
 11
-161.4206702139358
 21
1572.368851240574
 31
0.0
  0
LINE
  5
6C8D
330
1F
100
AcDbEntity
  8
Bracket
 62
     0
100
AcDbLine
 10
-145.2206702139358
 20
1571.288851240574
 30
0.0
 11
-145.2206702139358
 21
1572.368851240574
 31
0.0
  0
ARC
  5
6C8E
330
1F
100
AcDbEntity
  8
Bracket
 62
     0
100
AcDbCircle
 10
-161.9606702139357
 20
1571.828851240574
 30
0.0
 40
0.5400000000000002
100
AcDbArc
 50
270.0
 51
46.56746344220307
  0
ARC
  5
6C8F
330
1F
100
AcDbEntity
  8
Bracket
 62
     0
100
AcDbCircle
 10
-158.9906702139359
 20
1574.965967751002
 30
0.0
 40
3.779999999999998
100
AcDbArc
 50
180.0
 51
226.5674634422031
  0
ARC
  5
6C90
330
1F
100
AcDbEntity
  8
Bracket
 62
     0
100
AcDbCircle
 10
-147.6506702139356
 20
1574.965967751002
 30
0.0
 40
3.779999999999998
100
AcDbArc
 50
313.4325365577969
 51
0.0
  0
ARC
  5
6C91
330
1F
100
AcDbEntity
  8
Bracket
 62
     0
100
AcDbCircle
 10
-144.6806702139357
 20
1571.828851240574
 30
0.0
 40
0.5400000000000002
100
AcDbArc
 50
133.4325365577969
 51
270.0
  0
LINE
  5
6C92
330
1F
100
AcDbEntity
  8
Bracket
 62
     0
100
AcDbLine
 10
-143.8706702139355
 20
1602.014851240574
 30
0.0
 11
-143.8706702139358
 21
1574.965967751002
 31
0.0
  0
LINE
  5
6C93
102
{ACAD_REACTORS
330
6C63
330
773D
102
}
330
1F
100
AcDbEntity
  8
Bracket
 62
     0
100
AcDbLine
 10
-122.0006702139359
 20
1566.968851240575
 30
0.0
 11
-150.0760644212241
 21
1566.968851240575
 31
0.0
  0
LINE
  5
6C94
102
{ACAD_REACTORS
330
6C63
102
}
330
1F
100
AcDbEntity
  8
Bracket
 62
     0
100
AcDbLine
 10
-108.6586091067163
 20
1559.948851240575
 30
0.0
 11
-140.9006702139359
 21
1559.948851240575
 31
0.0
  0
LINE
  5
6C95
102
{ACAD_REACTORS
330
6C63
330
773D
102
}
330
1F
100
AcDbEntity
  8
Bracket
 62
     0
100
AcDbLine
 10
-145.7606702139358
 20
1559.948851240575
 30
0.0
 11
-157.6406702139355
 21
1559.948851240575
 31
0.0
  0
LINE
  5
6C96
102
{ACAD_REACTORS
330
6C63
102
}
330
1F
100
AcDbEntity
  8
Bracket
 62
     0
100
AcDbLine
 10
-157.6406702139357
 20
1559.948851240575
 30
0.0
 11
-160.8806702139357
 21
1559.948851240574
 31
0.0
  0
LINE
  5
6C97
102
{ACAD_REACTORS
330
6C63
102
}
330
1F
100
AcDbEntity
  8
Bracket
 62
     0
100
AcDbLine
 10
-165.7406702139357
 20
1559.948851240574
 30
0.0
 11
-175.4606702139357
 21
1559.948851240575
 31
0.0
  0
ARC
  5
6C98
330
1F
100
AcDbEntity
  8
Bracket
 62
     0
100
AcDbCircle
 10
-184.6406702139356
 20
1568.048851240575
 30
0.0
 40
1.08
100
AcDbArc
 50
119.9999999999947
 51
270.0
  0
LINE
  5
6C99
330
1F
100
AcDbEntity
  8
Bracket
 62
     0
100
AcDbLine
 10
-181.1888255974124
 20
1571.288851240574
 30
0.0
 11
-185.1806702139358
 21
1568.984158676661
 31
0.0
  0
LINE
  5
6C9A
330
1F
100
AcDbEntity
  8
Bracket
 62
     0
100
AcDbLine
 10
-125.4525148304592
 20
1571.288851240574
 30
0.0
 11
-121.4606702139358
 21
1568.984158676661
 31
0.0
  0
ARC
  5
6C9B
330
1F
100
AcDbEntity
  8
Bracket
 62
     0
100
AcDbCircle
 10
-122.0006702139359
 20
1568.048851240574
 30
0.0
 40
1.08
100
AcDbArc
 50
270.0
 51
60.00000000000529
  0
ARC
  5
6C9C
102
{ACAD_REACTORS
330
6C63
330
773D
102
}
330
1F
100
AcDbEntity
  8
Bracket
 62
     0
100
AcDbCircle
 10
-147.5928576512506
 20
1565.561533958745
 30
0.0
 40
1.349997695025041
100
AcDbArc
 50
220.2222936080743
 51
49.78266094120361
  0
ARC
  5
6C9D
102
{ACAD_REACTORS
330
6C63
330
773D
102
}
330
1F
100
AcDbEntity
  8
Bracket
 62
     0
100
AcDbCircle
 10
-159.0407563115621
 20
1565.553817235815
 30
0.0
 40
1.349997701231279
100
AcDbArc
 50
130.2945821364233
 51
319.8549495136135
  0
ARC
  5
6C9E
102
{ACAD_REACTORS
330
6C63
330
773D
102
}
330
1F
100
AcDbEntity
  8
Bracket
 62
     0
100
AcDbCircle
 10
-153.3206702139358
 20
1571.288851240574
 30
0.0
 40
8.100000000000001
100
AcDbArc
 50
324.5628446077656
 51
0.0
  0
ARC
  5
6C9F
102
{ACAD_REACTORS
330
6C63
330
773D
102
}
330
1F
100
AcDbEntity
  8
Bracket
 62
     0
100
AcDbCircle
 10
-153.3206702139358
 20
1571.288851240574
 30
0.0
 40
8.100000000000001
100
AcDbArc
 50
234.6351332022021
 51
305.4421099415181
  0
LINE
  5
6CA0
102
{ACAD_REACTORS
330
773D
102
}
330
1F
100
AcDbEntity
  8
Bracket
 62
     0
100
AcDbLine
 10
-150.0806702139357
 20
1563.865078614746
 30
0.0
 11
-150.0806702139357
 21
1506.743987615482
 31
0.0
  0
LINE
  5
6CA1
102
{ACAD_REACTORS
330
773D
102
}
330
1F
100
AcDbEntity
  8
Bracket
 62
     0
100
AcDbLine
 10
-156.5606702139358
 20
1563.865078614746
 30
0.0
 11
-156.5606702139358
 21
1506.743987615482
 31
0.0
  0
LINE
  5
6CA2
102
{ACAD_REACTORS
330
6C63
330
773D
102
}
330
1F
100
AcDbEntity
  8
Bracket
 62
     0
100
AcDbLine
 10
-149.0006702139358
 20
1564.437019368732
 30
0.0
 11
-149.0006702139356
 21
1508.648851240574
 31
0.0
  0
LINE
  5
6CA3
102
{ACAD_REACTORS
330
6C63
330
773D
102
}
330
1F
100
AcDbEntity
  8
Bracket
 62
     0
100
AcDbLine
 10
-157.6406702139355
 20
1564.437019368732
 30
0.0
 11
-157.6406702139357
 21
1508.648851240574
 31
0.0
  0
ARC
  5
6CA4
330
1F
100
AcDbEntity
  8
Bracket
 62
     0
100
AcDbCircle
 10
-153.3206702139358
 20
1505.408851240574
 30
0.0
 40
2.16
100
AcDbArc
 50
209.551923875949
 51
330.448076124051
  0
LINE
  5
6CA5
330
1F
100
AcDbEntity
  8
Bracket
 62
     0
100
AcDbLine
 10
-157.6406702139357
 20
1508.648851240574
 30
0.0
 11
-155.1996738340683
 21
1504.343513080398
 31
0.0
  0
LINE
  5
6CA6
330
1F
100
AcDbEntity
  8
Bracket
 62
     0
100
AcDbLine
 10
-149.0006702139358
 20
1508.648851240574
 30
0.0
 11
-151.4416665938032
 21
1504.343513080398
 31
0.0
  0
ARC
  5
6CA7
330
1F
100
AcDbEntity
  8
Bracket
 62
     0
100
AcDbCircle
 10
-165.9970479625526
 20
1574.528851240575
 30
0.0
 40
3.24
100
AcDbArc
 50
270.0
 51
3.569963477825424
  0
ARC
  5
6CA8
330
1F
100
AcDbEntity
  8
Bracket
 62
     0
100
AcDbCircle
 10
-140.6442924653189
 20
1574.528851240575
 30
0.0
 40
3.24
100
AcDbArc
 50
176.4300365221745
 51
270.0
  0
LINE
  5
6CA9
330
1F
100
AcDbEntity
  8
Bracket
 62
     0
100
AcDbLine
 10
-161.9606702139357
 20
1571.288851240574
 30
0.0
 11
-181.1888255974124
 21
1571.288851240574
 31
0.0
  0
LINE
  5
6CAA
102
{ACAD_REACTORS
330
6C63
330
773D
102
}
330
1F
100
AcDbEntity
  8
Bracket
 62
     0
100
AcDbLine
 10
-156.5652760066478
 20
1566.968851240575
 30
0.0
 11
-184.6406702139356
 21
1566.968851240575
 31
0.0
  0
LINE
  5
6CAB
102
{ACAD_REACTORS
330
6C63
102
}
330
1F
100
AcDbEntity
  8
Center
 62
     0
100
AcDbLine
 10
-145.7606702139358
 20
1566.968851240575
 30
0.0
 11
-145.7606702139358
 21
1559.408851240574
 31
0.0
  0
LINE
  5
6CAC
102
{ACAD_REACTORS
330
6C63
102
}
330
1F
100
AcDbEntity
  8
Center
 62
     0
100
AcDbLine
 10
-160.8806702139359
 20
1566.968851240575
 30
0.0
 11
-160.8806702139357
 21
1559.408851240574
 31
0.0
  0
LINE
  5
6CAD
102
{ACAD_REACTORS
330
6C63
102
}
330
1F
100
AcDbEntity
  8
Center
 62
     0
100
AcDbLine
 10
-140.9006702139356
 20
1566.968851240575
 30
0.0
 11
-140.9006702139359
 21
1559.408851240574
 31
0.0
  0
LINE
  5
6CAE
102
{ACAD_REACTORS
330
6C63
102
}
330
1F
100
AcDbEntity
  8
Center
 62
     0
100
AcDbLine
 10
-165.7406702139359
 20
1566.968851240575
 30
0.0
 11
-165.7406702139357
 21
1559.408851240574
 31
0.0
  0
LINE
  5
6CAF
102
{ACAD_REACTORS
330
6C63
102
}
330
1F
100
AcDbEntity
  8
Bracket
 62
     0
100
AcDbLine
 10
-175.4606702139359
 20
1566.968851240574
 30
0.0
 11
-175.4606702139357
 21
1559.948851240575
 31
0.0
  0
LINE
  5
6CB0
330
1F
100
AcDbEntity
  8
Bracket
 62
     0
100
AcDbLine
 10
-140.9006702139359
 20
1559.408851240574
 30
0.0
 11
-145.7606702139356
 21
1559.408851240574
 31
0.0
  0
LINE
  5
6CB1
330
1F
100
AcDbEntity
  8
Bracket
 62
     0
100
AcDbLine
 10
-160.8806702139357
 20
1559.408851240574
 30
0.0
 11
-165.7406702139357
 21
1559.408851240574
 31
0.0
  0
LINE
  5
6CB2
102
{ACAD_REACTORS
330
773D
102
}
330
1F
100
AcDbEntity
  8
Bracket
 62
     0
100
AcDbLine
 10
-152.2272121398059
 20
1561.085860557434
 30
0.0
 11
-150.0806702139358
 21
1560.012589594499
 31
0.0
  0
LINE
  5
6CB3
102
{ACAD_REACTORS
330
773D
102
}
330
1F
100
AcDbEntity
  8
Bracket
 62
     0
100
AcDbLine
 10
-156.5606702139358
 20
1562.04511288608
 30
0.0
 11
-152.2541282880655
 21
1559.891841912985
 31
0.0
  0
LINE
  5
6CB4
330
1F
100
AcDbEntity
  8
Bracket
 62
     0
100
AcDbLine
 10
-152.2541282880655
 20
1558.925860546706
 30
0.0
 11
-156.5606702139358
 21
1556.77258959393
 31
0.0
  0
LINE
  5
6CB5
330
1F
100
AcDbEntity
  8
Bracket
 62
     0
100
AcDbLine
 10
-150.0806702139357
 20
1558.805112887219
 30
0.0
 11
-154.3872121398062
 21
1556.651841934443
 31
0.0
  0
LINE
  5
6CB6
330
1F
100
AcDbEntity
  8
Bracket
 62
     0
100
AcDbLine
 10
-154.3872121398062
 20
1555.685860568163
 30
0.0
 11
-150.0806702139358
 21
1553.532589595069
 31
0.0
  0
LINE
  5
6CB7
330
1F
100
AcDbEntity
  8
Bracket
 62
     0
100
AcDbLine
 10
-156.5606702139358
 20
1555.56511288608
 30
0.0
 11
-152.2541282880655
 21
1553.411841912985
 31
0.0
  0
LINE
  5
6CB8
330
1F
100
AcDbEntity
  8
Bracket
 62
     0
100
AcDbLine
 10
-152.2541282880655
 20
1552.445860546705
 30
0.0
 11
-156.5606702139358
 21
1550.29258959393
 31
0.0
  0
LINE
  5
6CB9
330
1F
100
AcDbEntity
  8
Bracket
 62
     0
100
AcDbLine
 10
-150.0806702139357
 20
1552.325112886649
 30
0.0
 11
-154.3872121398062
 21
1550.171841923714
 31
0.0
  0
LINE
  5
6CBA
330
1F
100
AcDbEntity
  8
Bracket
 62
     0
100
AcDbLine
 10
-154.3872121398062
 20
1549.205860557434
 30
0.0
 11
-150.0806702139358
 21
1547.052589594499
 31
0.0
  0
LINE
  5
6CBB
330
1F
100
AcDbEntity
  8
Bracket
 62
     0
100
AcDbLine
 10
-156.5606702139358
 20
1549.085112886649
 30
0.0
 11
-150.0806702139357
 21
1545.845112886649
 31
0.0
  0
LINE
  5
6CBC
102
{ACAD_REACTORS
330
773D
102
}
330
1F
100
AcDbEntity
  8
Bracket
 62
     0
100
AcDbLine
 10
-151.9857167982359
 20
1562.108851240574
 30
0.0
 11
-150.0806702139357
 21
1562.108851240574
 31
0.0
  0
ARC
  5
6CBD
102
{ACAD_REACTORS
330
773D
102
}
330
1F
100
AcDbEntity
  8
Bracket
 62
     0
100
AcDbCircle
 10
-151.9857167982359
 20
1561.568851240574
 30
0.0
 40
0.5400000000000002
100
AcDbArc
 50
90.0
 51
243.4349488229246
  0
ARC
  5
6CBE
330
1F
100
AcDbEntity
  8
Bracket
 62
     0
100
AcDbCircle
 10
-152.4956236296356
 20
1559.408851229846
 30
0.0
 40
0.5400000000000002
100
AcDbArc
 50
296.5650511770747
 51
63.43494882292493
  0
ARC
  5
6CBF
330
1F
100
AcDbEntity
  8
Bracket
 62
     0
100
AcDbCircle
 10
-154.1457167982362
 20
1556.168851251303
 30
0.0
 40
0.5400000000000002
100
AcDbArc
 50
116.5650511770751
 51
243.4349488229246
  0
ARC
  5
6CC0
330
1F
100
AcDbEntity
  8
Bracket
 62
     0
100
AcDbCircle
 10
-152.4956236296356
 20
1552.928851229845
 30
0.0
 40
0.5400000000000002
100
AcDbArc
 50
296.5650511770747
 51
63.43494882292493
  0
ARC
  5
6CC1
330
1F
100
AcDbEntity
  8
Bracket
 62
     0
100
AcDbCircle
 10
-154.1457167982362
 20
1549.688851240574
 30
0.0
 40
0.5400000000000002
100
AcDbArc
 50
116.5650511770751
 51
243.4349488229246
  0
LINE
  5
6CC2
330
1F
100
AcDbEntity
  8
Bracket
 62
     0
100
AcDbLine
 10
-37.24881672254812
 20
1603.364851240574
 30
0.0
 11
-37.74881672254805
 21
1603.364851240575
 31
0.0
  0
LINE
  5
6CC3
330
1F
100
AcDbEntity
  8
Bracket
 62
     0
100
AcDbLine
 10
-37.74881672254805
 20
1587.488851240575
 30
0.0
 11
-39.90881672254806
 21
1587.488851240575
 31
0.0
  0
LINE
  5
6CC4
330
1F
100
AcDbEntity
  8
Bracket
 62
     0
100
AcDbLine
 10
-32.34881672254815
 20
1597.364851240575
 30
0.0
 11
-32.34881672254829
 21
1587.488851240575
 31
0.0
  0
LINE
  5
6CC5
330
1F
100
AcDbEntity
  8
Bracket
 62
     0
100
AcDbLine
 10
-37.74881672254805
 20
1603.364851240575
 30
0.0
 11
-37.74881672254805
 21
1587.488851240575
 31
0.0
  0
HATCH
  5
6CC6
330
1F
100
AcDbEntity
  8
塗潰し
100
AcDbHatch
 10
0.0
 20
0.0
 30
0.0
210
0.0
220
0.0
230
1.0
  2
ANSI31
 70
     0
 71
     1
 91
        2
 92
        7
 72
     1
 73
     1
 93
        5
 10
4.757143400100711
 20
1566.592393093568
 42
-0.3083862222492117
 10
6.599764308069456
 20
1571.988991093568
 42
0.2690255654305082
 10
8.585944773025868
 20
1576.664723333442
 42
0.0
 10
-26.94881672254805
 20
1576.664723333442
 42
0.0
 10
-26.94881672254805
 20
1566.592393093568
 42
0.0
 97
        5
330
6D06
330
6CFE
330
6CC7
330
6CFD
330
6D05
 92
        7
 72
     1
 73
     1
 93
        8
 10
-61.50881672254827
 20
1576.664723333442
 42
0.0
 10
-61.50881672254804
 20
1565.871477557474
 42
0.0
 10
-55.9915856378175
 20
1565.871477557474
 42
0.101037959179914
 10
-50.51981393022545
 20
1569.344851240574
 42
-0.1941336229960339
 10
-43.02489405073372
 20
1572.368851240574
 42
0.0
 10
-42.06881672254804
 20
1572.368851240574
 42
0.4142135623732155
 10
-39.90881672254806
 20
1574.528851240575
 42
0.0
 10
-39.90881672254806
 20
1576.664723333442
 42
0.0
 97
        8
330
6CCB
330
6CFB
330
6CCC
330
6CFC
330
6CEC
330
6CEB
330
6CDE
330
6CDF
 75
     0
 76
     1
 52
0.0
 41
0.5400000000000002
 77
     0
 78
     1
 53
45.0
 43
-40.59040265922895
 44
-424.5851173906873
 45
-1.212334576344334
 46
1.212334576344334
 79
     0
 47
0.1516199478787874
 98
        2
 10
-20.35865232891573
 20
1570.959259953223
 10
-54.75443721602246
 20
1573.415502875264
1001
ACAD
1010
0.0
1020
0.0
1030
0.0
  0
LINE
  5
6CC7
102
{ACAD_REACTORS
330
6CC6
102
}
330
1F
100
AcDbEntity
  8
Bracket
 62
     0
100
AcDbLine
 10
-26.94881672254805
 20
1579.388851240575
 30
0.0
 11
-26.94881672254805
 21
1563.188851240574
 31
0.0
  0
LINE
  5
6CC8
330
1F
100
AcDbEntity
  8
Bracket
 62
     0
100
AcDbLine
 10
-162.7706702139359
 20
1579.388851240574
 30
0.0
 11
-160.0706702139359
 21
1579.388851240574
 31
0.0
  0
LINE
  5
6CC9
330
1F
100
AcDbEntity
  8
Bracket
 62
     0
100
AcDbLine
 10
-146.5706702139357
 20
1579.388851240574
 30
0.0
 11
-143.8706702139356
 21
1579.388851240574
 31
0.0
  0
LINE
  5
6CCA
330
1F
100
AcDbEntity
  8
Bracket
 62
     0
100
AcDbLine
 10
-26.94881672254805
 20
1579.388851240574
 30
0.0
 11
-32.34881672254805
 21
1587.488851240574
 31
0.0
  0
LINE
  5
6CCB
102
{ACAD_REACTORS
330
6CC6
102
}
330
1F
100
AcDbEntity
  8
Bracket
 62
     0
100
AcDbLine
 10
-39.90881672254806
 20
1587.488851240575
 30
0.0
 11
-39.90881672254806
 21
1574.528851240575
 31
0.0
  0
LINE
  5
6CCC
102
{ACAD_REACTORS
330
6CC6
102
}
330
1F
100
AcDbEntity
  8
Bracket
 62
     0
100
AcDbLine
 10
-61.50881672254828
 20
1576.664723333442
 30
0.0
 11
-61.50881672254803
 21
1565.871477557474
 31
0.0
  0
LINE
  5
6CCD
330
1F
100
AcDbEntity
  8
Bracket
 62
     0
100
AcDbLine
 10
-26.94881672254805
 20
1563.188851240574
 30
0.0
 11
-32.34881672254805
 21
1563.188851240574
 31
0.0
  0
LINE
  5
6CCE
330
1F
100
AcDbEntity
  8
Bracket
 62
     0
100
AcDbLine
 10
-36.45281672254825
 20
1503.248851240575
 30
0.0
 11
-37.74881672254805
 21
1503.248851240575
 31
0.0
  0
LINE
  5
6CCF
330
1F
100
AcDbEntity
  8
Bracket
 62
     0
100
AcDbLine
 10
-32.34881672254805
 20
1508.648851240574
 30
0.0
 11
-36.452816722548
 21
1508.648851240574
 31
0.0
  0
LINE
  5
6CD0
330
1F
100
AcDbEntity
  8
Bracket
 62
     0
100
AcDbLine
 10
-39.90881672254806
 20
1508.648851240574
 30
0.0
 11
-37.74881672254805
 21
1503.248851240575
 31
0.0
  0
LINE
  5
6CD1
330
1F
100
AcDbEntity
  8
Bracket
 62
     0
100
AcDbLine
 10
-36.452816722548
 20
1564.21153626372
 30
0.0
 11
-36.452816722548
 21
1506.743987615482
 31
0.0
  0
LINE
  5
6CD2
330
1F
100
AcDbEntity
  8
Bracket
 62
     0
100
AcDbLine
 10
-36.452816722548
 20
1506.743987615482
 30
0.0
 11
-37.74881672254805
 21
1506.743987615482
 31
0.0
  0
LINE
  5
6CD3
330
1F
100
AcDbEntity
  8
Bracket
 62
     0
100
AcDbLine
 10
-37.74881672254805
 20
1508.648851240574
 30
0.0
 11
-39.90881672254806
 21
1508.648851240574
 31
0.0
  0
LINE
  5
6CD4
330
1F
100
AcDbEntity
  8
Bracket
 62
     0
100
AcDbLine
 10
-49.08881672254828
 20
1559.408851240574
 30
0.0
 11
-73.92881672254779
 21
1559.408851240574
 31
0.0
  0
LINE
  5
6CD5
330
1F
100
AcDbEntity
  8
Bracket
 62
     0
100
AcDbLine
 10
-46.9288167225478
 20
1564.268851240574
 30
0.0
 11
-46.92881672254805
 21
1561.568851240574
 31
0.0
  0
LINE
  5
6CD6
330
1F
100
AcDbEntity
  8
Bracket
 62
     0
100
AcDbLine
 10
-73.92881672254779
 20
1562.108851240575
 30
0.0
 11
-73.92881672254779
 21
1559.408851240574
 31
0.0
  0
LINE
  5
6CD7
330
1F
100
AcDbEntity
  8
Bracket
 62
     0
100
AcDbLine
 10
-50.16881672254804
 20
1562.108851240574
 30
0.0
 11
-73.92881672254829
 21
1562.108851240574
 31
0.0
  0
LINE
  5
6CD8
330
1F
100
AcDbEntity
  8
Bracket
 62
     0
100
AcDbLine
 10
-70.14881672254805
 20
1564.808851240574
 30
0.0
 11
-73.92881672254805
 21
1562.108851240574
 31
0.0
  0
LINE
  5
6CD9
330
1F
100
AcDbEntity
  8
Bracket
 62
     0
100
AcDbLine
 10
-39.90881672254806
 20
1566.968851240574
 30
0.0
 11
-44.22881672254781
 21
1566.968851240574
 31
0.0
  0
LINE
  5
6CDA
330
1F
100
AcDbEntity
  8
Bracket
 62
     0
100
AcDbLine
 10
-46.92881672254805
 20
1561.568851240574
 30
0.0
 11
-49.08881672254803
 21
1559.408851240574
 31
0.0
  0
ARC
  5
6CDB
330
1F
100
AcDbEntity
  8
Bracket
 62
     0
100
AcDbCircle
 10
-44.22881672254781
 20
1564.268851240574
 30
0.0
 40
2.7
100
AcDbArc
 50
90.0
 51
180.0
  0
LINE
  5
6CDC
330
1F
100
AcDbEntity
  8
Bracket
 62
     0
100
AcDbLine
 10
-49.62881672254756
 20
1565.888851240575
 30
0.0
 11
-49.62881672254805
 21
1562.648851240574
 31
0.0
  0
ARC
  5
6CDD
330
1F
100
AcDbEntity
  8
Bracket
 62
     0
100
AcDbCircle
 10
-50.16881672254804
 20
1562.648851240574
 30
0.0
 40
0.5400000000000002
100
AcDbArc
 50
270.0
 51
359.9999999999864
  0
LINE
  5
6CDE
102
{ACAD_REACTORS
330
6CC6
102
}
330
1F
100
AcDbEntity
  8
Bracket
 62
     0
100
AcDbLine
 10
-42.06881672254804
 20
1572.368851240574
 30
0.0
 11
-43.02489405073372
 21
1572.368851240574
 31
0.0
  0
ARC
  5
6CDF
102
{ACAD_REACTORS
330
6CC6
102
}
330
1F
100
AcDbEntity
  8
Bracket
 62
     0
100
AcDbCircle
 10
-42.06881672254804
 20
1574.528851240575
 30
0.0
 40
2.16
100
AcDbArc
 50
270.0
 51
0.0
  0
LINE
  5
6CE0
330
1F
100
AcDbEntity
  8
Bracket
 62
     0
100
AcDbLine
 10
-39.90881672254806
 20
1569.128851240574
 30
0.0
 11
-46.38881672254756
 21
1569.128851240574
 31
0.0
  0
ARC
  5
6CE1
330
1F
100
AcDbEntity
  8
Bracket
 62
     0
100
AcDbCircle
 10
-46.38881672254756
 20
1565.888851240574
 30
0.0
 40
3.24
100
AcDbArc
 50
90.0
 51
179.9999999999864
  0
LINE
  5
6CE2
330
1F
100
AcDbEntity
  8
Bracket
 62
     0
100
AcDbLine
 10
-37.74881672254805
 20
1564.21153626372
 30
0.0
 11
-37.74881672254805
 21
1506.743987615482
 31
0.0
  0
LINE
  5
6CE3
330
1F
100
AcDbEntity
  8
Bracket
 62
     0
100
AcDbLine
 10
-39.90881672254806
 20
1508.648851240574
 30
0.0
 11
-39.90881672254806
 21
1566.968851240574
 31
0.0
  0
LINE
  5
6CE4
330
1F
100
AcDbEntity
  8
Bracket
 62
     0
100
AcDbLine
 10
-26.94881672254805
 20
1564.21153626372
 30
0.0
 11
-39.90881672254806
 21
1564.21153626372
 31
0.0
  0
LINE
  5
6CE5
330
1F
100
AcDbEntity
  8
Bracket
 62
     0
100
AcDbLine
 10
-26.94881672254805
 20
1566.592393093568
 30
0.0
 11
-39.90881672254806
 21
1566.592393093568
 31
0.0
  0
LINE
  5
6CE6
330
1F
100
AcDbEntity
  8
Bracket
 62
     0
100
AcDbLine
 10
-37.74881672254805
 20
1571.288851240574
 30
0.0
 11
-37.74881672254805
 21
1566.968851240575
 31
0.0
  0
LINE
  5
6CE7
330
1F
100
AcDbEntity
  8
Bracket
 62
     0
100
AcDbLine
 10
-37.74881672254805
 20
1566.968851240575
 30
0.0
 11
-45.30881672254781
 21
1566.968851240575
 31
0.0
  0
LINE
  5
6CE8
330
1F
100
AcDbEntity
  8
Bracket
 62
     0
100
AcDbLine
 10
-37.74881672254805
 20
1571.288851240574
 30
0.0
 11
-39.90881672254781
 21
1571.288851240574
 31
0.0
  0
LINE
  5
6CE9
330
1F
100
AcDbEntity
  8
Bracket
 62
     0
100
AcDbLine
 10
-39.90881672254781
 20
1571.288851240574
 30
0.0
 11
-39.90881672254806
 21
1569.128851240574
 31
0.0
  0
LINE
  5
6CEA
330
1F
100
AcDbEntity
  8
Bracket
 62
     0
100
AcDbLine
 10
-45.30881672254781
 20
1569.128851240574
 30
0.0
 11
-45.30881672254781
 21
1566.968851240575
 31
0.0
  0
ARC
  5
6CEB
102
{ACAD_REACTORS
330
6CC6
102
}
330
1F
100
AcDbEntity
  8
Bracket
 62
     0
100
AcDbCircle
 10
-43.02489405073372
 20
1561.568851240574
 30
0.0
 40
10.8
100
AcDbArc
 50
90.0
 51
133.945519562307
  0
ARC
  5
6CEC
102
{ACAD_REACTORS
330
6CC6
102
}
330
1F
100
AcDbEntity
  8
Bracket
 62
     0
100
AcDbCircle
 10
-61.7621937494629
 20
1581.008851240574
 30
0.0
 40
16.2
100
AcDbArc
 50
270.0
 51
313.9455195623065
  0
LINE
  5
6CED
330
1F
100
AcDbEntity
  8
Bracket
 62
     0
100
AcDbLine
 10
-61.7621937494629
 20
1564.808851240574
 30
0.0
 11
-70.14881672254805
 21
1564.808851240574
 31
0.0
  0
DIMENSION
  5
6CEE
330
1F
100
AcDbEntity
  8
Dims
  6
HIDDEN
 62
     0
100
AcDbDimension
  2
*D33
 10
-73.92881672254779
 20
1513.452308858042
 30
0.0
 11
-60.42881672254793
 21
1520.452308858042
 31
0.0
 70
    32
  1
Ｄ
 71
     5
 42
26.99999999999975
  3
JIS
100
AcDbAlignedDimension
 13
-46.92881672254805
 23
1561.568851240574
 33
0.0
 14
-73.92881672254779
 24
1559.408851240574
 34
0.0
 50
180.0
100
AcDbRotatedDimension
1001
ACAD
1000
DSTYLE
1002
{
1070
   140
1040
8.0
1070
    41
1040
8.0
1070
   147
1040
3.0
1002
}
  0
DIMENSION
  5
6CEF
330
1F
100
AcDbEntity
  8
Dims
  6
HIDDEN
 62
     0
100
AcDbDimension
  2
*D34
 10
-153.3206702139358
 20
1617.636146942849
 30
0.0
 11
-137.1206702139358
 21
1624.636146942849
 31
0.0
 70
    32
  1
Ｇ
 71
     5
 42
32.39999999999989
  3
JIS
100
AcDbAlignedDimension
 13
-120.9206702139359
 23
1568.048851240574
 33
0.0
 14
-153.3206702139358
 24
1576.688851240574
 34
0.0
100
AcDbRotatedDimension
1001
ACAD
1000
DSTYLE
1002
{
1070
   140
1040
8.0
1070
    41
1040
8.0
1070
   147
1040
3.0
1002
}
  0
DIMENSION
  5
6CF0
330
1F
100
AcDbEntity
  8
Dims
  6
HIDDEN
 62
     0
100
AcDbDimension
  2
*D35
 10
-153.3206702139358
 20
1617.636146942849
 30
0.0
 11
-169.5206702139357
 21
1624.636146942849
 31
0.0
 70
    32
  1
Ｇ
 71
     5
 42
32.39999999999986
  3
JIS
100
AcDbAlignedDimension
 13
-185.7206702139356
 23
1568.048851240575
 33
0.0
 14
-153.3206702139358
 24
1576.688851240574
 34
0.0
100
AcDbRotatedDimension
1001
ACAD
1000
DSTYLE
1002
{
1070
   140
1040
8.0
1070
    41
1040
8.0
1070
   147
1040
3.0
1002
}
  0
DIMENSION
  5
6CF1
330
1F
100
AcDbEntity
  8
Dims
  6
HIDDEN
 62
     0
100
AcDbDimension
  2
*D36
 10
-200.882716862542
 20
1603.364851240575
 30
0.0
 11
-208.9904039335954
 21
1588.282936241188
 31
0.0
 70
   160
  1
Ｃ
 71
     5
 42
32.09094790713266
 53
359.999
  3
JIS
100
AcDbAlignedDimension
 13
-153.3206702139358
 23
1571.273903333442
 33
0.0
 14
-161.4206702139359
 24
1603.364851240575
 34
0.0
 50
90.0
100
AcDbRotatedDimension
1001
ACAD
1000
DSTYLE
1002
{
1070
   140
1040
8.0
1070
    41
1040
8.0
1070
   147
1040
3.0
1070
   279
1070
     2
1002
}
  0
DIMENSION
  5
6CF2
330
1F
100
AcDbEntity
  8
Dims
  6
HIDDEN
 62
     0
100
AcDbDimension
  2
*D37
 10
-200.8827168625421
 20
1503.248923830993
 30
0.0
 11
-207.2006166503316
 21
1538.404771084733
 31
0.0
 70
   160
  1
Ｂ
 71
     5
 42
68.02497950244855
 53
359.999
  3
JIS
100
AcDbAlignedDimension
 13
-153.3206702139358
 23
1571.273903333442
 33
0.0
 14
-153.3383785549165
 24
1503.248923830993
 34
0.0
 50
90.0
100
AcDbRotatedDimension
1001
ACAD
1000
DSTYLE
1002
{
1070
   140
1040
8.0
1070
    41
1040
8.0
1070
   147
1040
3.0
1070
   279
1070
     2
1002
}
  0
DIMENSION
  5
6CF3
330
1F
100
AcDbEntity
  8
Dims
  6
HIDDEN
 62
     0
100
AcDbDimension
  2
*D38
 10
-219.0339550518206
 20
1603.364851240575
 30
0.0
 11
-226.4408295509734
 21
1552.048574265647
 31
0.0
 70
   160
  1
Ａ
 71
     5
 42
100.1159274095812
 53
359.999
  3
JIS
100
AcDbAlignedDimension
 13
-153.3383785549165
 23
1503.248923830993
 33
0.0
 14
-161.4206702139359
 24
1603.364851240575
 34
0.0
 50
90.0
100
AcDbRotatedDimension
1001
ACAD
1000
DSTYLE
1002
{
1070
   140
1040
8.0
1070
    41
1040
8.0
1070
   147
1040
3.0
1070
   279
1070
     2
1002
}
  0
LINE
  5
6CF4
330
1F
100
AcDbEntity
  8
Bracket
 62
     0
100
AcDbLine
 10
-32.34881672254805
 20
1508.648851240574
 30
0.0
 11
-32.34881672254805
 21
1564.21153626372
 31
0.0
  0
LINE
  5
6CF5
330
1F
100
AcDbEntity
  8
Bracket
 62
     0
100
AcDbLine
 10
-32.34881672254805
 20
1508.648851240574
 30
0.0
 11
-36.452816722548
 21
1503.248851240575
 31
0.0
  0
LINE
  5
6CF6
102
{ACAD_REACTORS
330
6C63
102
}
330
1F
100
AcDbEntity
  8
Bracket
 62
     0
370
    35
100
AcDbLine
 39
4.32
 10
-122.0006702139359
 20
1566.968851240574
 30
0.0
 11
-106.1795549770894
 21
1566.968851240575
 31
0.0
  0
HATCH
  5
6CF7
330
1F
100
AcDbEntity
  8
塗潰し
100
AcDbHatch
 10
0.0
 20
0.0
 30
0.0
210
0.0
220
0.0
230
1.0
  2
ANSI31
 70
     0
 71
     1
 91
        1
 92
        7
 72
     1
 73
     1
 93
        2
 10
-158.7114902139358
 20
1571.273903333442
 42
1.0
 10
-147.9298502139358
 20
1571.273903333442
 42
1.0
 97
        1
330
6CF8
 75
     0
 76
     1
 52
0.0
 41
0.5400000000000002
 77
     0
 78
     1
 53
45.0
 43
-40.59040265922895
 44
-424.5851173906873
 45
-1.212334576344334
 46
1.212334576344334
 79
     0
 47
0.0111735223212533
 98
        1
 10
-150.4785282424537
 20
1573.509242660622
1001
ACAD
1010
0.0
1020
0.0
1030
0.0
  0
CIRCLE
  5
6CF8
102
{ACAD_REACTORS
330
6D09
330
6CF7
330
773D
102
}
330
1F
100
AcDbEntity
  8
Object
  6
CENTER
100
AcDbCircle
 10
-153.3206702139358
 20
1571.273903333442
 30
0.0
 40
5.390819999999998
  0
HATCH
  5
6CF9
330
1F
100
AcDbEntity
  8
塗潰し
100
AcDbHatch
 10
0.0
 20
0.0
 30
0.0
210
0.0
220
0.0
230
1.0
  2
ANSI37
 70
     0
 71
     1
 91
        1
 92
        7
 72
     1
 73
     1
 93
        2
 10
-39.90881672254804
 20
1563.458851240574
 42
1.0
 10
-46.92881672254803
 20
1563.458851240574
 42
1.0
 97
        1
330
6CFA
 75
     0
 76
     1
 52
0.0
 41
0.5400000000000002
 77
     0
 78
     2
 53
45.0
 43
-40.59040265922895
 44
-424.5851173906873
 45
-1.212334576344334
 46
1.212334576344334
 79
     0
 53
135.0
 43
-40.59040265922895
 44
-424.5851173906873
 45
-1.212334576344334
 46
-1.212334576344334
 79
     0
 47
0.1516199478787874
 98
        1
 10
-43.61675470743757
 20
1561.789285432427
1001
ACAD
1010
0.0
1020
0.0
1030
0.0
  0
CIRCLE
  5
6CFA
102
{ACAD_REACTORS
330
6CF9
102
}
330
1F
100
AcDbEntity
  8
Object
100
AcDbCircle
 10
-43.41881672254803
 20
1563.458851240574
 30
0.0
 40
3.509999999999998
  0
LINE
  5
6CFB
102
{ACAD_REACTORS
330
6CC6
102
}
330
1F
100
AcDbEntity
  8
Bracket
 62
     0
100
AcDbLine
 10
-61.50881672254828
 20
1576.664723333442
 30
0.0
 11
-39.90881672254806
 21
1576.664723333442
 31
0.0
  0
LINE
  5
6CFC
102
{ACAD_REACTORS
330
6CC6
102
}
330
1F
100
AcDbEntity
  8
Bracket
 62
     0
100
AcDbLine
 10
-61.50881672254828
 20
1565.871477557474
 30
0.0
 11
-55.9915856378199
 21
1565.871477557474
 31
0.0
  0
LINE
  5
6CFD
102
{ACAD_REACTORS
330
6CC6
102
}
330
1F
100
AcDbEntity
  8
Bracket
 62
     0
370
    35
100
AcDbLine
 39
4.32
 10
-26.94881672254805
 20
1566.592393093568
 30
0.0
 11
4.757143400100613
 21
1566.592393093568
 31
0.0
  0
LINE
  5
6CFE
102
{ACAD_REACTORS
330
6CC6
102
}
330
1F
100
AcDbEntity
  8
Bracket
 62
     0
370
    35
100
AcDbLine
 39
4.32
 10
-26.94881672254805
 20
1576.664723333442
 30
0.0
 11
8.585944773026156
 21
1576.664723333442
 31
0.0
  0
DIMENSION
  5
6CFF
330
1F
100
AcDbEntity
  8
Dims
  6
HIDDEN
 62
     0
100
AcDbDimension
  2
*D39
 10
-45.13962179979567
 20
1566.5180880549
 30
0.0
 11
-4.64981370414921
 21
1519.000524390463
 31
0.0
 70
   163
  1
Ｆ
 71
     5
 42
7.019999999999754
 53
0.001
  3
JIS
100
AcDbDiametricDimension
 15
-41.69801164530122
 25
1560.399614426251
 35
0.0
 40
0.0
1001
ACAD
1000
DSTYLE
1002
{
1070
   140
1040
8.0
1070
    41
1040
8.0
1070
   147
1040
3.0
1070
   288
1070
     1
1002
}
  0
DIMENSION
  5
6D00
330
1F
100
AcDbEntity
  8
Dims
  6
HIDDEN
 62
     0
100
AcDbDimension
  2
*D40
 10
-11.43505624351701
 20
1576.664723333442
 30
0.0
 11
-6.986835185849257
 21
1623.957489708126
 31
0.0
 70
   160
  1
Ｅ
 71
     5
 42
18.3025140384068
 53
359.999
  3
JIS
100
AcDbAlignedDimension
 13
-11.43505624351701
 23
1558.362209295035
 33
0.0
 14
-3.707175993160793
 24
1576.664723333442
 34
0.0
 50
90.0
100
AcDbRotatedDimension
1001
ACAD
1000
DSTYLE
1002
{
1070
   140
1040
8.0
1070
    41
1040
8.0
1070
   147
1040
3.0
1070
   279
1070
     1
1002
}
  0
ARC
  5
6D03
102
{ACAD_REACTORS
330
6C63
102
}
330
1F
100
AcDbEntity
  8
Object
100
AcDbCircle
 10
-105.3270891833178
 20
1560.488851240575
 30
0.0
 40
3.375000000000171
100
AcDbArc
 50
126.8698976458477
 51
233.1301023541531
  0
ARC
  5
6D04
102
{ACAD_REACTORS
330
6C63
102
}
330
1F
100
AcDbEntity
  8
Object
100
AcDbCircle
 10
-109.3770891833178
 20
1565.888851240574
 30
0.0
 40
3.375000000000023
100
AcDbArc
 50
306.8698976458441
 51
53.13010235415267
  0
ARC
  5
6D05
102
{ACAD_REACTORS
330
6CC6
102
}
330
1F
100
AcDbEntity
  8
Object
100
AcDbCircle
 10
9.637264308069919
 20
1567.938991093568
 30
0.0
 40
5.062500000000255
100
AcDbArc
 50
126.8698976458484
 51
233.130102354152
  0
ARC
  5
6D06
102
{ACAD_REACTORS
330
6CC6
102
}
330
1F
100
AcDbEntity
  8
Object
100
AcDbCircle
 10
3.562264308069917
 20
1576.038991093568
 30
0.0
 40
5.062500000000036
100
AcDbArc
 50
306.8698976458467
 51
53.13010235415248
  0
DIMENSION
  5
6D07
102
{ACAD_XDICTIONARY
360
6D08
102
}
102
{ACAD_REACTORS
330
6D09
102
}
330
1F
100
AcDbEntity
  8
Object
  6
HIDDEN
100
AcDbDimension
  2
*D43
 10
-155.237035496509
 20
1576.312602012283
 30
0.0
 11
-119.6237684403345
 21
1519.604965533099
 31
0.0
 70
   163
  1
Ｅ
 71
     5
 42
10.78164000000038
 53
0.001
  3
JIS
100
AcDbDiametricDimension
 15
-151.4043049313626
 25
1566.235204654601
 35
0.0
 40
0.0
1001
ACAD
1000
DSTYLE
1002
{
1070
   147
1040
3.0
1070
   140
1040
8.0
1070
    41
1040
8.0
1070
   288
1070
     1
1002
}
  0
DIMENSION
  5
6D0A
330
1F
100
AcDbEntity
  8
Object
  6
HIDDEN
100
AcDbDimension
  2
*D44
 10
-113.0506212895798
 20
1570.87347566889
 30
0.0
 11
-106.1795549770894
 21
1624.575963249881
 31
0.0
 70
   160
  1
Ｆ
 71
     5
 42
10.92462442831584
 53
359.999
  3
JIS
100
AcDbAlignedDimension
 13
-108.6586091067163
 23
1559.948851240575
 33
0.0
 14
-113.0506212895798
 24
1570.87347566889
 34
0.0
 50
90.0
100
AcDbRotatedDimension
1001
ACAD
1000
DSTYLE
1002
{
1070
    41
1040
8.0
1070
   140
1040
8.0
1070
   147
1040
3.0
1070
   279
1070
     1
1002
}
  0
MTEXT
  5
6D0D
330
1F
100
AcDbEntity
  8
Object
100
AcDbMText
 10
-111.3903540755947
 20
1618.748247144446
 30
0.0
 40
8.0
 41
51.22409714564962
 71
     1
 72
     5
  1
（縦鉄筋）
 73
     1
 44
1.0
1001
ACAD
1000
MTEXTBEGIN
1070
    73
1070
     1
1070
    44
1040
1.0
1070
    74
1070
     0
1000
MTEXTEND
1000
ACAD_MTEXT_DEFINED_HEIGHT_BEGIN
1070
    46
1040
24.26964338990305
1000
ACAD_MTEXT_DEFINED_HEIGHT_END
  0
MTEXT
  5
7449
330
1F
100
AcDbEntity
  8
Object
100
AcDbMText
 10
-137.9767230781718
 20
1512.472179635072
 30
0.0
 40
8.0
 41
49.94442713483007
 71
     1
 72
     5
  1
（横鉄筋）
 73
     1
 44
1.0
1001
ACAD
1000
MTEXTBEGIN
1070
    73
1070
     1
1070
    44
1040
1.0
1070
    74
1070
     0
1000
MTEXTEND
1000
ACAD_MTEXT_DEFINED_HEIGHT_BEGIN
1070
    46
1040
22.4872029904578
1000
ACAD_MTEXT_DEFINED_HEIGHT_END
  0
MTEXT
  5
75D6
330
1F
100
AcDbEntity
  8
Object
100
AcDbMText
 10
-23.31556861376423
 20
1512.461656081449
 30
0.0
 40
8.0
 41
51.22409714564962
 71
     1
 72
     5
  1
（縦鉄筋）
 73
     1
 44
1.0
1001
ACAD
1000
MTEXTBEGIN
1070
    73
1070
     1
1070
    44
1040
1.0
1070
    74
1070
     0
1000
MTEXTEND
1000
ACAD_MTEXT_DEFINED_HEIGHT_BEGIN
1070
    46
1040
24.26964338990305
1000
ACAD_MTEXT_DEFINED_HEIGHT_END
  0
LINE
  5
75E8
330
1F
100
AcDbEntity
  8
Object
100
AcDbLine
 10
-37.24881672254805
 20
1603.364851240575
 30
0.0
 11
-32.34881672254815
 21
1597.364851240574
 31
0.0
  0
HATCH
  5
773D
330
1F
100
AcDbEntity
  8
塗潰し
100
AcDbHatch
 10
0.0
 20
0.0
 30
0.0
210
0.0
220
0.0
230
1.0
  2
ANSI37
 70
     0
 71
     1
 91
        8
 92
       23
 72
     1
 73
     1
 93
        3
 10
-156.6711281522006
 20
1566.968851240575
 42
0.0
 10
-158.2836528873325
 20
1566.968851240575
 42
0.6591833737119986
 10
-157.1315663768835
 20
1566.508413015892
 42
0.0
 97
        3
330
6CAA
330
6C5D
330
6C60
 92
        7
 72
     1
 73
     1
 93
       14
 10
-146.7211792583075
 20
1566.592393093568
 42
0.01399061136841
 10
-146.4688383420928
 20
1566.968851240575
 42
0.0
 10
-148.3520619630835
 20
1566.968851240575
 42
-0.6556314595495886
 10
-149.5033344656933
 20
1566.513551645887
 42
0.0
 10
-149.9598649466862
 20
1566.968851240575
 42
0.0
 10
-150.076064421224
 20
1566.968851240575
 42
-0.3346378501732554
 10
-156.5652760066479
 20
1566.968851240575
 42
0.0
 10
-156.6711281522011
 20
1566.968851240575
 42
0.0
 10
-157.1315663768835
 20
1566.508413015892
 42
-0.6591833737122115
 10
-158.2836528873326
 20
1566.968851240575
 42
0.0
 10
-160.1725020857793
 20
1566.968851240575
 42
0.0143277153524912
 10
-159.9138236646104
 20
1566.583500289172
 42
1.087114457670157
 10
-158.0087982191411
 20
1564.683440140059
 42
0.3191742519913009
 10
-148.6236414054014
 20
1564.689766427375
 42
1.087114457250509
 97
       12
330
6C9E
330
6C93
330
6C5E
330
6C5F
330
6CF8
330
6CAA
330
6C60
330
6C5D
330
6C64
330
6C9D
330
6C9F
330
6C9C
 92
       23
 72
     1
 73
     1
 93
        3
 10
-148.3520619630835
 20
1566.968851240575
 42
0.0
 10
-149.9598649466863
 20
1566.968851240575
 42
0.0
 10
-149.5033344656933
 20
1566.513551645887
 42
0.6556314595497604
 97
        3
330
6C93
330
6C5F
330
6C5E
 92
        7
 72
     1
 73
     1
 93
        4
 10
-149.0006702139358
 20
1564.437019368731
 42
-0.0377727988016224
 10
-150.0806702139357
 20
1563.865078614745
 42
0.0
 10
-150.0806702139357
 20
1559.948851240575
 42
0.0
 10
-149.0006702139357
 20
1559.948851240575
 42
0.0
 97
        4
330
6C9F
330
6CA0
330
6C95
330
6CA2
 92
       23
 72
     1
 73
     1
 93
        4
 10
-150.0806702139357
 20
1562.108851240574
 42
0.0
 10
-151.9857167982359
 20
1562.108851240574
 42
0.7914183192470324
 10
-152.2272121398059
 20
1561.085860557434
 42
0.0
 10
-150.0806702139357
 20
1560.012589594499
 42
0.0
 97
        4
330
6CBC
330
6CBD
330
6CB2
330
6CA0
 92
        7
 72
     1
 73
     1
 93
        9
 10
-150.0806702139357
 20
1563.865078614745
 42
-0.2087121525220842
 10
-156.5606702139358
 20
1563.865078614746
 42
0.0
 10
-156.5606702139358
 20
1562.04511288608
 42
0.0
 10
-152.3681469427074
 20
1559.948851240575
 42
0.0
 10
-150.0806702139357
 20
1559.948851240575
 42
0.0
 10
-150.0806702139357
 20
1560.012589594498
 42
0.0
 10
-152.2272121398059
 20
1561.085860557434
 42
-0.791418319246605
 10
-151.9857167982364
 20
1562.108851240574
 42
0.0
 10
-150.0806702139357
 20
1562.108851240574
 42
0.0
 97
        8
330
6C9F
330
6CA1
330
6CB3
330
6C95
330
6CA0
330
6CB2
330
6CBD
330
6CBC
 92
        7
 72
     0
 73
     1
 93
        3
 10
-156.5606702139358
 20
1562.04511288608
 10
-156.5606702139358
 20
1559.948851240575
 10
-152.3681469427072
 20
1559.948851240575
 97
        3
330
6CA1
330
6C95
330
6CB3
 92
        7
 72
     1
 73
     1
 93
        4
 10
-156.5606702139358
 20
1563.865078614745
 42
-0.0377727988016178
 10
-157.6406702139355
 20
1564.437019368731
 42
0.0
 10
-157.6406702139355
 20
1559.948851240575
 42
0.0
 10
-156.5606702139358
 20
1559.948851240575
 42
0.0
 97
        4
330
6C9F
330
6CA3
330
6C95
330
6CA1
 75
     0
 76
     1
 52
0.0
 41
0.5400000000000001
 77
     0
 78
     2
 53
45.0
 43
0.0
 44
0.0
 45
-1.212334576344335
 46
1.212334576344335
 79
     0
 53
135.0
 43
0.0
 44
0.0
 45
-1.212334576344335
 46
-1.212334576344335
 79
     0
 47
0.0613009326449197
 98
        8
 10
-157.5277548041881
 20
1566.653399063216
 10
-156.7304920072524
 20
1565.488681480165
 10
-149.2485051206172
 20
1566.653399063216
 10
-149.4938173869818
 20
1563.036643248793
 10
-151.1496662203631
 20
1561.442819374611
 10
-153.6641038485222
 20
1562.301031956874
 10
-154.9519884198548
 20
1561.197615018995
 10
-157.2824425378235
 20
1561.871925665742
1001
ACAD
1010
0.0
1020
0.0
1030
0.0
  0
VIEWPORT
  5
76D7
102
{ACAD_XDICTIONARY
360
7760
102
}
330
76D6
100
AcDbEntity
 67
     1
  8
0
100
AcDbViewport
 10
210.8397526052368
 20
79.82586814725052
 30
0.0
 40
301.7267926538579
 41
194.1546317946563
 68
     1
 69
     1
 12
210.8397526052368
 22
79.82586814725052
 13
0.0
 23
0.0
 14
10.0
 24
10.0
 15
10.0
 25
10.0
 16
0.0
 26
0.0
 36
1.0
 17
0.0
 27
0.0
 37
0.0
 42
50.0
 43
0.0
 44
0.0
 45
194.1546317946563
 50
0.0
 51
0.0
 72
  1000
 90
   557152
  1

281
     0
 71
     1
 74
     0
110
0.0
120
0.0
130
0.0
111
1.0
121
0.0
131
0.0
112
0.0
122
1.0
132
0.0
 79
     0
146
0.0
  0
LWPOLYLINE
  5
76D8
102
{ACAD_REACTORS
330
76D9
102
}
330
76D6
100
AcDbEntity
 67
     1
  8
Viewport
100
AcDbPolyline
 90
        8
 70
     1
 43
0.0
 10
12.5
 20
202.0
 10
284.5
 20
202.0
 10
284.4978723404242
 20
34.0
 10
167.4978723404242
 20
34.0
 10
167.4978723404242
 20
7.0
 10
129.5
 20
7.0
 10
12.5
 20
7.0
 10
12.5
 20
31.0
  0
VIEWPORT
  5
76D9
102
{ACAD_XDICTIONARY
360
7762
102
}
330
76D6
100
AcDbEntity
 67
     1
  8
Viewport
100
AcDbViewport
 10
148.5
 20
104.5
 30
0.0
 40
272.0000000000001
 41
195.0
 68
     2
 69
     2
 12
-101.2752771235569
 22
1555.67574903811
 13
0.0
 23
0.0
 14
10.0
 24
10.0
 15
10.0
 25
10.0
 16
0.0
 26
0.0
 36
1.0
 17
0.0
 27
0.0
 37
0.0
 42
50.0
 43
0.0
 44
0.0
 45
195.000002530519
 50
0.0
 51
0.0
 72
   100
 90
    98368
340
76D8
  1

281
     0
 71
     1
 74
     0
110
0.0
120
0.0
130
0.0
111
1.0
121
0.0
131
0.0
112
0.0
122
1.0
132
0.0
 79
     0
146
0.0
  0
MTEXT
  5
76DA
330
76D6
100
AcDbEntity
 67
     1
  8
Object
370
    -3
100
AcDbMText
 10
225.9978723404242
 20
22.75
 30
0.0
 40
5.0
 41
117.0
 71
     5
 72
     5
  1
可変側溝蓋用　Ｂ型
 73
     1
 44
1.0
1001
AcDbBlockRepETag
1070
     1
1071
       68
1005
76DA
1001
ACAD
1000
MTEXTBEGIN
1070
    73
1070
     1
1070
    44
1040
1.0
1070
    74
1070
     0
1000
MTEXTEND
1000
ACAD_MTEXT_DEFINED_HEIGHT_BEGIN
1070
    46
1040
13.49999999999999
1000
ACAD_MTEXT_DEFINED_HEIGHT_END
  0
LINE
  5
76DB
330
76D6
100
AcDbEntity
 67
     1
  8
0
100
AcDbLine
 10
12.5
 20
7.0
 30
0.0
 11
12.5
 21
202.0
 31
0.0
1001
AcDbBlockRepETag
1070
     1
1071
        2
1005
76DB
  0
LINE
  5
76DC
330
76D6
100
AcDbEntity
 67
     1
  8
0
100
AcDbLine
 10
25.0
 20
0.0
 30
0.0
 11
0.0
 21
0.0
 31
0.0
1001
AcDbBlockRepETag
1070
     1
1071
        3
1005
76DC
  0
LINE
  5
76DD
330
76D6
100
AcDbEntity
 67
     1
  8
0
100
AcDbLine
 10
0.0
 20
0.0
 30
0.0
 11
0.0
 21
10.0
 31
0.0
1001
AcDbBlockRepETag
1070
     1
1071
        4
1005
76DD
  0
LINE
  5
76DE
330
76D6
100
AcDbEntity
 67
     1
  8
0
100
AcDbLine
 10
148.5
 20
6.0
 30
0.0
 11
148.5
 21
5.0
 31
0.0
1001
AcDbBlockRepETag
1070
     1
1071
       20
1005
76DE
  0
LINE
  5
76DF
330
76D6
100
AcDbEntity
 67
     1
  8
0
100
AcDbLine
 10
0.0
 20
210.0
 30
0.0
 11
25.0
 21
210.0
 31
0.0
1001
AcDbBlockRepETag
1070
     1
1071
       23
1005
76DF
  0
LINE
  5
76E0
330
76D6
100
AcDbEntity
 67
     1
  8
0
100
AcDbLine
 10
0.0
 20
200.0
 30
0.0
 11
0.0
 21
210.0
 31
0.0
1001
AcDbBlockRepETag
1070
     1
1071
       24
1005
76E0
  0
LINE
  5
76E1
330
76D6
100
AcDbEntity
 67
     1
  8
0
100
AcDbLine
 10
284.5
 20
202.0
 30
0.0
 11
284.5
 21
7.0
 31
0.0
1001
AcDbBlockRepETag
1070
     1
1071
       36
1005
76E1
  0
LINE
  5
76E2
330
76D6
100
AcDbEntity
 67
     1
  8
0
100
AcDbLine
 10
297.0
 20
10.0
 30
0.0
 11
297.0
 21
0.0
 31
0.0
1001
AcDbBlockRepETag
1070
     1
1071
       40
1005
76E2
  0
LINE
  5
76E3
330
76D6
100
AcDbEntity
 67
     1
  8
0
100
AcDbLine
 10
297.0
 20
210.0
 30
0.0
 11
297.0
 21
200.0
 31
0.0
1001
AcDbBlockRepETag
1070
     1
1071
       54
1005
76E3
  0
LINE
  5
76E4
330
76D6
100
AcDbEntity
 67
     1
  8
0
100
AcDbLine
 10
272.0
 20
210.0
 30
0.0
 11
297.0
 21
210.0
 31
0.0
1001
AcDbBlockRepETag
1070
     1
1071
       55
1005
76E4
  0
LINE
  5
76E5
330
76D6
100
AcDbEntity
 67
     1
  8
0
100
AcDbLine
 10
272.0
 20
0.0
 30
0.0
 11
297.0
 21
0.0
 31
0.0
1001
AcDbBlockRepETag
1070
     1
1071
       56
1005
76E5
  0
LINE
  5
76E6
330
76D6
100
AcDbEntity
 67
     1
  8
0
100
AcDbLine
 10
284.5
 20
7.0
 30
0.0
 11
12.5
 21
7.0
 31
0.0
1001
AcDbBlockRepETag
1070
     1
1071
       57
1005
0
  0
LINE
  5
76E7
330
76D6
100
AcDbEntity
 67
     1
  8
0
100
AcDbLine
 10
12.5
 20
202.0
 30
0.0
 11
284.5
 21
202.0
 31
0.0
1001
AcDbBlockRepETag
1070
     1
1071
       58
1005
0
  0
LINE
  5
76E8
330
76D6
100
AcDbEntity
 67
     1
  8
0
 62
     0
380
     1
100
AcDbLine
 10
284.5
 20
7.0
 30
0.0
 11
284.5
 21
43.0
 31
0.0
1001
AcDbBlockRepETag
1070
     1
1071
       49
1005
76E8
  0
LINE
  5
76E9
330
76D6
100
AcDbEntity
 67
     1
  8
0
100
AcDbLine
 10
284.4978723404242
 20
16.0
 30
0.0
 11
167.4978723404242
 21
16.0
 31
0.0
1001
AcDbBlockRepETag
1070
     1
1071
      166
1005
76E9
  0
LINE
  5
76EA
330
76D6
100
AcDbEntity
 67
     1
  8
0
100
AcDbLine
 10
218.4978723404242
 20
7.0
 30
0.0
 11
218.4978723404242
 21
16.0
 31
0.0
1001
AcDbBlockRepETag
1070
     1
1071
      167
1005
76EA
  0
LINE
  5
76EB
330
76D6
100
AcDbEntity
 67
     1
  8
0
100
AcDbLine
 10
284.4978723404242
 20
34.0
 30
0.0
 11
167.4978723404242
 21
34.0
 31
0.0
1001
AcDbBlockRepETag
1070
     1
1071
      169
1005
76EB
  0
MTEXT
  5
76EC
330
76D6
100
AcDbEntity
 67
     1
  8
0
100
AcDbMText
 10
192.9978723404241
 20
11.5
 30
0.0
 40
4.0
 41
51.0
 71
     5
 72
     5
  1
富国石油株式会社
 73
     1
 44
1.0
1001
AcDbBlockRepETag
1070
     1
1071
      171
1005
76EC
1001
ACAD
1000
MTEXTBEGIN
1070
    73
1070
     1
1070
    44
1040
1.0
1070
    74
1070
     0
1000
MTEXTEND
  0
LINE
  5
76ED
330
76D6
100
AcDbEntity
 67
     1
  8
0
  6
HIDDEN2
 48
0.5
100
AcDbLine
 10
284.4978723404242
 20
29.5
 30
0.0
 11
167.4978723404242
 21
29.5
 31
0.0
1001
AcDbBlockRepETag
1070
     1
1071
      180
1005
76ED
  0
ENDSEC
  0
SECTION
  2
OBJECTS
  0
DICTIONARY
  5
C
330
0
100
AcDbDictionary
281
     1
  3
ACAD_COLOR
350
14D
  3
ACAD_GROUP
350
D
  3
ACAD_LAYOUT
350
1A
  3
ACAD_MATERIAL
350
14C
  3
ACAD_MLINESTYLE
350
17
  3
ACAD_PLOTSETTINGS
350
19
  3
ACAD_PLOTSTYLENAME
350
E
  3
ACAD_TABLESTYLE
350
17B
  3
ACAD_VISUALSTYLE
350
1D3
  3
AcadDim
350
2C28
  3
AcDbVariableDictionary
350
148
  3
DWGPROPS
350
7752
  0
DICTIONARY
  5
18A
330
2
100
AcDbDictionary
280
     1
281
     1
  3
ACAD_LAYERFILTERS
360
463
  3
ACAD_LAYERSTATES
360
18B
  3
ACLYDICTIONARY
360
462
  0
DICTIONARY
  5
B52
330
1F
100
AcDbDictionary
280
     1
281
     1
  3
ACAD_SORTENTS
360
B53
  0
DICTIONARY
  5
28E
330
AB
100
AcDbDictionary
280
     1
281
     1
  0
DICTIONARY
  5
4E8
330
4E7
100
AcDbDictionary
280
     1
281
     1
  3
ACAD_SORTENTS
360
6DE
  0
DICTIONARY
  5
930
330
6ED
100
AcDbDictionary
280
     1
281
     1
  3
ACAD_SORTENTS
360
931
  0
DICTIONARY
  5
7759
330
316
100
AcDbDictionary
280
     1
281
     1
  3
ACAD_MTEXT_RT
360
775A
  0
DICTIONARY
  5
775B
330
539
100
AcDbDictionary
280
     1
281
     1
  3
ACAD_MTEXT_RT
360
775C
  0
DICTIONARY
  5
775D
330
9C6
100
AcDbDictionary
280
     1
281
     1
  3
ACAD_MTEXT_RT
360
775E
  0
DICTIONARY
  5
6D08
330
6D07
100
AcDbDictionary
280
     1
281
     1
  3
ACAD_DIMASSOC
360
6D09
  0
DICTIONARY
  5
7760
330
76D7
100
AcDbDictionary
280
     1
281
     1
  3
ACAD_XREC_ROUNDTRIP
360
7761
  0
DICTIONARY
  5
7762
330
76D9
100
AcDbDictionary
280
     1
281
     1
  3
ACAD_XREC_ROUNDTRIP
360
7763
  0
DICTIONARY
  5
14D
102
{ACAD_REACTORS
330
C
102
}
330
C
100
AcDbDictionary
281
     1
  0
DICTIONARY
  5
D
102
{ACAD_REACTORS
330
C
102
}
330
C
100
AcDbDictionary
281
     1
  0
DICTIONARY
  5
1A
102
{ACAD_REACTORS
330
C
102
}
330
C
100
AcDbDictionary
281
     1
  3
A4横
350
76D3
  3
Model
350
22
  0
DICTIONARY
  5
14C
102
{ACAD_REACTORS
330
C
102
}
330
C
100
AcDbDictionary
281
     1
  3
ByBlock
350
1D1
  3
ByLayer
350
1D0
  3
Global
350
1D2
  0
DICTIONARY
  5
17
102
{ACAD_REACTORS
330
C
102
}
330
C
100
AcDbDictionary
281
     1
  3
Standard
350
18
  0
DICTIONARY
  5
19
102
{ACAD_REACTORS
330
C
102
}
330
C
100
AcDbDictionary
281
     1
  3
JIS A4 title block (portrait) - no output device
350
11F
  0
ACDBDICTIONARYWDFLT
  5
E
102
{ACAD_REACTORS
330
C
102
}
330
C
100
AcDbDictionary
281
     1
  3
Normal
350
F
100
AcDbDictionaryWithDefault
340
F
  0
DICTIONARY
  5
17B
102
{ACAD_REACTORS
330
C
102
}
330
C
100
AcDbDictionary
281
     1
  3
Standard
350
17C
  0
DICTIONARY
  5
1D3
102
{ACAD_REACTORS
330
C
102
}
330
C
100
AcDbDictionary
281
     1
  3
2dWireframe
350
1D9
  3
3D Hidden
350
1DB
  3
3dWireframe
350
1DA
  3
Basic
350
1D8
  3
Brighten
350
1DF
  3
ColorChange
350
1E3
  3
Conceptual
350
1DC
  3
Dim
350
1DE
  3
Facepattern
350
1E2
  3
Flat
350
1D4
  3
FlatWithEdges
350
1D5
  3
Gouraud
350
1D6
  3
GouraudWithEdges
350
1D7
  3
Linepattern
350
1E1
  3
Realistic
350
1DD
  3
Thicken
350
1E0
  0
XRECORD
  5
2C28
102
{ACAD_REACTORS
330
C
102
}
330
C
100
AcDbXrecord
280
     1
 90
   990106
  3

 60
     0
 61
     0
 62
     1
 63
     3
 64
     0
 65
     0
 66
     0
 67
     3
 68
     1
 69
     0
 70
     0
 71
     0
 72
     0
 40
0.0
170
     0
  0
DICTIONARY
  5
148
102
{ACAD_REACTORS
330
C
102
}
330
C
100
AcDbDictionary
281
     1
  3
CTABLESTYLE
350
190
  3
DIMASSOC
350
14A
  3
HIDETEXT
350
149
  3
INDEXCTL
350
769B
  3
PSOLHEIGHT
350
773F
  3
PSOLWIDTH
350
773E
  3
SORTENTS
350
769A
  0
XRECORD
  5
7752
102
{ACAD_REACTORS
330
C
102
}
330
C
100
AcDbXrecord
280
     1
  1
DWGPROPS COOKIE
  2

  3

  4

  6

  7

  8
k-uehara
  9

300
=
301
=
302
=
303
=
304
=
305
=
306
=
307
=
308
=
309
=
 40
0.8046765046296295
 41
2454379.577641921
 42
2454937.501454989
  1

 90
        0
  0
DICTIONARY
  5
463
102
{ACAD_REACTORS
330
18A
102
}
330
18A
100
AcDbDictionary
281
     1
  0
DICTIONARY
  5
18B
102
{ACAD_REACTORS
330
18A
102
}
330
18A
100
AcDbDictionary
281
     1
  3
ACAD_VIEWS_元図１
350
6AC
  0
DICTIONARY
  5
462
102
{ACAD_REACTORS
330
18A
102
}
330
18A
100
AcDbDictionary
281
     1
1001
ACAD
1000
<All
  0
SORTENTSTABLE
  5
B53
102
{ACAD_REACTORS
330
B52
102
}
330
B52
100
AcDbSortentsTable
330
1F
331
6CF1
  5
6CF5
331
6CF9
  5
6CFD
331
6CBB
  5
6CBD
331
6C9C
  5
6C9E
331
6CC3
  5
6CC6
331
6CA4
  5
6CA6
331
6CCB
  5
6CCF
331
6C6C
  5
6C6D
331
6C74
  5
6C75
331
6CD5
  5
6CD9
331
6CE5
  5
6CE9
331
6CDB
  5
6CDF
331
6C7C
  5
6C7D
331
6C5D
  5
6C5E
331
6C84
  5
6C85
331
6CEA
  5
6CEE
331
6C65
  5
6C66
331
6C95
  5
6C97
331
6C8C
  5
6C8D
331
6CB4
  5
6CB6
331
6CAD
  5
6CAF
331
6CF2
  5
6CF6
331
773D
  5
6C5D
331
6CFA
  5
6CFE
331
6CBC
  5
6CBE
331
6C9D
  5
6C9F
331
6CC4
  5
6CC8
331
6CA5
  5
6CA7
331
6CCC
  5
6CD0
331
6C6D
  5
6C6E
331
6C75
  5
6C76
331
6CD6
  5
6CDA
331
6CE6
  5
6CEA
331
6CDC
  5
6CE0
331
6C7D
  5
6C7E
331
6C5E
  5
6C5F
331
6C85
  5
6C86
331
6CEB
  5
6CEF
331
6C66
  5
6C67
331
6C96
  5
6C98
331
6C8D
  5
6C8E
331
6CB5
  5
6CB7
331
6CAE
  5
6CB0
331
6CF3
  5
6CF7
331
6CFB
  5
6CFF
331
6CBD
  5
6CBF
331
6D03
  5
6D07
331
6C9E
  5
6CA0
331
6CC5
  5
6CC9
331
6CA6
  5
6CA8
331
6CCD
  5
6CD1
331
6C6E
  5
6C6F
331
6C76
  5
6C77
331
6CD7
  5
6CDB
331
6CE7
  5
6CEB
331
6CDD
  5
6CE1
331
6C7E
  5
6C7F
331
6C5F
  5
6C60
331
6C86
  5
6C87
331
6CEC
  5
6CF0
331
6C67
  5
6C68
331
6C97
  5
6C99
331
6C8E
  5
6C8F
331
6CB6
  5
6CB8
331
6CAF
  5
6CB1
331
6CF4
  5
6CF8
331
6CFC
  5
6D00
331
6CBE
  5
6CC0
331
6D04
  5
6D0A
331
6C9F
  5
6CA1
331
6CC6
  5
6CCA
331
6CA7
  5
6CA9
331
6CCE
  5
6CD2
331
6C6F
  5
6C70
331
6C77
  5
6C78
331
6CD0
  5
6CD4
331
6CE0
  5
6CE4
331
75E8
  5
7736
331
6D0A
  5
75E0
331
6C58
  5
6C58
331
6CDE
  5
6CE2
331
6C7F
  5
6C80
331
6C60
  5
6C61
331
6CED
  5
6CF1
331
6C90
  5
6C91
331
6C87
  5
6C88
331
6CA8
  5
6CAA
331
6C8F
  5
6C90
331
6CB7
  5
6CB9
331
6CF5
  5
6CF9
331
6CFD
  5
6D03
331
6C98
  5
6C9A
331
6CBF
  5
6CC1
331
6D05
  5
6D0D
331
6CA0
  5
6CA2
331
6CC7
  5
6CCB
331
6C68
  5
6C69
331
6CCF
  5
6CD3
331
6C70
  5
6C71
331
6CD1
  5
6CD5
331
6CE1
  5
6CE5
331
7449
  5
75E8
331
6C78
  5
6C79
331
6C59
  5
6C59
331
6CDF
  5
6CE3
331
6C80
  5
6C81
331
6C61
  5
6C62
331
6CEE
  5
6CF2
331
6C91
  5
6C92
331
6C88
  5
6C89
331
6CB0
  5
6CB2
331
6CA9
  5
6CAB
331
6CF6
  5
6CFA
331
6CB8
  5
6CBA
331
6CFE
  5
6D04
331
6C99
  5
6C9B
331
6CC0
  5
6CC2
331
6D06
  5
6D10
331
6CA1
  5
6CA3
331
6CC8
  5
6CCC
331
6C69
  5
6C6A
331
6C71
  5
6C72
331
6CD2
  5
6CD6
331
6CE2
  5
6CE6
331
6CD8
  5
6CDC
331
6C79
  5
6C7A
331
6C5A
  5
6C5A
331
6C81
  5
6C82
331
6C62
  5
6C63
331
6CEF
  5
6CF3
331
6C92
  5
6C93
331
6C89
  5
6C8A
331
6CB1
  5
6CB3
331
6CAA
  5
6CAC
331
6CF7
  5
6CFB
331
6CB9
  5
6CBB
331
6CFF
  5
6D05
331
6C9A
  5
6C9C
331
6CC1
  5
6CC4
331
6D07
  5
6D11
331
6CA2
  5
6CA4
331
6CC9
  5
6CCD
331
6C6A
  5
6C6B
331
6C72
  5
6C73
331
6CD3
  5
6CD7
331
6CE3
  5
6CE7
331
6D0D
  5
75E1
331
6CD9
  5
6CDD
331
6C7A
  5
6C7B
331
6C5B
  5
6C5B
331
6C82
  5
6C83
331
6CE8
  5
6CEC
331
6C63
  5
6C64
331
6C93
  5
6C94
331
6C8A
  5
6C8B
331
6CB2
  5
6CB4
331
6CAB
  5
6CAD
331
6CF0
  5
6CF4
331
6CF8
  5
6CFC
331
6CBA
  5
6CBC
331
6D00
  5
6D06
331
6C9B
  5
6C9D
331
6CC2
  5
6CC5
331
6CA3
  5
6CA5
331
6CCA
  5
6CCE
331
6C6B
  5
6C6C
331
6C73
  5
6C74
331
6CD4
  5
6CD8
331
6CE4
  5
6CE8
331
6CDA
  5
6CDE
331
6C7B
  5
6C7C
331
6C5C
  5
6C5C
331
6C83
  5
6C84
331
6CE9
  5
6CED
331
6C64
  5
6C65
331
75D6
  5
7735
331
6C94
  5
6C96
331
6C8B
  5
6C8C
331
6CB3
  5
6CB5
331
6CAC
  5
6CAE
  0
SORTENTSTABLE
  5
6DE
102
{ACAD_REACTORS
330
4E8
102
}
330
4E8
100
AcDbSortentsTable
330
4E7
  0
SORTENTSTABLE
  5
931
102
{ACAD_REACTORS
330
930
102
}
330
930
100
AcDbSortentsTable
330
6ED
  0
XRECORD
  5
775A
102
{ACAD_REACTORS
330
7759
102
}
330
7759
100
AcDbXrecord
280
     1
 40
476.0
  1
検^J図
  0
XRECORD
  5
775C
102
{ACAD_REACTORS
330
775B
102
}
330
775B
100
AcDbXrecord
280
     1
 40
476.0
  1
検^J図
  0
XRECORD
  5
775E
102
{ACAD_REACTORS
330
775D
102
}
330
775D
100
AcDbXrecord
280
     1
 40
476.0
  1
検^J図
  0
DIMASSOC
  5
6D09
102
{ACAD_REACTORS
330
6D08
102
}
330
6D08
100
AcDbDimAssoc
330
6D07
 90
        2
 70
     0
 71
     0
  1
AcDbOsnapPointRef
 72
     3
331
6CF8
 73
     2
 91
        0
 40
0.0
 10
0.0
 20
0.0
 30
0.0
 75
     0
  0
XRECORD
  5
7761
102
{ACAD_REACTORS
330
7760
102
}
330
7760
100
AcDbXrecord
280
     1
102
SHADEPLOT
 70
     0
  0
XRECORD
  5
7763
102
{ACAD_REACTORS
330
7762
102
}
330
7762
100
AcDbXrecord
280
     1
102
SHADEPLOT
 70
     0
  0
LAYOUT
  5
76D3
102
{ACAD_XDICTIONARY
360
76D4
102
}
102
{ACAD_REACTORS
330
1A
102
}
330
1A
100
AcDbPlotSettings
  1

  2
Canon iR C3200 LIPS
  4
A4
  6

 40
5.873749732971191
 41
5.873747825622557
 42
5.873748779296875
 43
5.873748779296875
 44
209.9733276367186
 45
296.9259948730469
 46
-5.893494129188382
 47
-5.919814586649977
 48
0.0
 49
0.0
140
0.0
141
0.0
142
1.0
143
1.0
 70
   692
 72
     1
 73
     1
 74
     1
  7
monochrome.ctb
 75
    16
147
1.0
148
0.0090630292066862
149
0.0064082024693448
100
AcDbLayout
  1
A4横
 70
     1
 71
     1
 10
0.037002778146416
 20
0.0133361937478469
 11
296.9629976511933
 21
209.9866638304666
 12
0.0
 22
0.0
 32
0.0
 14
0.0
 24
0.0
 34
0.0
 15
297.0
 25
210.0
 35
0.0
146
0.0
 13
0.0
 23
0.0
 33
0.0
 16
1.0
 26
0.0
 36
0.0
 17
0.0
 27
1.0
 37
0.0
 76
     0
330
76D6
331
76D7
1001
ACAD_PSEXT
1000
Canon iR C3200 LIPS
1000
Canon iR C3200 LIPS
1000
IP_128.1.1.200
1000

1070
     0
  0
LAYOUT
  5
22
102
{ACAD_XDICTIONARY
360
7753
102
}
102
{ACAD_REACTORS
330
1A
102
}
330
1A
100
AcDbPlotSettings
  1

  2
none_device
  4
ISO_A4_(210.00_x_297.00_MM)
  6

 40
7.5
 41
20.0
 42
7.5
 43
20.0
 44
210.0
 45
297.0
 46
0.0
 47
73.36421725239617
 48
0.0
 49
0.0
140
0.0
141
0.0
142
1.0
143
2.869813509774056
 70
 11956
 72
     1
 73
     0
 74
     0
  7

 75
     0
147
0.3484546980471668
148
1.967705816488884
149
9.729414201041008
100
AcDbLayout
  1
Model
 70
     1
 71
     0
 10
0.0
 20
0.0
 11
12.0
 21
9.0
 12
0.0
 22
0.0
 32
0.0
 14
0.0
 24
0.0
 34
0.0
 15
0.0
 25
0.0
 35
0.0
146
0.0
 13
0.0
 23
0.0
 33
0.0
 16
1.0
 26
0.0
 36
0.0
 17
0.0
 27
1.0
 37
0.0
 76
     0
330
1F
331
1B5
1001
ACAD_PSEXT
1000
None
1000
None
1000
Not applicable
1000
The layout will not be plotted unless a new plotter configuration name is selected.
1070
     0
  0
MATERIAL
  5
1D1
102
{ACAD_XDICTIONARY
360
76AA
102
}
102
{ACAD_REACTORS
330
14C
102
}
330
14C
100
AcDbMaterial
  1
ByBlock
  0
MATERIAL
  5
1D0
102
{ACAD_XDICTIONARY
360
76A8
102
}
102
{ACAD_REACTORS
330
14C
102
}
330
14C
100
AcDbMaterial
  1
ByLayer
  0
MATERIAL
  5
1D2
102
{ACAD_XDICTIONARY
360
76AC
102
}
102
{ACAD_REACTORS
330
14C
102
}
330
14C
100
AcDbMaterial
  1
Global
  0
MLINESTYLE
  5
18
102
{ACAD_REACTORS
330
17
102
}
330
17
100
AcDbMlineStyle
  2
STANDARD
 70
     0
  3

 62
   256
 51
90.0
 52
90.0
 71
     2
 49
0.5
 62
   256
  6
BYLAYER
 49
-0.5
 62
   256
  6
BYLAYER
  0
PLOTSETTINGS
  5
11F
102
{ACAD_XDICTIONARY
360
7755
102
}
102
{ACAD_REACTORS
330
19
102
}
330
19
100
AcDbPlotSettings
  1
JIS A4 title block (portrait) - no output device
  2
None
  4
ISO_A4_(210.00_x_297.00_MM)
  6

 40
7.549999999999998
 41
20.05
 42
7.549999999999998
 43
20.05
 44
210.0
 45
297.0
 46
-7.559999999999997
 47
-20.06
 48
0.0
 49
0.0
140
0.0
141
0.0
142
1.0
143
1.0
 70
   692
 72
     1
 73
     0
 74
     1
  7

 75
    16
147
1.0
148
0.0128164049386896
149
0.0090630292066862
  0
ACDBPLACEHOLDER
  5
F
102
{ACAD_REACTORS
330
E
102
}
330
E
  0
TABLESTYLE
  5
17C
102
{ACAD_XDICTIONARY
360
7757
102
}
102
{ACAD_REACTORS
330
17B
102
}
330
17B
100
AcDbTableStyle
  3
Standard
 70
     0
 71
     0
 40
1.5
 41
1.5
280
     0
281
     0
  7
Standard
140
4.5
170
     2
 62
     0
 63
     7
283
     0
274
    -2
284
     1
 64
     0
275
    -2
285
     1
 65
     0
276
    -2
286
     1
 66
     0
277
    -2
287
     1
 67
     0
278
    -2
288
     1
 68
     0
279
    -2
289
     1
 69
     0
  7
Standard
140
6.0
170
     5
 62
     0
 63
     7
283
     0
274
    -2
284
     1
 64
     0
275
    -2
285
     1
 65
     0
276
    -2
286
     1
 66
     0
277
    -2
287
     1
 67
     0
278
    -2
288
     1
 68
     0
279
    -2
289
     1
 69
     0
  7
Standard
140
4.5
170
     5
 62
     0
 63
     7
283
     0
274
    -2
284
     1
 64
     0
275
    -2
285
     1
 65
     0
276
    -2
286
     1
 66
     0
277
    -2
287
     1
 67
     0
278
    -2
288
     1
 68
     0
279
    -2
289
     1
 69
     0
  0
VISUALSTYLE
  5
1D9
102
{ACAD_REACTORS
330
1D3
102
}
330
1D3
100
AcDbVisualStyle
  2
2dWireframe
 70
     4
 71
     0
 72
     2
 73
     1
 90
        0
 40
-0.6
 41
-30.0
 62
     5
 63
     7
 74
     1
 91
        4
 64
     7
 65
   257
 75
     1
175
     1
 42
1.0
 92
        0
 66
   257
 43
1.0
 76
     1
 77
     6
 78
     2
 67
     7
 79
     5
170
     0
171
     0
290
     0
174
     0
 93
        1
 44
0.0
173
     0
291
     0
 45
0.0
1001
ACAD
1000
AcDbSavedByObjectVersion
1070
     0
1000
AcDbSavedByObjectVersion
1070
     0
1000
AcDbSavedByObjectVersion
1070
     0
  0
VISUALSTYLE
  5
1DB
102
{ACAD_REACTORS
330
1D3
102
}
330
1D3
100
AcDbVisualStyle
  2
3D Hidden
 70
     6
 71
     1
 72
     2
 73
     2
 90
        0
 40
-0.6
 41
-30.0
 62
     5
 63
     7
 74
     2
 91
        2
 64
     7
 65
   257
 75
     2
175
     1
 42
40.0
 92
        0
 66
   257
 43
1.0
 76
     1
 77
     6
 78
     2
 67
     7
 79
     3
170
     0
171
     0
290
     0
174
     0
 93
        1
 44
0.0
173
     0
291
     0
 45
0.0
1001
ACAD
1000
AcDbSavedByObjectVersion
1070
     0
1000
AcDbSavedByObjectVersion
1070
     0
1000
AcDbSavedByObjectVersion
1070
     0
  0
VISUALSTYLE
  5
1DA
102
{ACAD_REACTORS
330
1D3
102
}
330
1D3
100
AcDbVisualStyle
  2
3dWireframe
 70
     5
 71
     0
 72
     2
 73
     1
 90
        0
 40
-0.6
 41
-30.0
 62
     5
 63
     7
 74
     1
 91
        4
 64
     7
 65
   257
 75
     1
175
     1
 42
1.0
 92
        0
 66
   257
 43
1.0
 76
     1
 77
     6
 78
     2
 67
     7
 79
     5
170
     0
171
     0
290
     0
174
     0
 93
        1
 44
0.0
173
     0
291
     0
 45
0.0
1001
ACAD
1000
AcDbSavedByObjectVersion
1070
     0
1000
AcDbSavedByObjectVersion
1070
     0
1000
AcDbSavedByObjectVersion
1070
     0
  0
VISUALSTYLE
  5
1D8
102
{ACAD_REACTORS
330
1D3
102
}
330
1D3
100
AcDbVisualStyle
  2
Basic
 70
     7
 71
     1
 72
     0
 73
     1
 90
        0
 40
-0.6
 41
-30.0
 62
     5
 63
     7
 74
     0
 91
        4
 64
     7
 65
   257
 75
     1
175
     1
 42
1.0
 92
        8
 66
     7
 43
1.0
 76
     1
 77
     6
 78
     2
 67
     7
 79
     5
170
     0
171
     0
290
     0
174
     0
 93
        1
 44
0.0
173
     0
291
     1
 45
0.0
1001
ACAD
1000
AcDbSavedByObjectVersion
1070
     0
1000
AcDbSavedByObjectVersion
1070
     0
1000
AcDbSavedByObjectVersion
1070
     0
  0
VISUALSTYLE
  5
1DF
102
{ACAD_REACTORS
330
1D3
102
}
330
1D3
100
AcDbVisualStyle
  2
Brighten
 70
    12
 71
     2
 72
     2
 73
     1
 90
        0
 40
-0.6
 41
-30.0
 62
     5
 63
     7
 74
     1
 91
        4
 64
     7
 65
   257
 75
     1
175
     1
 42
1.0
 92
        8
 66
     7
 43
1.0
 76
     1
 77
     6
 78
     2
 67
     7
 79
     5
170
     0
171
     0
290
     0
174
     0
 93
        1
 44
50.0
173
     0
291
     1
 45
0.0
1001
ACAD
1000
AcDbSavedByObjectVersion
1070
     0
1000
AcDbSavedByObjectVersion
1070
     0
1000
AcDbSavedByObjectVersion
1070
     0
  0
VISUALSTYLE
  5
1E3
102
{ACAD_REACTORS
330
1D3
102
}
330
1D3
100
AcDbVisualStyle
  2
ColorChange
 70
    16
 71
     2
 72
     2
 73
     3
 90
        0
 40
-0.6
 41
-30.0
 62
     5
 63
     8
 74
     1
 91
        4
 64
     7
 65
   257
 75
     1
175
     1
 42
1.0
 92
        8
 66
     8
 43
1.0
 76
     1
 77
     6
 78
     2
 67
     7
 79
     5
170
     0
171
     0
290
     0
174
     0
 93
        1
 44
0.0
173
     0
291
     1
 45
0.0
1001
ACAD
1000
AcDbSavedByObjectVersion
1070
     0
1000
AcDbSavedByObjectVersion
1070
     0
1000
AcDbSavedByObjectVersion
1070
     0
  0
VISUALSTYLE
  5
1DC
102
{ACAD_REACTORS
330
1D3
102
}
330
1D3
100
AcDbVisualStyle
  2
Conceptual
 70
     9
 71
     3
 72
     2
 73
     1
 90
        0
 40
-0.6
 41
-30.0
 62
     5
 63
     7
 74
     2
 91
        2
 64
     7
 65
   257
 75
     1
175
     1
 42
40.0
 92
        8
 66
     7
 43
1.0
 76
     1
 77
     6
 78
     2
 67
     7
 79
     3
170
     0
171
     0
290
     0
174
     0
 93
        1
 44
0.0
173
     0
291
     0
 45
0.0
1001
ACAD
1000
AcDbSavedByObjectVersion
1070
     0
1000
AcDbSavedByObjectVersion
1070
     0
1000
AcDbSavedByObjectVersion
1070
     0
  0
VISUALSTYLE
  5
1DE
102
{ACAD_REACTORS
330
1D3
102
}
330
1D3
100
AcDbVisualStyle
  2
Dim
 70
    11
 71
     2
 72
     2
 73
     1
 90
        0
 40
-0.6
 41
-30.0
 62
     5
 63
     7
 74
     1
 91
        4
 64
     7
 65
   257
 75
     1
175
     1
 42
1.0
 92
        8
 66
     7
 43
1.0
 76
     1
 77
     6
 78
     2
 67
     7
 79
     5
170
     0
171
     0
290
     0
174
     0
 93
        1
 44
-50.0
173
     0
291
     1
 45
0.0
1001
ACAD
1000
AcDbSavedByObjectVersion
1070
     0
1000
AcDbSavedByObjectVersion
1070
     0
1000
AcDbSavedByObjectVersion
1070
     0
  0
VISUALSTYLE
  5
1E2
102
{ACAD_REACTORS
330
1D3
102
}
330
1D3
100
AcDbVisualStyle
  2
Facepattern
 70
    15
 71
     2
 72
     2
 73
     1
 90
        0
 40
-0.6
 41
-30.0
 62
     5
 63
     7
 74
     1
 91
        4
 64
     7
 65
   257
 75
     1
175
     1
 42
1.0
 92
        8
 66
     7
 43
1.0
 76
     1
 77
     6
 78
     2
 67
     7
 79
     5
170
     0
171
     0
290
     0
174
     0
 93
        1
 44
0.0
173
     0
291
     1
 45
0.0
1001
ACAD
1000
AcDbSavedByObjectVersion
1070
     0
1000
AcDbSavedByObjectVersion
1070
     0
1000
AcDbSavedByObjectVersion
1070
     0
  0
VISUALSTYLE
  5
1D4
102
{ACAD_REACTORS
330
1D3
102
}
330
1D3
100
AcDbVisualStyle
  2
Flat
 70
     0
 71
     2
 72
     1
 73
     1
 90
        2
 40
-0.6
 41
30.0
 62
     5
 63
     7
 74
     0
 91
        4
 64
     7
 65
   257
 75
     1
175
     1
 42
1.0
 92
        8
 66
     7
 43
1.0
 76
     1
 77
     6
 78
     2
 67
     7
 79
     5
170
     0
171
     0
290
     0
174
     0
 93
       13
 44
0.0
173
     0
291
     1
 45
0.0
1001
ACAD
1000
AcDbSavedByObjectVersion
1070
     0
1000
AcDbSavedByObjectVersion
1070
     0
1000
AcDbSavedByObjectVersion
1070
     0
  0
VISUALSTYLE
  5
1D5
102
{ACAD_REACTORS
330
1D3
102
}
330
1D3
100
AcDbVisualStyle
  2
FlatWithEdges
 70
     1
 71
     2
 72
     1
 73
     1
 90
        2
 40
-0.6
 41
30.0
 62
     5
 63
     7
 74
     1
 91
        4
 64
     7
 65
   257
 75
     1
175
     1
 42
1.0
 92
        0
 66
   257
 43
1.0
 76
     1
 77
     6
 78
     2
 67
     7
 79
     5
170
     0
171
     0
290
     0
174
     0
 93
       13
 44
0.0
173
     0
291
     1
 45
0.0
1001
ACAD
1000
AcDbSavedByObjectVersion
1070
     0
1000
AcDbSavedByObjectVersion
1070
     0
1000
AcDbSavedByObjectVersion
1070
     0
  0
VISUALSTYLE
  5
1D6
102
{ACAD_REACTORS
330
1D3
102
}
330
1D3
100
AcDbVisualStyle
  2
Gouraud
 70
     2
 71
     2
 72
     2
 73
     1
 90
        2
 40
-0.6
 41
30.0
 62
     5
 63
     7
 74
     0
 91
        4
 64
     7
 65
   257
 75
     1
175
     1
 42
1.0
 92
        0
 66
     7
 43
1.0
 76
     1
 77
     6
 78
     2
 67
     7
 79
     5
170
     0
171
     0
290
     0
174
     0
 93
       13
 44
0.0
173
     0
291
     1
 45
0.0
1001
ACAD
1000
AcDbSavedByObjectVersion
1070
     0
1000
AcDbSavedByObjectVersion
1070
     0
1000
AcDbSavedByObjectVersion
1070
     0
  0
VISUALSTYLE
  5
1D7
102
{ACAD_REACTORS
330
1D3
102
}
330
1D3
100
AcDbVisualStyle
  2
GouraudWithEdges
 70
     3
 71
     2
 72
     2
 73
     1
 90
        2
 40
-0.6
 41
30.0
 62
     5
 63
     7
 74
     1
 91
        4
 64
     7
 65
   257
 75
     1
175
     1
 42
1.0
 92
        0
 66
   257
 43
1.0
 76
     1
 77
     6
 78
     2
 67
     7
 79
     5
170
     0
171
     0
290
     0
174
     0
 93
       13
 44
0.0
173
     0
291
     1
 45
0.0
1001
ACAD
1000
AcDbSavedByObjectVersion
1070
     0
1000
AcDbSavedByObjectVersion
1070
     0
1000
AcDbSavedByObjectVersion
1070
     0
  0
VISUALSTYLE
  5
1E1
102
{ACAD_REACTORS
330
1D3
102
}
330
1D3
100
AcDbVisualStyle
  2
Linepattern
 70
    14
 71
     2
 72
     2
 73
     1
 90
        0
 40
-0.6
 41
-30.0
 62
     5
 63
     7
 74
     1
 91
        4
 64
     7
 65
   257
 75
     7
175
     7
 42
1.0
 92
        8
 66
     7
 43
1.0
 76
     1
 77
     6
 78
     2
 67
     7
 79
     5
170
     0
171
     0
290
     0
174
     0
 93
        1
 44
0.0
173
     0
291
     1
 45
0.0
1001
ACAD
1000
AcDbSavedByObjectVersion
1070
     0
1000
AcDbSavedByObjectVersion
1070
     0
1000
AcDbSavedByObjectVersion
1070
     0
  0
VISUALSTYLE
  5
1DD
102
{ACAD_REACTORS
330
1D3
102
}
330
1D3
100
AcDbVisualStyle
  2
Realistic
 70
     8
 71
     2
 72
     2
 73
     1
 90
        0
 40
-0.6
 41
-30.0
 62
     5
 63
     7
 74
     1
 91
        0
 64
     7
 65
   257
 75
     1
175
     1
 42
1.0
 92
        8
 66
     8
 43
1.0
 76
     1
 77
     6
 78
     2
 67
     7
 79
     5
170
     0
171
     0
290
     0
174
     0
 93
       13
 44
0.0
173
     0
291
     0
 45
0.0
1001
ACAD
1000
AcDbSavedByObjectVersion
1070
     0
1000
AcDbSavedByObjectVersion
1070
     0
1000
AcDbSavedByObjectVersion
1070
     0
  0
VISUALSTYLE
  5
1E0
102
{ACAD_REACTORS
330
1D3
102
}
330
1D3
100
AcDbVisualStyle
  2
Thicken
 70
    13
 71
     2
 72
     2
 73
     1
 90
        0
 40
-0.6
 41
-30.0
 62
     5
 63
     7
 74
     1
 91
        4
 64
     7
 65
   257
 75
     1
175
     1
 42
1.0
 92
       12
 66
     7
 43
1.0
 76
     1
 77
     6
 78
     2
 67
     7
 79
     5
170
     0
171
     0
290
     0
174
     0
 93
        1
 44
0.0
173
     0
291
     1
 45
0.0
1001
ACAD
1000
AcDbSavedByObjectVersion
1070
     0
1000
AcDbSavedByObjectVersion
1070
     0
1000
AcDbSavedByObjectVersion
1070
     0
  0
DICTIONARYVAR
  5
190
102
{ACAD_REACTORS
330
148
102
}
330
148
100
DictionaryVariables
280
     0
  1
STANDARD
  0
DICTIONARYVAR
  5
14A
102
{ACAD_REACTORS
330
148
102
}
330
148
100
DictionaryVariables
280
     0
  1
2
  0
DICTIONARYVAR
  5
149
102
{ACAD_REACTORS
330
148
102
}
330
148
100
DictionaryVariables
280
     0
  1
1
  0
DICTIONARYVAR
  5
769B
102
{ACAD_REACTORS
330
148
102
}
330
148
100
DictionaryVariables
280
     0
  1
0
  0
DICTIONARYVAR
  5
773F
102
{ACAD_REACTORS
330
148
102
}
330
148
100
DictionaryVariables
280
     0
  1
80.000000
  0
DICTIONARYVAR
  5
773E
102
{ACAD_REACTORS
330
148
102
}
330
148
100
DictionaryVariables
280
     0
  1
5.000000
  0
DICTIONARYVAR
  5
769A
102
{ACAD_REACTORS
330
148
102
}
330
148
100
DictionaryVariables
280
     0
  1
127
  0
XRECORD
  5
6AC
102
{ACAD_REACTORS
330
18B
102
}
330
18B
100
AcDbXrecord
280
     1
 91
    33280
301

290
     0
302
Viewport
330
4CB
 90
        8
 62
     8
370
    25
331
16
  1
色_8
330
0
 90
        8
 62
     8
370
    18
331
16
  1
色_8
330
4CA
 90
        8
 62
     2
370
    18
331
16
  1
色_2
330
0
 90
        8
 62
     3
370
    -3
331
16
  1
色_3
330
0
 90
        8
 62
     3
370
    -3
331
16
  1
色_3
330
4C9
 90
        8
 62
     5
370
    18
331
4C4
  1
色_5
330
4C8
 90
        8
 62
     8
370
    50
331
16
  1
色_8
330
4C7
 90
        8
 62
     1
370
    18
331
4C3
  1
色_1
330
4C6
 90
        8
 62
     5
370
    18
331
291
  1
色_5
330
3DC
 90
        8
 62
     4
370
    -3
331
16
  1
色_4
330
345
 90
        0
 62
     6
370
    18
331
16
  1
色_6
330
4C5
 90
        8
 62
     3
370
    18
331
16
  1
色_3
330
3DB
 90
        0
 62
     7
370
    -3
331
16
  1
色_7
330
0
 90
        8
 62
     4
370
    -3
331
16
  1
色_4
330
0
 90
        8
 62
     5
370
    40
331
16
  1
色_5
330
12D
 90
        8
 62
     7
370
    -3
331
16
  1
色_7
330
12C
 90
        8
 62
     7
370
    -3
331
16
  1
色_7
330
E4
 90
        8
 62
     7
370
    25
331
16
  1
色_7
330
10
 90
        8
 62
     7
370
    -3
331
16
  1
色_7
  0
DICTIONARY
  5
76D4
330
76D3
100
AcDbDictionary
280
     1
281
     1
  3
ACAD_XREC_ROUNDTRIP
360
775F
  3
ADSK_XREC_LAYOUTTHUMBNAIL
360
76D5
  0
DICTIONARY
  5
7753
330
22
100
AcDbDictionary
280
     1
281
     1
  3
ACAD_XREC_ROUNDTRIP
360
7754
  0
DICTIONARY
  5
76AA
330
1D1
100
AcDbDictionary
280
     1
281
     1
  3
ACAD_XREC_ROUNDTRIP
360
76AB
  0
DICTIONARY
  5
76A8
330
1D0
100
AcDbDictionary
280
     1
281
     1
  3
ACAD_XREC_ROUNDTRIP
360
76A9
  0
DICTIONARY
  5
76AC
330
1D2
100
AcDbDictionary
280
     1
281
     1
  3
ACAD_XREC_ROUNDTRIP
360
76AD
  0
DICTIONARY
  5
7755
330
11F
100
AcDbDictionary
280
     1
281
     1
  3
ACAD_XREC_ROUNDTRIP
360
7756
  0
DICTIONARY
  5
7757
330
17C
100
AcDbDictionary
280
     1
281
     1
  3
ACAD_XREC_ROUNDTRIP
360
7758
  0
XRECORD
  5
775F
102
{ACAD_REACTORS
330
76D4
102
}
330
76D4
100
AcDbXrecord
280
     1
102
SHADEPLOT
 70
     0
102
SHADEPLOTRESLEVEL
 70
     2
102
SHADEPLOTCUSTOMDPI
 70
   300
  0
XRECORD
  5
76D5
102
{ACAD_REACTORS
330
76D4
102
}
330
76D4
100
AcDbXrecord
280
     1
310
28000000B40000007F00000001000800000000004C59000000000000000000000001000000000000FFFFFF0000000000FFFFFF000000000000000000000000000000000000000000000000000000000000000000330000006600000099000000CC000000FF00000000330000333300006633000099330000CC330000FF3300
310
0000660000336600006666000099660000CC660000FF66000000990000339900006699000099990000CC990000FF99000000CC000033CC000066CC000099CC0000CCCC0000FFCC000000FF000033FF000066FF000099FF0000CCFF0000FFFF000000003300330033006600330099003300CC003300FF003300003333003333
310
33006633330099333300CC333300FF33330000663300336633006666330099663300CC663300FF66330000993300339933006699330099993300CC993300FF99330000CC330033CC330066CC330099CC3300CCCC3300FFCC330000FF330033FF330066FF330099FF3300CCFF3300FFFF330000006600330066006600660099
310
006600CC006600FF00660000336600333366006633660099336600CC336600FF33660000666600336666006666660099666600CC666600FF66660000996600339966006699660099996600CC996600FF99660000CC660033CC660066CC660099CC6600CCCC6600FFCC660000FF660033FF660066FF660099FF6600CCFF6600
310
FFFF660000009900330099006600990099009900CC009900FF00990000339900333399006633990099339900CC339900FF33990000669900336699006666990099669900CC669900FF66990000999900339999006699990099999900CC999900FF99990000CC990033CC990066CC990099CC9900CCCC9900FFCC990000FF99
310
0033FF990066FF990099FF9900CCFF9900FFFF99000000CC003300CC006600CC009900CC00CC00CC00FF00CC000033CC003333CC006633CC009933CC00CC33CC00FF33CC000066CC003366CC006666CC009966CC00CC66CC00FF66CC000099CC003399CC006699CC009999CC00CC99CC00FF99CC0000CCCC0033CCCC0066CC
310
CC0099CCCC00CCCCCC00FFCCCC0000FFCC0033FFCC0066FFCC0099FFCC00CCFFCC00FFFFCC000000FF003300FF006600FF009900FF00CC00FF00FF00FF000033FF003333FF006633FF009933FF00CC33FF00FF33FF000066FF003366FF006666FF009966FF00CC66FF00FF66FF000099FF003399FF006699FF009999FF00CC
310
99FF00FF99FF0000CCFF0033CCFF0066CCFF0099CCFF00CCCCFF00FFCCFF0000FFFF0033FFFF0066FFFF0099FFFF00CCFFFF00FFFFFF00000000000D0D0D001A1A1A00282828003535350043434300505050005D5D5D006B6B6B00787878008686860093939300A1A1A100AEAEAE00BBBBBB00C9C9C900D6D6D600E4E4E400
310
F1F1F100FFFFFF0000000000000000000000000000000000000000000000000000000000000000000000000000000000EFE2E2E2E2E2E2E2E2E2E2E2E2E2E2E2E2E2E2E2E2E2E2E2E2E2E2E2E2E2E2E2E2E2E2E2E2E2E2E2E2E2E2E2E2E2E2E2E2E2E2E2E2E2E2E2E2E2E2E2E2E2E2E2E2E2E2E2E2E2E2E2E2E2E2E2E2E2E2
310
E2E2E2E2E2E2E2E2E2E2E2E2E2E2E2E2E2E2E2E2E2E2E2E2E2E2E2E2E2E2E2E2E2E2E2E2E2E2E2E2E2E2E2E2E2E2E2E2E2E2E2E2E2E2E2E2E2E2E2E2E2E2E2E2E2E2E2E2E2E2E2E2E2E2E2E2E2E2E2E2E2E2E2E2E2E2E2E2E2E2E2E2E2E2E2E2E2E2E2E2E2EFE2F5F5F5F5F5F5F5F5F5F5F5F5F5F5F5F5F5F5F5F5F5F5F5F5
310
F5F5F5F5F5F5F5F5F5F5F5F5F5F5F5F5F5F5F5F5F5F5F5F5F5F5F5F5F5F5F5F5F5F5F5F5F5F5F5F5F5F5F5F5F5F5F5F5F5F5F5F5F5F5F5F5F5F5F5F5F5F5F5F5F5F5F5F5F5F5F5F5F5F5F5F5F5F5F5F5F5F5F5F5F5F5F5F5F5F5F5F5F5F5F5F5F5F5F5F5F5F5F5F5F5F5F5F5F5F5F5F5F5F5F5F5F5F5F5F5F5F5F5F5F5F5F5
310
F5F5F5F5F5F5F5F5F5F5F5F5F5F5F5F5F5F5F5F5F5F5F5F5F5E2E2EFE2F5F5F5F5F5F5F5F5F5F5F5F5F5F5F5F5F5F5F5F5F5F5F5F5F5F5F5F5F5F5F5F5F5F5F5F5F5F5F5F5F5F5F5F5F5F5F5F5F5F5F5F5F5F5F5F5F5F5F5F5F5F5F5F5F5F5F5F5F5F5F5F5F5F5F5F5F5F5F5F5F5F5F5F5F5F5F5F5F5F5F5F5F5F5F5F5F5F5
310
F5F5F5F5F5F5F5F5F5F5F5F5F5F5F5F5F5F5F5F5F5F5F5F5F5F5F5F5F5F5F5F5F5F5F5F5F5F5F5F5F5F5F5F5F5F5F5F5F5F5F5F5F5F5F5F5F5F5F5F5F5F5F5F5F5F5F5F5F5F5F5F5F5F5F5F5F5F5E2E2EFE2F5F5F5F5F5F5F5F5F5F5F5F5F5F5F5F5F5F5F5F5F5F5F5F5F5F5F5F5F5F5F5F5F5F5F5F5F5F5F5F5F5F5F5F5F5
310
F5F5F5F5F5F5F5F5F5F5F5F5F5F5F5F5F5F5F5F5F5F5F5F5F5F5F5F5F5F5F5F5F5F5F5F5F5F5F5F5F5F5E2F5F5F5F5F5F5F5F5F5F5F5F5F5F5F5F5F5F5F5F5F5F5F5F5F5F5F5F5F5F5F5F5F5F5F5F5F5F5F5F5F5F5F5F5F5F5F5F5F5F5F5F5F5F5F5F5F5F5F5F5F5F5F5F5F5F5F5F5F5F5F5F5F5F5F5F5F5F5F5F5F5F5F5F5
310
F5F5F5F5E2E2EFE2F5F5E2E2E2E2E2E2E2E2E2E2E2E2E2E2E2E2E2E2E2E2E2E2E2E2E2E2E2E2E2E2E2E2E2E2E2E2E2E2E2E2E2E2E2E2E2E2E2E2E2E2E2E2E2E2E2E2E2E2E2E2E2E2E2E2E2E2E2E2E2E2E2E2E2E2E2E2E2E2E2E2E2E2E2E2E2E2E2E2E2E2E2E2E2E2E2E2E2E2E2E2E2E2E2E2E2E2E2E2E2E2E2E2E2E2E2E2E2
310
E2E2E2E2E2E2E2E2E2E2E2E2E2E2E2E2E2E2E2E2E2E2E2E2E2E2E2E2E2E2E2E2E2E2E2E2E2E2E2E2E2E2E2E2E2E2E2E2E2E2E2E2E2E2E2F5F5E2E2EFE2F5F5E2F5F5F5E2F5F5F5F5F5F5F5F5F5F5F5F5F5F5F5F5F5F5F5F5F5F5F5F5F5F5F5F5F5F5F5F5F5F5F5F5F5F5F5F5F5F5F5F5F5F5F5F5F5F5F5F5F5F5F5F5F5F5F5
310
F5F5F5F5F5F5F5F5F5F5F5F5F5F5F5F5F5F5F5F5F5F5F5F5F5F5F5F5F5F5F5F5F5E2F5F5E2E2E2E2E2E2E2E2E2E2E2E2E2E2E2E2E2E2E2E2E2E2E2E2E2F5F5E2F5F5F5F5F5F5F5F5F5F5F5F5F5F5F5F5F5F5F5F5F5F5F5F5F5F5F5F5F5F5F5F5F5F5F5F5F5F5F5E2F5F5F5E2F5F5E2E2EFE2F5F5E2F5F5F5E2F5F5F5F5F5F5
310
F5F5F5F5F5F5F5F5F5F5F5F5F5F5F5F5F5F5F5F5F5F5F5F5F5F5F5F5F5F5F5F5F5F5F5F5F5F5F5F5F5F5F5F5F5F5F5F5F5F5F5F5F5F5F5F5F5F5F5F5F5F5F5F5F5F5F5F5F5F5F5F5F5F5F5F5F5F5F5F5F5F5F5F5F5F5E2F5F5E2E2E2E2E2E2E2E2E2E2E2E2E2E2E2E2E2E2E2E2E2E2E2E2E2F5F5E2F5F5F5F5F5F5F5F5F5F5
310
F5F5F5F5F5F5F5F5F5F5F5F5F5F5F5F5F5F5F5F5F5F5F5F5F5F5F5F5F5E2F5F5F5E2F5F5E2E2EFE2F5F5E2F5F5F5E2F5F5F5F5F5F5F5F5F5F5F5F5F5F5F5F5F5F5F5F5F5F5F5F5F5F5F5F5F5F5F5F5F5F5F5F5F5F5F5F5F5F5F5F5F5F5F5F5F5F5F5F5F5F5F5F5F5F5F5F5F5F5F5F5F5F5F5F5F5F5F5F5F5F5F5F5F5F5F5F5
310
F5F5F5F5F5F5F5F5F5F5F5F5E2F5F5E2E2E2E2E2E2E2E2E2E2E2E2E2E2E2E2E2E2E2E2E2E2E2E2E2F5F5E2F5F5F5F5F5F5F5F5F5F5F5F5F5F5F5F5F5F5F5F5F5F5F5F5F5F5F5F5F5F5F5F5F5F5F5F5F5F5F5E2F5F5F5E2F5F5E2E2EFE2F5F5E2F5F5F5E2F5F5F5F5F5F5F5F5F5F5F5F5F5F5F5F5F5F5F5F5F5F5F5F5F5F5F5
310
F5F5F5F5F5F5F5F5F5F5F5F5F5F5F5F5F5F5F5F5F5F5F5F5F5F5F5F5F5F5F5F5F5F5F5F5F5F5F5F5F5F5F5F5F5F5F5F5F5F5F5F5F5F5F5F5F5F5F5F5F5F5F5F5F5E2F5F5E2E2E2E2E2E2E2E2E2E2E2E2E2E2E2E2E2E2E2E2E2E2E2E2E2F5F5E2F5F5F5F5F5F5F5F5F5F5F5F5F5F5F5F5F5F5F5F5F5F5F5F5F5F5F5F5F5F5F5
310
F5F5F5F5F5F5F5F5E2F5F5F5E2F5F5E2E2EFE2F5F5E2F5F5F5E2F5F5F5F5F5F5F5F5F5F5F5F5F5F5F5F5F5F5F5F5F5F5F5F5F5F5F5F5F5F5F5F5F5F5F5F5F5F5F5F5F5F5F5F5F5F5F5F5F5F5F5F5F5F5F5F5F5F5F5F5F5F5F5F5F5F5F5F5F5F5F5F5F5F5F5F5F5F5F5F5F5F5F5F5F5F5F5F5F5F5F5F5E2F5F5F5F5F5F5F5F5
310
F5F5F5F5F5F5F5F5F5F5F5F5F5F5F5F5F5F5F5F5F5E2F5F5F5F5F5F5F5F5F5F5F5F5F5F5F5F5F5F5F5F5F5F5F5F5F5F5F5F5F5F5F5F5F5F5F5F5F5F5F5E2F5F5F5E2F5F5E2E2EFE2F5F5E2F5F5F5E2F5F5F5F5F5F5F5F5F5F5F5F5F5F5F5F5F5F5F5F5F5F5F5F5F5F5F5F5F5F5F5F5F5F5F5F5F5F5F5F5F5F5F5F5F5F5F5F5
310
F5F5F5F5F5F5F5F5F5F5F5F5F5F5F5F5F5F5F5F5F5F5F5F5F5F5F5F5F5F5F5F5F5F5F5F5F5F5F5F5F5F5F5F5E2E2E2E2E2E2E2E2E2E2E2E2E2E2E2E2E2E2E2E2E2E2E2E2E2E2E2E2E2E2E2E2E2E2E2E2E2E2E2E2E2E2E2E2E2E2E2E2E2E2E2E2E2E2E2E2E2E2E2E2E2E2E2E2E2E2E2E2E2E2E2F5F5F5E2F5F5E2E2EFE2F5F5
310
E2F5F5F5E2F5F5F5F5F5F5F5F5F5F5F5F5F5F5F5F5F5F5F5F5F5F5F5F5F5F5F5F5F5F5F5F5F5F5F5F5F5F5F5F5F5F5F5F5F5F5F5F5F5F5F5F5F5F5F5F5F5F5F5F5F5F5F5F5F5F5F5F5F5F5F5F5F5F5F5F5F5F5F5F5F5F5F5F5F5F5F5F5F5F5F5F5E2F5F5F5F5F5F5F5F5F5F5F5F5F5F5F5F5F5F5F5F5F5F5F5F5F5F5F5F5F5
310
F5F5F5F5F5F5F5F5F5F5F5F5F5F5F5F5F5F5F5F5F5F5F5F5F5F5F5F5F5F5F5F5F5F5F5F5F5F5F5F5E2F5F5F5E2F5F5E2E2EFE2F5F5F5F5F5F5E2F5F5F5F5F5F5F5F5F5F5F5F5F5F5F5F5F5F5F5F5F5F5F5F5F5F5F5F5F5F5F5F5F5F5F5F5F5F5F5F5F5F5F5F5F5F5F5F5F5F5F5F5F5F5F5F5F5F5F5F5F5F5F5F5F5F5F5F5F5
310
F5F5F5F5F5F5F5F5F5F5F5F5F5F5F5F5F5F5F5F5F5F5F5E2F5F5F5F5F5F5F5E2E2E2E2E2E2E2E2E2E2E2E2E2E2E2E2E2E2E2E2E2E2E2E2E2E2E2E2E2E2E2E2E2E2E2E2E2E2E2E2E2E2E2E2E2E2E2E2E2E2E2E2E2F5F5F5F5F5F5F5F5F5E2F5F5F5F5F5F5E2E2EFE2F5F5F5F5F5F5E2F5F5F5F5F5F5F5F5F5F5F5F5F5F5F5F5
310
F5F5F5F5F5F5F5F5F5F5F5F5F5F5F5F5F5F5F5F5F5F5F5F5F5F5F5F5F5F5F5F5F5F5F5F5F5F5F5F5F5F5F5F5F5F5F5F5F5F5F5F5F5F5F5F5F5F5F5F5F5F5F5F5F5F5F5F5F5F5F5F5F5F5F5F5E2F5F5F5F5F5F5F5E2E2E2E2E2E2E2E2E2E2E2E2E2E2E2E2E2E2E2E2E2E2E2E2E2E2E2E2E2E2E2E2E2E2E2E2E2E2E2E2E2E2E2
310
E2E2E2E2E2E2E2E2E2E2F5F5F5F5F5F5F5F5F5E2F5F5F5F5F5F5E2E2EFE2F5F5F5F5F5F5E2F5F5F5F5F5F5F5F5F5F5F5F5F5F5F5F5F5F5F5F5F5F5F5F5F5F5F5F5F5F5F5F5F5F5F5F5F5F5F5F5F5F5F5F5F5F5F5F5F5F5F5F5F5F5F5F5F5F5F5F5F5F5F5F5F5F5F5F5F5F5F5F5F5F5F5F5F5F5F5F5F5F5F5F5F5F5F5F5F5F5
310
F5F5E2F5F5F5F5F5F5F5E2E2E2E2E2E2E2E2E2E2E2E2E2E2E2E2E2E2E2E2E2E2E2E2E2E2E2E2E2E2E2E2E2E2E2E2E2E2E2E2E2E2E2E2E2E2E2E2E2E2E2E2E2F5F5F5F5F5F5F5F5F5E2F5F5F5F5F5F5E2E2EFE2F5F5F5F5F5F5E2F5F5F5F5F5F5F5F5F5F5F5F5F5F5F5F5F5F5F5F5F5F5F5F5F5F5F5F5F5F5F5F5F5F5F5F5F5
310
F5F5F5F5F5F5F5F5F5F5F5F5F5F5F5F5F5F5F5F5F5F5F5F5F5F5F5F5F5F5F5F5F5F5F5F5F5F5F5F5F5F5F5F5F5F5F5F5F5F5F5F5F5F5F5E2F5F5F5F5F5F5F5E2E2E2E2E2E2E2E2E2E2E2E2E2E2E2E2E2E2E2E2E2E2E2E2E2E2E2E2E2E2E2E2E2E2E2E2E2E2E2E2E2E2E2E2E2E2E2E2E2E2E2E2E2F5F5F5F5F5F5F5F5F5E2F5
310
F5F5F5F5F5E2E2EFE2F5F5F5F5F5F5E2F5F5F5F5F5F5F5F5F5F5F5F5F5F5F5F5F5F5F5F5F5F5F5F5F5F5F5F5F5F5F5F5F5F5F5F5F5F5F5F5F5F5F5F5F5F5F5F5F5F5F5F5F5F5F5F5F5F5F5F5F5F5F5F5F5F5F5F5F5F5F5F5F5F5F5F5F5F5F5F5F5F5F5F5F5F5F5F5F5F5F5F5E2F5F5F5F5F5F5F5F5F5F5F5F5F5F5F5F5F5F5
310
F5F5F5F5F5F5F5F5F5F5F5F5F5F5F5F5F5F5F5F5F5F5F5F5F5F5F5F5F5F5F5F5F5F5F5F5F5F5F5F5F5F5F5F5F5F5F5F5F5F5F5E2F5F5F5F5F5F5E2E2EFE2F5F5F5F5F5F5E2F5F5F5F5F5F5F5F5F5F5F5F5F5F5F5F5F5F5F5F5F5F5F5F5F5F5F5F5F5F5F5F5F5F5F5F5F5F5F5F5F5F5F5F5F5F5F5F5F5F5F5F5F5F5F5F5F5F5
310
F5F5F5F5F5F5F5F5F5F5F5F5F5F5F5F5F5F5F5F5F5F5F5F5F5F5F5F5F5F5F5F5F5F5E2F5F5F5F5F5F5F5F5F5F5F5F5F5F5F5F5F5F5F5F5F5F5F5F5F5F5F5F5F5F5F5F5F5F5F5F5F5F5F5F5F5F5F5F5F5F5F5F5F5F5F5F5F5F5F5F5F5F5F5F5F5F5F5F5F5F5F5F5F5E2F5F5F5F5F5F5E2E2EFE2F5F5F5F5F5F5E2F5F5F5F5F5
310
F5F5F5F5F5F5F5F5F5F5F5F5F5F5F5F5F5F5F5F5F5F5F5F5F5F5F5F5F5F5F5F5F5F5F5F5F5F5F5F5F5F5F5F5F5F5F5F5F5F5F5F5F5F5F5F5F5F5F5F5F5F5F5F5F5F5F5F5F5F5F5F5F5F5F5F5F5F5F5F5F5F5F5F5F5F5F5E2E2E2E2E2E2E2E2E2E2E2E2E2E2E2E2E2E2E2E2E2E2E2E2E2E2E2E2E2E2E2E2E2E2E2E2E2E2E2E2
310
E2E2E2E2E2E2E2E2E2E2E2E2E2E2E2E2E2E2E2E2E2E2E2E2E2E2E2E2E2E2E2F5F5F5F5F5F5E2E2EFE2F5F5F5F5F5F5E2F5F5F5F5F5F5F5F5F5F5F5F5F5F5F5F5F5F5F5F5F5F5F5F5F5F5F5F5F5F5F5F5F5F5F5F5F5F5F5F5F5F5F5F5F5F5F5F5F5F5F5F5F5F5F5F5F5F5F5F5F5F5F5F5F5F5F5F5F5F5F5F5F5F5F5F5F5F5F5
310
F5F5F5F5F5F5F5F5F5F5F5F5F5E2F5F5F5F5F5F5F5F5F5F5F5F5F5F5F5F5F5F5F5F5F5F5F5F5F5F5F5F5F5F5F5F5F5F5F5F5F5F5F5F5F5F5F5F5F5F5F5F5F5F5F5F5F5F5F5F5F5F5F5F5F5F5F5F5F5F5F5F5F5E2F5F5F5F5F5F5E2E2EFE2F5F5F5F5F5F5E2F5F5F5F5F5F5F5F5F5F5F5F5F5F5F5F5F5F5F5F5F5F5F5F5F5F5
310
F5F5F5F5F5F5F5F5F5F5F5F5F5F5F5F5F5F5F5F5F5F5F5F5F5F5F5F5F5F5F5F5F5F5F5F5F5F5F5F5F5F5F5F5F5F5F5F5F5F5F5F5F5F5F5F5F5F5F5F5F5F5F5F5F5F5E2E2E2E2E2E2E2E2E2E2E2E2E2E2E2E2E2E2E2E2E2E2E2E2E2E2E2E2E2E2E2E2E2E2E2E2E2E2E2E2E2E2E2E2E2E2E2E2E2E2E2E2E2E2E2E2E2E2E2E2E2
310
E2E2E2E2E2E2E2E2E2E2F5F5F5F5F5F5E2E2EFE2F5F5E2F5F5F5E2F5F5F5F5F5F5F5F5F5F5F5F5F5F5F5F5F5F5F5F5F5F5F5F5F5F5F5F5F5F5F5F5F5F5F5F5F5F5F5F5F5F5F5F5F5F5F5F5F5F5F5F5F5F5F5F5F5F5F5F5F5F5F5F5F5F5F5F5F5F5F5F5F5F5F5F5F5F5F5F5F5F5F5F5F5F5F5F5F5F5F5F5F5F5F5F5F5F5F5F5
310
F5F5F5F5F5F5F5F5F5F5F5F5F5F5F5F5F5F5F5F5F5F5F5F5F5F5F5F5F5F5F5F5F5F5F5F5F5F5F5F5F5F5F5F5F5F5F5F5F5F5F5F5F5F5F5F5F5F5F5F5F5F5E2F5F5F5E2F5F5E2E2EFE2F5F5E2F5F5F5E2F5F5F5F5F5F5F5F5F5F5F5F5F5F5F5F5F5F5F5F5F5F5F5F5F5F5F5F5F5F5F5F5F5F5F5F5F5F5F5F5F5F5F5F5F5F5F5
310
F5F5F5F5F5F5F5F5F5F5F5F5F5F5F5F5F5F5F5F5F5F5F5F5F5F5F5F5F5F5F5F5F5F5F5F5F5F5F5F5F5F5F5F5F5F5F5F5F5F5F5F5F5F5F5F5F5F5F5F5F5F5F5F5F5F5F5F5F5F5F5F5F5F5F5F5F5F5F5F5F5F5F5F5F5F5F5F5F5F5F5F5F5F5F5F5F5F5F5F5F5F5F5F5F5F5F5F5F5F5F5F5F5F5F5E2F5F5F5E2F5F5E2E2EFE2F5
310
F5E2F5F5F5E2F5F5F5F5F5F5F5F5F5F5F5F5F5F5F5F5F5F5F5F5F5F5F5F5F5F5F5F5F5F5F5F5F5F5F5F5F5F5F5F5F5F5F5F5F5F5F5F5F5F5F5F5F5F5F5F5F5F5F5F5F5F5F5F5F5F5F5F5F5F5F5F5F5F5F5F5F5F5F5F5F5F5F5F5F5F5F5F5F5F5F5F5F5F5F5F5F5F5F5F5F5F5F5F5F5F5F5F5F5F5F5F5F5F5F5F5F5F5F5F5F5
310
F5F5F5F5F5F5F5F5F5F5F5F5F5F5F5F5F5F5F5F5F5F5F5F5F5F5F5F5F5F5F5F5F5F5F5F5F5F5F5F5F5E2F5F5F5E2F5F5E2E2EFE2F5F5E2F5F5F5E2F5F5F5F5F5F5F5F5F5F5F5F5F5F5F5F5F5F5F5F5F5F5F5F5F5F5F5F5F5F5F5F5F5F5F5F5F5F5F5F5F5F5F5F5F5F5F5F5F5F5F5F5F5F5F5F5F5F5F5F5F5F5F5F5F5F5F5F5
310
F5F5F5F5F5F5F5F5F5F5F5F5F5F5F5F5F5F5F5F5F5F5F5F5F5F5F5F5F5F5F5F5F5F5F5F5F5F5F5F5F5F5F5F5F5F5F5F5F5F5F5F5F5F5F5F5F5F5F5F5F5F5F5F5F5F5F5F5F5F5F5F5F5F5F5F5F5F5F5F5F5F5F5F5F5F5F5F5F5F5F5F5F5F5E2F5F5F5E2F5F5E2E2EFE2F5F5E2F5F5F5E2F5F5F5F5F5F5F5F5F5F5F5F5F5F5F5
310
F5F5F5F5F5F5F5F5F5F5F5F5F5F5F5F5F5F5F5F5F5F5F5F5F5F5F5F5F5F5F5F5F5F5F5F5F5F5F5F5F5F5F5F5F5F5F5F5F5F5F5F5F5F5F5F5F5F5F5F5F5F5F5F5F5F5F5F5F5F5F5F5F5F5F5F5F5F5F5F5F5F5F5F5F5F5F5F5F5F5F5F5F5F5F5F5F5F5F5F5F5F5F5F5F5F5F5F5F5F5F5F5F5F5F5F5F5F5F5F5F5F5F5F5F5F5F5
310
F5F5F5F5F5F5F5F5F5F5F5F5F5F5F5F5F5F5F5F5E2F5F5F5E2F5F5E2E2EFE2F5F5E2F5F5F5E2F5F5F5F5F5F5F5F5F5F5F5F5F5F5F5F5F5F5F5F5F5F5F5F5F5F5F5F5F5F5F5F5F5F5F5F5F5F5F5F5F5F5F5F5F5F5F5F5F5F5F5F5F5F5F5F5F5F5F5F5F5F5F5F5F5F5F5F5F5F5F5F5F5F5F5F5F5F5F5F5F5F5F5F5F5F5F5F5F5
310
F5F5F5F5F5F5F5F5F5F5F5F5F5F5F5F5F5F5F5F5F5F5F5F5F5F5F5F5F5F5F5F5F5F5F5F5F5F5F5F5F5F5F5F5F5F5F5F5F5F5F5F5F5F5F5F5F5F5F5F5F5F5F5F5F5F5F5F5F5F5F5F5F5E2F5F5F5E2F5F5E2E2EFE2F5F5E2F5F5F5E2F5F5F5F5F5F5F5F5F5F5F5F5F5F5F5F5F5F5F5F5F5F5F5F5F5F5F5F5F5F5F5F5F5F5F5F5
310
F5F5F5F5F5F5F5F5F5F5F5F5F5F5F5F5F5F5F5F5F5F5F5F5F5F5F5F5F5F5F5F5F5F5F5F5F5F5F5F5F5F5F5F5F5F5F5F5F5F5F5F5F5F5F5F5F5F5F5F5F5F5F5F5F5F5F5F5F5F5F5F5F5F5F5F5F5F5F5F5F5F5F5F5F5F5F5F5F5F5F5F5F5F5F5F5F5F5F5F5F5F5F5F5F5F5F5F5F5F5F5F5F5F5F5F5F5F5F5F5F5F5F5F5F5F5E2
310
F5F5F5E2F5F5E2E2EFE2F5F5E2F5F5F5E2F5F5F5F5F5F5F5F5F5F5F5F5F5F5F5F5F5F5F5F5F5F5F5F5F5F5F5F5F5F5F5F5F5F5F5F5F5F5F5F5F5F5F5F5F5F5F5F5F5F5F5F5F5F5F5F5F5F5F5F5F5F5F5F5F5F5F5F5F5F5F5F5F5F5F5F5F5F5F5F5F5F5F5F5F5F5F5F5F5F5F5F5F5F5F5F5F5F5F5F5F5F5F5F5F5F5F5F5F5F5
310
F5F5F5F5F5F5F5F5F5F5F5F5F5F5F5F5F5F5F5F5F5F5F5F5F5F5F5F5F5F5F5F5F5F5F5F5F5F5F5F5F5F5F5F5F5F5F5F5F5F5F5F5E2F5F5F5E2F5F5E2E2EFE2F5F5E2F5F5F5E2F5F5F5F5F5F5F5F5F5F5F5F5F5F5F5F5F5F5F5F5F5F5F5F5F5F5F5F5F5F5F5F5F5F5F5F5F5F5F5F5F5F5F5F5F5F5F5F5F5F5F5F5F5F5F5F5F5
310
F5F5F5F5F5F5F5F5F5F5F5F5F5F5F5F5F5F5F5F5F5F5F5F5F5F5F5F5F5F5F5F5F5F5F5F5F5F5F5F5F5F5F5F5F5F5F5F5F5F5F5F5F5F5F5F5F5F5F5F5F5F5F5F5F5F5F5F5F5F5F5F5F5F5F5F5F5F5F5F5F5F5F5F5F5F5F5F5F5F5F5F5F5F5F5F5F5F5F5F5F5F5F5F5F5E2F5F5F5E2F5F5E2E2EFE2F5F5E2F5F5F5E2F5F5F5F5
310
F5F5F5F5F5F5F5F5F5F5F5F5F5F5F5F5F5F5F5F5F5F5F5F5F5F5F5F5F5F5F5F5F5F5F5F5F5F5F5F5F5F5F5F5F5F5F5F5F5F5F5F5F5F5F5F5F5E2F5F5E2E2F5E2F5E2F5F5E2E2E2F5F5E2F5F5F5F5F5F5F5F5F5F5F5F5F5F5F5F5F5F5F5F5F5F5F5F5F5F5F5F5F5F5F5F5F5F5F5F5F5F5F5F5F5F5F5F5F5F5F5F5F5F5F5F5E2
310
E2F5E2E2E2F5E2F5F5E2F5E2E2F5F5E2F5F5F5F5F5F5F5F5F5F5F5F5F5F5F5E2F5F5F5E2F5F5E2E2EFE2F5F5E2F5F5F5E2F5F5F5F5F5F5F5F5F5E2E2E2E2E2E2F5E2E2E2E2E2E2E2E2E2E2F5E2E2E2E2E2E2E2E2E2E2E2E2E2E2E2E2F5E2E2E2E2E2E2E2F5F5F5F5F5F5F5E2E2F5E2E2E2E2F5F5F5E2E2E2E2F5E2E2F5E2E2
310
F5F5F5F5F5F5F5F5F5F5F5F5F5F5F5F5F5F5F5F5F5F5F5F5F5F5F5F5F5F5F5F5F5F5F5F5F5F5F5F5F5E2F5F5F5F5F5F5F5E2E2E2E2E2E2E2F5F5E2E2E2E2F5F5E2E2F5E2E2F5F5F5F5F5F5F5F5F5F5F5F5F5F5F5E2F5F5F5E2F5F5E2E2EFE2F5F5E2F5F5F5E2F5F5F5F5F5F5F5F5F5F5E2F5F5F5F5F5F5F5F5F5F5E2F5F5F5
310
F5F5F5F5F5F5F5F5F5F5F5F5F5F5F5F5F5F5F5F5F5F5F5E2F5E2F5F5F5F5F5F5F5E2F5E2E2E2E2E2F5F5E2E2E2E2E2E2E2E2F5E2E2F5E2F5F5F5F5F5F5F5F5F5F5F5F5F5F5F5F5F5F5F5F5F5F5F5F5F5F5F5F5F5F5F5F5F5F5F5F5F5F5E2F5E2F5F5F5F5F5F5E2F5F5E2E2E2E2E2E2E2E2E2E2E2F5E2E2F5E2E2F5E2F5F5F5
310
F5F5F5F5F5F5F5F5F5F5E2F5F5F5E2F5F5E2E2EFE2F5F5E2F5F5F5E2F5F5F5F5F5F5F5F5F5F5E2F5F5F5F5F5F5F5F5F5E2E2F5F5F5F5F5F5F5F5F5F5F5F5F5F5F5F5F5F5F5F5F5F5F5F5F5E2E2F5F5E2F5F5F5F5F5F5E2F5F5E2E2E2E2E2F5F5E2F5E2F5F5E2E2F5E2F5F5F5E2F5F5F5F5F5F5F5F5F5F5F5F5F5F5F5F5F5F5
310
F5F5F5F5F5F5F5F5F5F5F5F5F5F5F5F5F5F5F5E2E2F5E2F5F5F5F5F5E2F5E2E2F5E2E2F5F5E2F5E2F5F5F5E2E2F5E2F5F5F5E2F5F5F5F5F5F5F5F5F5F5F5F5E2F5F5F5E2F5F5E2E2EFE2F5F5E2F5F5F5E2F5F5F5F5F5F5F5F5F5E2E2E2F5F5F5F5F5F5F5F5E2E2E2F5F5F5F5F5F5F5F5F5F5F5F5F5F5F5F5F5F5F5F5F5F5F5
310
F5E2F5F5F5E2E2F5F5F5F5F5E2E2E2E2E2E2E2F5F5E2F5E2E2E2F5E2E2E2E2E2E2F5E2F5F5F5F5F5F5F5F5F5F5F5F5F5F5F5F5F5F5F5F5F5F5F5F5F5F5F5F5F5F5F5F5F5F5F5F5E2E2E2E2E2E2F5F5F5F5E2E2E2F5E2E2E2E2E2F5E2E2E2F5F5E2E2E2E2E2E2F5E2F5F5F5F5F5F5F5F5F5F5F5F5E2F5F5F5E2F5F5E2E2EFE2
310
F5F5E2F5F5F5E2F5F5F5F5F5F5F5F5F5E2E2E2F5F5F5F5F5F5F5E2F5E2E2F5F5F5F5F5F5F5F5F5F5F5F5F5F5F5F5F5F5F5F5F5F5F5F5E2F5F5F5E2E2F5F5F5F5F5E2F5F5E2E2E2E2F5F5F5E2F5E2F5F5F5E2F5E2F5F5F5E2F5F5F5F5F5F5F5F5F5F5F5F5F5F5F5F5F5F5F5F5F5F5F5F5F5F5F5F5F5F5F5F5F5F5F5F5E2F5E2
310
F5F5E2F5F5F5F5E2F5F5E2E2E2E2F5F5E2F5E2F5F5F5F5E2F5E2F5F5F5E2F5F5F5F5F5F5F5F5F5F5F5F5E2F5F5F5E2F5F5E2E2EFE2F5F5F5F5F5F5E2F5F5F5F5F5F5F5F5F5E2E2E2F5F5F5F5F5F5F5E2F5E2E2F5F5F5F5F5F5F5F5F5F5F5F5F5F5F5F5F5F5F5F5F5F5F5F5E2F5F5F5E2E2F5F5F5F5F5F5F5F5F5F5F5F5F5F5
310
F5F5F5F5F5F5F5F5F5F5F5F5E2F5F5F5F5F5F5F5F5F5F5F5F5F5F5F5F5F5E2F5F5E2E2E2F5F5F5F5F5E2E2E2F5F5E2F5F5F5E2F5E2F5F5E2F5F5F5F5F5F5F5F5F5F5F5F5F5F5F5F5F5F5F5F5F5F5F5F5F5E2F5F5F5F5F5F5F5F5F5F5F5F5F5E2F5F5F5F5F5F5E2E2EFE2F5F5F5F5F5F5E2F5F5F5F5F5F5F5F5F5F5E2F5F5F5
310
F5F5F5F5F5F5F5E2F5F5F5F5F5F5F5F5F5F5F5F5F5F5F5F5F5F5F5F5F5F5F5F5F5E2F5F5F5E2E2F5F5F5F5F5F5F5F5F5F5F5F5F5F5F5F5F5F5F5F5F5F5F5F5F5F5F5F5F5F5F5F5F5F5F5F5F5F5F5F5F5F5F5F5E2E2E2E2E2E2E2E2F5E2E2E2E2E2E2E2E2F5F5F5E2F5E2F5F5E2F5F5F5F5F5F5F5F5F5F5F5F5F5F5F5F5F5F5
310
F5F5F5F5F5F5F5F5F5F5F5F5F5F5F5F5F5F5F5F5F5E2F5F5F5F5F5F5E2E2EFE2F5F5F5F5F5F5E2F5F5F5F5F5F5F5F5F5F5E2F5F5F5F5F5F5F5F5F5F5E2F5F5F5F5F5F5F5F5F5F5F5F5F5F5F5F5F5F5F5F5F5F5F5F5F5E2F5F5F5E2E2F5F5F5F5F5F5F5F5F5F5F5F5F5F5E2E2E2E2F5F5F5F5F5F5F5F5F5F5F5F5F5F5F5F5F5
310
F5F5F5F5F5F5F5F5F5E2F5F5E2E2E2F5F5F5F5F5E2E2E2F5F5E2F5F5F5E2F5E2F5F5E2F5F5F5F5F5F5F5F5F5F5F5F5F5E2F5F5F5F5F5F5F5F5F5F5F5F5F5F5F5F5F5F5F5F5F5F5F5F5F5E2F5F5F5F5F5F5E2E2EFE2F5F5F5F5F5F5E2F5F5F5F5F5F5F5F5F5F5E2F5F5F5F5F5F5F5F5F5F5E2F5F5F5F5F5F5F5F5F5F5F5F5F5
310
F5F5F5F5F5F5F5F5F5F5F5F5E2F5F5F5E2E2F5F5F5F5F5F5F5F5F5F5F5F5F5F5E2E2E2E2F5F5F5F5F5F5F5F5F5F5F5F5F5F5F5F5F5F5F5F5F5F5F5F5F5F5E2F5F5F5F5F5E2E2E2F5F5F5F5F5F5F5E2F5F5F5E2F5E2F5F5E2F5F5F5F5F5F5F5F5F5F5F5F5F5E2E2E2F5F5F5F5F5F5F5F5F5F5F5F5F5F5F5F5F5F5F5F5F5F5F5
310
E2F5F5F5F5F5F5E2E2EFE2F5F5F5F5F5F5E2F5F5F5F5F5F5F5F5F5F5E2F5F5F5F5F5F5F5F5F5F5F5F5F5F5F5F5F5F5F5F5F5F5F5F5F5F5F5F5F5F5F5F5F5F5F5F5E2F5F5F5E2E2F5F5F5F5F5F5F5F5F5F5F5F5F5F5E2F5F5F5F5F5F5F5F5F5F5F5F5F5F5F5F5F5F5F5F5F5F5F5F5F5F5F5F5F5E2F5F5F5F5F5E2F5F5E2F5F5
310
F5F5F5F5E2F5F5F5E2F5E2F5F5E2F5F5F5F5F5F5F5E2E2E2E2E2E2E2F5F5F5F5F5F5F5F5F5F5F5F5F5F5F5F5F5F5F5F5F5F5F5F5F5E2F5F5F5F5F5F5E2E2EFE2F5F5F5F5F5F5E2F5F5F5F5F5F5F5F5F5F5F5F5F5F5F5F5F5F5F5F5F5E2F5F5F5F5F5F5F5F5F5F5F5F5F5F5F5F5F5F5F5F5F5F5F5F5F5E2F5F5F5E2E2F5F5F5
310
F5F5F5F5F5E2E2E2E2E2E2E2E2E2E2F5F5F5F5F5F5F5F5F5F5F5F5F5F5F5F5F5F5F5F5F5F5F5F5F5F5E2F5F5F5F5F5E2F5F5E2F5F5F5F5F5F5E2F5F5F5E2F5E2F5F5E2F5F5F5F5F5F5F5E2F5F5F5F5F5E2E2E2E2F5F5F5F5F5F5F5F5F5F5F5F5F5F5F5F5F5F5F5F5F5F5E2F5F5F5F5F5F5E2E2EFE2F5F5F5F5F5F5E2F5F5F5
310
F5F5F5F5F5F5F5E2F5F5F5F5F5F5F5F5F5F5E2F5F5F5F5F5F5F5F5F5F5F5F5F5F5F5F5F5F5F5F5F5F5F5F5F5E2F5F5F5E2E2F5F5F5F5F5F5F5F5E2F5F5F5F5F5F5F5F5F5F5F5F5F5F5F5F5F5F5F5F5F5F5F5F5F5F5F5F5F5F5F5F5F5F5F5F5F5F5F5F5F5E2E2E2F5F5F5F5F5F5F5E2F5F5F5E2F5E2F5F5E2F5F5F5F5F5F5E2
310
F5F5F5F5F5F5F5F5F5F5F5F5F5F5F5F5F5F5F5F5F5F5F5F5F5F5F5F5F5F5F5F5E2F5F5F5F5F5F5E2E2EFE2F5F5F5F5F5F5E2F5F5F5F5F5F5F5F5F5F5E2F5F5F5F5F5F5F5F5F5F5E2F5F5F5F5F5F5F5F5F5F5F5F5F5F5F5F5F5F5F5F5F5F5F5F5F5E2F5F5F5E2E2F5F5F5F5F5F5F5E2F5F5F5F5F5F5F5F5F5F5F5F5F5F5F5F5
310
F5F5F5F5F5F5F5F5F5F5F5F5F5F5F5F5F5F5F5F5E2F5F5F5F5F5F5F5F5F5F5F5F5F5F5F5E2F5F5F5E2F5E2F5F5E2F5F5F5F5F5F5F5F5F5F5F5F5F5F5F5F5F5F5F5F5F5F5F5F5F5F5F5F5F5F5F5F5F5F5F5F5F5F5F5E2F5F5F5F5F5F5E2E2EFE2F5F5E2F5F5F5E2F5F5F5F5F5F5F5F5F5F5E2F5F5F5F5F5F5F5F5F5F5E2F5F5
310
F5F5F5F5F5F5F5F5F5F5F5F5F5F5F5F5F5F5F5F5F5F5F5E2F5F5F5E2E2F5F5F5F5F5F5F5E2F5F5F5F5F5F5F5F5F5F5F5F5F5F5F5F5F5F5F5F5F5F5F5F5F5F5F5F5F5F5F5F5F5F5F5F5E2F5F5F5F5F5F5F5F5F5F5F5F5F5F5F5E2F5F5F5E2F5E2F5F5E2F5F5F5F5F5E2F5F5F5F5F5F5F5F5F5F5F5F5F5F5F5F5F5F5F5F5F5F5
310
F5F5F5F5F5F5F5F5F5F5F5E2F5F5F5E2F5F5E2E2EFE2F5F5E2F5F5F5E2F5F5F5F5F5F5F5F5F5F5E2F5F5F5F5F5F5F5F5F5F5E2F5F5F5F5F5F5F5F5F5F5F5F5F5F5F5F5F5F5F5F5F5F5F5F5F5E2F5F5F5E2E2F5F5F5F5F5F5E2F5F5F5F5F5F5F5F5F5F5F5F5F5F5F5F5F5F5F5F5F5F5F5F5F5F5F5F5F5F5F5F5F5F5F5F5F5E2
310
F5F5F5F5F5F5F5F5F5F5F5F5F5F5F5F5F5F5F5E2F5E2F5F5E2F5F5F5F5E2F5F5F5F5F5F5F5F5F5F5F5F5F5F5F5F5F5F5F5F5F5F5F5F5F5F5F5F5F5F5F5F5F5F5E2F5F5F5E2F5F5E2E2EFE2F5F5E2F5F5F5E2F5F5F5F5F5F5F5F5F5F5E2F5F5F5F5F5F5F5F5F5F5F5F5F5F5F5F5F5F5F5F5F5F5F5F5F5F5F5F5F5F5F5F5F5F5
310
F5F5E2F5F5F5E2E2F5F5F5F5F5F5E2F5F5F5F5F5F5F5F5F5F5F5F5F5F5F5F5F5F5F5F5F5F5F5F5F5F5F5F5F5F5F5F5F5F5F5F5F5E2F5F5F5F5F5F5F5F5F5F5F5F5F5F5F5E2F5F5F5E2F5E2F5F5E2F5F5F5F5E2F5F5F5F5F5F5F5F5F5F5F5F5F5F5F5F5F5F5F5F5F5F5F5F5F5F5F5F5F5F5F5F5F5F5E2F5F5F5E2F5F5E2E2EF
310
E2F5F5E2F5F5F5E2F5F5F5F5F5F5F5F5F5F5F5F5F5F5F5F5F5F5F5F5F5E2F5F5F5F5F5F5F5F5F5F5F5F5F5F5F5F5F5F5F5F5F5F5F5F5F5E2F5F5F5E2E2F5F5F5F5F5F5E2F5F5F5F5F5F5F5F5F5F5F5F5F5F5F5F5F5F5F5F5F5F5F5F5F5F5F5F5F5F5F5F5F5F5F5F5F5F5F5F5F5F5F5F5F5F5F5F5F5F5F5F5F5E2F5F5F5E2F5
310
E2F5F5E2F5F5F5E2F5F5F5F5F5F5F5F5F5F5F5F5F5F5F5F5F5F5F5F5F5F5F5F5F5F5F5F5F5F5F5F5F5F5F5E2F5F5F5E2F5F5E2E2EFE2F5F5E2F5F5F5E2F5F5F5F5F5F5F5F5F5F5E2F5F5F5F5F5F5F5F5F5F5E2F5F5F5F5F5F5F5F5F5F5F5F5F5F5F5F5F5F5F5F5F5F5F5F5F5E2F5F5F5E2E2F5F5F5F5F5E2F5F5F5F5F5F5F5
310
F5F5F5F5F5F5F5F5F5F5F5F5F5F5F5F5F5F5F5F5F5F5F5F5F5F5F5F5F5F5F5E2F5F5F5F5F5F5F5F5F5F5F5F5F5F5F5E2F5F5F5E2F5E2F5F5E2F5F5F5F5F5F5F5F5F5F5F5F5F5F5F5F5F5F5F5F5F5F5F5F5F5F5F5F5F5F5F5F5F5F5F5F5F5F5F5E2F5F5F5E2F5F5E2E2EFE2F5F5E2F5F5F5E2F5F5F5F5F5F5F5F5F5F5E2F5F5
310
F5F5F5F5F5F5F5F5E2F5F5F5F5F5F5F5F5F5F5F5F5F5F5F5F5F5F5F5F5F5F5F5F5F5E2F5F5F5E2E2F5F5F5F5F5E2F5F5F5F5F5F5F5F5F5F5F5F5F5F5F5F5F5F5F5F5F5F5F5F5F5F5F5F5F5F5F5F5F5F5F5F5F5F5E2F5F5F5F5F5F5F5F5F5F5F5F5F5F5F5E2F5F5F5E2F5E2F5F5E2F5F5E2F5F5F5F5F5F5F5F5F5F5F5F5F5F5
310
F5F5F5F5F5F5F5F5F5F5F5F5F5F5F5F5F5F5F5F5F5F5E2F5F5F5E2F5F5E2E2EFE2F5F5E2F5F5F5E2F5F5F5F5F5F5F5F5F5F5E2F5F5F5F5E2E2E2E2F5F5E2F5F5F5F5F5F5F5F5F5F5F5F5F5F5F5F5F5F5F5F5F5F5F5F5F5E2F5F5F5E2E2F5F5F5F5F5F5F5F5F5F5F5F5F5F5F5F5F5F5F5F5F5F5F5F5F5F5F5F5F5F5F5F5F5F5
310
F5F5F5F5F5F5F5F5F5F5E2F5F5F5F5F5F5F5F5F5F5F5F5F5F5F5E2F5F5F5E2F5E2F5F5E2F5F5E2F5F5F5F5F5F5F5F5F5F5F5F5F5F5F5F5F5F5F5F5F5F5F5F5F5F5F5F5F5F5F5F5F5F5F5F5E2F5F5F5E2F5F5E2E2EFE2F5F5E2F5F5F5E2F5F5F5F5F5F5F5F5F5F5E2F5F5F5F5E2E2E2E2F5F5F5F5F5F5F5F5F5F5F5F5F5F5F5
310
F5F5F5F5F5F5F5F5F5F5F5F5F5E2F5F5F5E2E2F5F5F5F5E2F5F5F5F5F5F5F5F5F5F5F5F5F5F5F5F5F5F5F5F5F5F5F5F5F5F5F5F5F5F5F5F5F5F5F5F5F5F5F5E2F5F5F5F5F5F5F5F5F5F5F5F5F5F5F5F5F5F5F5E2F5E2F5F5E2F5E2F5F5F5F5F5F5F5F5F5F5F5F5F5F5F5F5F5F5F5F5F5F5F5F5F5F5F5F5F5F5F5F5F5F5F5F5
310
F5E2F5F5F5E2F5F5E2E2EFE2F5F5E2F5F5F5E2F5F5F5F5F5F5F5F5F5F5E2F5F5F5F5E2F5F5E2F5F5E2F5F5F5F5F5F5F5F5F5F5F5F5F5F5F5F5F5F5F5F5F5F5F5F5F5E2F5F5F5E2E2F5F5F5F5E2F5F5F5F5F5F5F5F5F5F5F5F5F5F5F5F5F5F5F5F5F5F5F5F5F5F5F5F5F5F5F5F5F5F5F5F5F5F5F5E2F5F5F5F5F5F5F5F5F5F5
310
F5F5F5F5F5E2F5F5F5E2F5E2F5F5E2F5E2F5F5F5F5F5F5F5F5F5F5F5F5F5F5F5F5F5F5F5F5F5F5F5F5F5F5F5F5F5F5F5F5F5F5F5F5F5E2F5F5F5E2F5F5E2E2EFE2F5F5E2F5F5F5E2F5F5F5F5F5F5F5F5F5F5E2F5F5F5F5E2E2E2E2F5F5E2F5F5F5F5F5F5F5F5F5F5F5F5F5F5F5F5F5F5F5F5F5F5F5F5F5E2F5F5F5E2E2F5F5
310
F5E2F5F5F5F5F5F5F5F5F5F5F5F5F5F5F5F5F5F5F5F5F5F5F5F5F5F5F5F5F5F5F5F5F5F5F5F5F5F5F5F5F5F5F5F5F5F5F5F5F5F5F5F5F5F5F5F5E2F5F5F5E2F5E2F5F5E2F5F5F5F5F5F5F5F5F5F5F5F5F5F5F5F5F5F5F5F5F5F5F5F5F5F5F5F5F5F5F5F5F5F5F5F5F5F5F5E2F5F5F5E2F5F5E2E2EFE2F5F5E2F5F5F5E2F5F5
310
F5F5F5F5F5F5F5F5E2F5F5F5F5F5F5F5F5F5F5E2F5F5F5F5F5F5F5F5F5F5F5F5F5F5F5F5F5F5F5F5F5F5F5F5F5E2F5F5F5E2E2F5F5F5E2F5F5F5F5F5F5F5F5F5F5F5F5F5F5F5F5F5F5F5F5F5F5F5F5F5F5F5F5F5F5F5F5F5F5F5F5F5F5F5F5E2F5F5F5F5F5F5F5F5F5F5F5F5F5F5F5E2F5F5F5E2F5E2F5F5E2E2F5F5F5F5F5
310
F5F5F5F5F5E2F5F5F5F5F5F5F5F5F5F5F5F5F5F5F5F5F5F5F5F5F5F5F5F5F5F5F5E2F5F5F5E2F5F5E2E2EFE2F5F5E2F5F5F5E2F5F5F5F5F5F5F5F5F5F5E2F5F5F5F5F5F5F5F5F5F5E2F5F5F5F5F5F5F5F5F5F5F5F5F5F5F5F5F5F5F5F5F5F5F5F5F5E2F5F5F5E2E2F5F5F5F5F5F5F5F5F5F5F5F5F5F5F5F5F5F5F5F5E2F5F5
310
F5F5F5F5F5F5F5F5F5F5F5F5F5F5F5F5F5F5F5F5F5E2F5F5F5F5F5F5F5F5F5F5F5F5F5F5F5E2F5F5F5E2F5E2F5F5E2F5F5F5F5F5F5F5F5F5F5F5E2F5F5F5F5F5F5F5F5F5F5F5F5F5F5F5F5F5F5F5F5F5F5F5F5F5F5F5E2F5F5F5E2F5F5E2E2EFE2F5F5E2F5F5F5E2F5F5F5F5F5F5F5F5F5F5E2F5F5F5F5F5F5F5F5F5F5E2F5
310
F5F5F5F5F5F5F5F5F5F5F5F5F5F5F5F5F5F5F5F5F5F5F5F5E2F5F5F5E2E2F5F5E2F5F5F5F5F5F5F5F5F5F5F5F5F5F5F5F5F5E2F5F5F5F5F5F5F5F5F5F5F5F5F5F5F5F5F5F5F5F5F5F5F5E2F5F5F5F5F5F5F5F5F5F5F5F5F5F5F5E2F5F5F5E2F5E2F5F5E2F5F5F5F5F5F5F5F5F5F5F5E2F5F5F5F5F5F5F5F5F5F5F5F5F5F5F5
310
F5F5F5F5F5F5F5F5F5F5F5F5E2F5F5F5E2F5F5E2E2EFE2F5F5E2F5F5F5E2F5F5F5F5F5F5F5F5F5F5E2F5F5F5F5F5F5F5F5F5F5F5F5F5F5F5F5F5F5F5F5F5F5F5F5F5F5F5F5F5F5F5F5F5F5F5F5E2F5F5F5E2E2F5F5E2F5F5F5F5F5F5F5F5F5F5F5F5F5F5F5F5F5E2F5F5F5F5F5F5F5F5F5F5F5F5F5F5F5F5F5F5F5F5F5F5F5
310
E2F5F5F5F5F5F5F5F5F5F5F5F5F5F5F5F5F5F5F5E2F5E2F5E2E2F5F5F5F5F5F5F5F5F5F5F5E2F5F5F5F5F5F5F5F5F5F5F5F5F5F5F5F5F5F5F5F5F5F5F5F5F5F5F5E2F5F5F5E2F5F5E2E2EFE2F5F5E2F5F5F5E2F5F5F5E2F5F5E2F5F5F5F5F5F5F5F5F5F5F5F5F5F5E2F5F5F5F5F5F5F5F5F5F5F5F5F5F5F5F5F5F5F5F5F5F5
310
F5F5F5E2F5E2E2E2E2F5F5E2F5F5F5F5F5F5F5F5F5F5F5F5F5F5F5F5F5E2F5F5F5F5F5F5F5F5F5F5F5F5F5F5F5F5F5F5F5F5F5F5F5E2F5F5F5F5F5F5F5F5F5F5F5F5F5F5F5E2F5F5F5E2F5E2F5F5E2F5F5F5F5F5F5F5F5F5F5F5E2F5F5F5F5F5F5F5F5F5F5F5F5F5F5F5F5F5F5F5F5F5F5F5F5F5F5F5E2F5F5F5E2F5F5E2E2
310
EFE2F5F5F5F5F5F5E2F5F5F5F5E2E2F5F5F5F5E2F5F5F5F5F5F5F5F5F5F5E2F5F5F5F5F5F5F5F5F5F5F5F5F5F5F5F5F5F5F5F5F5F5F5F5F5E2E2E2F5E2E2F5E2F5F5F5F5F5F5F5F5F5F5F5F5F5F5F5F5F5F5E2F5F5F5F5F5F5F5F5F5F5F5F5F5F5F5F5F5F5F5F5F5F5F5F5F5F5F5F5F5F5F5F5F5F5F5F5F5F5F5E2F5F5F5E2
310
F5E2E2F5E2F5F5F5F5F5F5F5F5F5F5E2E2F5E2F5F5F5F5F5F5F5F5F5F5F5F5F5F5F5F5F5F5F5F5F5F5F5F5F5E2F5F5F5F5F5F5E2E2EFE2F5F5F5F5F5F5E2F5F5F5F5E2E2F5F5F5F5E2F5F5F5F5F5F5F5F5F5F5E2F5F5F5F5F5F5F5F5F5F5F5F5F5F5F5F5F5F5F5F5F5F5F5F5F5E2E2E2E2E2E2F5E2F5F5F5F5F5F5F5F5F5F5
310
F5F5F5F5F5F5F5E2E2F5E2F5F5F5F5F5F5F5F5F5F5F5F5F5F5F5F5F5F5F5F5F5E2F5F5F5F5F5F5F5F5F5F5F5F5F5F5F5E2F5F5F5E2F5E2E2F5E2F5F5F5F5F5F5F5F5F5F5E2E2F5E2F5F5F5F5F5F5F5F5F5F5F5F5F5F5F5F5F5F5F5F5F5F5F5F5F5E2F5F5F5F5F5F5E2E2EFE2F5F5F5F5F5F5E2F5F5F5F5E2E2F5F5F5F5E2F5
310
F5F5F5F5F5F5F5F5F5E2F5F5F5F5F5F5F5F5F5F5F5F5F5F5F5F5F5F5F5F5F5F5F5F5F5E2F5E2E2E2E2F5F5F5F5F5F5F5F5F5F5F5F5F5F5F5F5F5F5F5E2E2F5E2F5F5F5F5F5F5F5F5F5F5F5F5F5F5F5F5F5F5F5F5F5E2F5F5F5F5F5F5F5F5F5F5F5F5F5F5F5E2F5F5F5E2E2E2F5F5E2F5F5F5F5F5F5F5F5F5F5E2E2E2F5F5F5
310
F5F5F5F5F5F5F5F5F5F5F5F5F5F5F5F5F5F5F5F5F5F5F5E2F5F5F5F5F5F5E2E2EFE2F5F5F5F5F5F5E2F5F5F5F5F5F5F5F5F5F5E2F5F5F5F5F5F5F5F5F5F5E2F5F5F5F5F5F5F5F5F5F5F5F5F5F5F5F5F5F5F5F5F5F5F5F5F5E2E2F5E2E2E2E2F5F5F5F5F5F5F5F5F5F5F5F5F5F5F5F5F5F5E2E2E2F5F5F5F5F5F5F5F5F5F5F5
310
F5F5F5F5F5F5F5F5F5F5F5E2F5F5F5F5F5F5F5F5F5F5F5F5F5F5F5F5F5F5F5E2E2E2E2F5E2F5F5F5F5F5F5F5F5F5F5F5E2E2F5F5F5F5F5F5F5F5F5F5F5F5F5F5F5F5F5F5F5F5F5F5F5F5F5F5E2F5F5F5F5F5F5E2E2EFE2F5F5F5F5F5F5E2F5F5F5F5F5F5F5F5F5F5E2F5F5F5F5F5F5F5F5F5F5F5F5F5F5F5F5F5F5F5F5F5F5
310
F5F5F5F5F5F5F5F5F5F5F5F5F5F5E2E2E2F5E2E2E2F5F5F5F5F5F5F5F5F5F5F5F5F5F5F5F5F5F5F5E2E2F5F5F5F5F5F5F5F5F5F5F5F5F5F5F5F5F5F5F5F5F5F5E2F5F5F5F5F5F5F5F5F5F5F5F5F5F5F5E2F5F5F5E2E2E2F5F5E2F5F5F5F5F5F5F5F5F5F5F5E2F5F5F5F5F5F5F5F5F5F5F5F5F5F5F5F5F5F5F5F5F5F5F5F5F5
310
F5F5E2F5F5F5F5F5F5E2E2EFE2F5F5F5F5F5F5E2F5F5F5F5F5F5F5F5F5F5F5F5F5F5F5F5F5F5F5F5F5E2F5F5F5F5F5F5F5F5F5F5F5F5F5F5F5F5F5F5F5F5F5F5F5F5F5E2F5E2E2E2E2F5F5F5F5F5F5F5F5F5F5F5F5F5F5F5F5F5F5F5F5E2F5F5E2E2F5F5F5F5F5F5F5F5F5F5F5F5F5F5F5F5F5F5F5E2F5F5F5F5F5F5F5F5F5
310
F5F5F5F5F5F5E2F5F5F5E2F5E2F5F5E2F5F5F5F5F5F5F5F5F5F5F5E2F5F5F5F5F5F5F5F5F5F5F5F5F5F5F5F5F5F5F5F5F5F5F5F5F5F5F5E2F5F5F5F5F5F5E2E2EFE2F5F5F5F5F5F5E2F5F5F5F5F5F5F5F5F5F5E2F5F5F5F5F5F5F5F5F5F5E2F5F5F5F5F5F5F5F5F5F5F5F5F5F5E2E2E2E2E2E2E2E2E2E2E2E2F5E2E2E2E2E2
310
E2E2E2E2E2E2E2E2E2E2E2E2E2E2E2E2E2E2E2E2E2E2E2F5F5F5F5F5F5F5F5F5F5F5F5F5F5F5F5F5F5F5F5E2E2E2E2E2E2E2E2E2E2E2E2E2E2E2E2E2E2E2E2E2F5E2F5F5E2F5F5F5F5F5F5F5F5F5F5F5E2F5F5F5F5F5F5F5F5F5F5F5F5F5F5F5F5F5F5F5F5F5F5F5F5F5F5F5E2F5F5F5F5F5F5E2E2EFE2F5F5F5F5F5F5E2F5
310
F5F5F5F5F5F5F5F5F5E2F5F5F5F5F5F5F5F5F5F5E2F5F5F5F5F5F5F5F5F5F5F5F5F5F5E2ECECECECECE2F5F5E2ECE2E2F5E2E2E2ECE2F5F5E2ECECECECECECECECECECECECECECECE2ECECE2F5F5F5F5F5F5F5F5F5F5F5F5F5F5F5F5F5F5F5F5E2E2E2E2E2E2E2E2E2E2E2E2E2E2E2F5E2ECECE2E2F5E2F5F5E2F5F5F5F5F5
310
F5F5F5F5F5F5E2F5F5F5F5F5F5F5F5F5F5F5F5F5F5F5F5F5F5F5F5F5F5F5F5F5F5F5E2F5F5F5F5F5F5E2E2EFE2F5F5F5F5F5F5E2F5F5F5F5F5F5F5F5F5F5E2F5F5F5F5F5F5F5F5E2F5E2E2F5F5F5F5F5F5F5F5F5F5F5F5F5E2ECECECECECE2F5F5E2ECE2E2E2E2E2E2ECE2F5F5E2ECECECECECECECECECECECECECECECE2EC
310
ECECE2F5F5F5F5F5F5F5F5F5F5F5F5F5F5F5F5F5F5F5F5E2F5F5F5F5F5F5F5F5F5F5F5F5F5E2E2ECE2ECE2F5E2F5F5E2E2E2E2F5F5F5F5F5F5F5F5E2F5F5F5F5F5F5F5F5F5F5E2F5F5F5F5F5F5F5F5F5F5F5F5F5F5F5F5E2F5F5F5F5F5F5E2E2EFE2F5F5E2F5F5F5E2F5F5F5F5F5F5F5F5F5F5E2F5F5F5F5F5F5F5F5E2F5E2
310
E2F5F5F5F5F5F5F5F5F5F5F5F5F5E2ECECECECECE2F5F5E2E2E2F5F5E2E2E2E2E2F5F5E2ECECECECECECECECECECECECECECECECECECECE2F5F5F5F5F5F5F5F5F5F5F5F5F5F5F5F5F5F5F5F5F5E2E2E2E2E2E2E2E2E2F5F5F5F5E2E2ECE2ECE2E2E2E2E2E2E2E2E2F5F5F5F5F5F5F5F5E2F5F5F5F5F5F5F5F5F5F5E2F5F5F5
310
F5F5F5F5F5F5F5F5F5F5F5F5F5E2F5F5F5E2F5F5E2E2EFE2F5F5E2F5F5F5E2F5F5F5F5F5F5F5F5F5F5E2F5F5F5F5F5F5F5F5F5E2E2E2F5F5F5F5F5F5F5E2E2E2E2E2E2E2E2E2E2E2E2E2E2E2E2E2ECE2E2E2E2E2E2E2E2E2E2E2E2E2E2E2E2E2E2E2E2E2E2E2E2E2E2E2E2E2E2E2F5F5F5F5F5F5F5F5F5F5F5F5F5F5F5F5F5
310
F5F5F5F5F5F5F5F5E2E2E2E2E2E2F5F5E2F5E2E2E2ECE2E2E2E2E2E2E2E2E2E2E2E2E2E2E2E2E2E2E2E2E2E2E2E2E2E2E2F5F5F5F5F5F5F5F5F5F5F5F5F5F5F5F5F5E2F5F5F5E2F5F5E2E2EFE2F5F5E2F5F5F5E2F5F5F5F5F5F5F5F5F5F5F5F5F5F5F5F5F5F5F5F5E2E2F5F5F5F5F5F5F5F5E2F5F5F5F5F5F5F5F5F5F5F5F5
310
F5F5E2E2E2ECECE2ECE2F5E2F5F5F5F5F5F5F5F5F5F5F5F5F5F5E2F5F5F5E2F5F5F5E2F5F5F5F5F5F5F5F5F5F5F5F5F5F5F5F5F5F5F5F5F5F5F5F5F5F5E2ECECF5ECECE2F5E2E2E2F5F5F5F5E2F5F5F5F5F5E2F5ECECF5ECECF5ECECF5ECECF5ECECF5ECECE2F5F5F5F5F5F5F5F5F5F5F5F5F5F5F5F5F5E2F5F5F5E2F5F5E2
310
E2EFE2F5F5E2F5F5F5E2F5F5F5F5F5F5F5F5F5F5E2F5F5F5F5F5F5F5F5F5F5E2F5F5F5F5F5F5F5F5E2E2F5F5F5F5F5F5F5F5F5F5F5F5F5E2E2E2ECECE2F5E2F5E2F5F5F5F5F5F5F5F5F5F5F5F5F5E2E2F5F5F5E2F5F5F5F5F5F5F5F5F5F5F5F5F5F5F5F5F5F5F5F5F5F5F5F5F5F5F5F5F5F5E2F5ECECF5ECECE2F5E2E2E2E2
310
E2F5E2F5F5F5F5F5E2ECF5ECECF5ECECF5E2ECF5ECECF5ECECF5ECE2F5F5F5F5F5F5F5F5F5F5F5F5F5F5F5F5F5E2F5F5F5E2F5F5E2E2EFE2F5F5E2F5F5F5E2F5F5F5F5F5F5F5F5F5F5E2F5F5F5F5F5F5F5F5F5E2E2E2E2E2E2F5E2E2E2E2E2E2E2E2E2E2E2E2E2E2E2E2E2E2E2E2ECE2ECECECE2F5E2E2E2E2E2E2E2E2E2E2
310
E2E2E2E2F5E2F5F5F5E2F5F5F5F5F5F5F5F5F5F5F5F5F5F5F5F5F5F5F5F5F5F5F5F5F5F5F5F5F5F5E2ECF5ECECECECECE2E2F5F5F5E2E2E2F5F5F5F5F5E2ECECF5ECECF5ECECE2ECECF5ECECF5ECECECF5E2F5F5F5F5F5F5F5F5F5F5F5F5F5F5F5F5E2F5F5F5E2F5F5E2E2EFE2F5F5E2F5F5F5E2F5F5F5F5F5F5F5F5F5F5E2
310
F5F5F5F5F5F5F5F5F5F5E2F5F5F5F5F5F5F5F5E2F5F5F5F5F5F5F5F5F5F5F5F5E2E2E2E2ECECE2ECECE2E2E2E2F5F5F5F5F5F5F5F5F5F5F5F5F5E2F5F5F5E2E2F5F5F5F5F5F5F5F5F5F5F5F5F5F5F5F5F5F5F5F5F5F5F5F5F5F5F5F5F5E2ECECECECF5ECE2E2E2E2E2E2E2F5F5F5F5F5F5F5E2F5ECECECECECF5ECE2F5ECEC
310
F5ECECF5ECECECF5E2F5F5F5F5F5F5F5F5F5F5F5F5F5F5F5E2F5F5F5E2F5F5E2E2EFE2F5F5E2F5F5F5E2F5F5F5F5F5F5F5F5F5F5E2F5F5F5F5F5F5F5F5F5E2E2F5F5F5F5F5F5F5F5F5F5F5F5F5F5F5F5F5F5F5F5F5F5E2E2E2F5ECE2F5ECE2E2F5E2F5F5F5F5F5F5F5F5F5F5F5F5F5F5F5F5F5E2E2F5F5F5F5F5F5F5F5F5F5
310
F5F5F5F5F5F5F5F5F5F5F5F5F5F5F5F5F5F5F5E2F5ECF5ECECF5E2ECE2ECECECE2F5F5F5F5F5F5F5E2ECECECF5ECECECF5E2ECF5ECECF5ECECF5ECECECE2F5F5F5F5F5F5F5F5F5F5F5F5F5F5F5E2F5F5F5E2F5F5E2E2EFE2F5F5E2F5F5F5E2F5F5F5F5F5F5F5F5F5F5F5F5F5F5F5F5F5F5F5F5E2E2E2F5F5F5F5F5F5F5E2F5
310
F5F5F5F5F5F5F5F5F5F5F5F5E2E2F5E2E2E2E2E2E2E2F5E2F5F5F5F5F5F5F5F5F5F5F5F5F5E2F5F5E2E2F5E2F5F5F5F5F5F5F5F5F5F5F5F5F5F5F5F5F5F5F5F5F5F5F5F5F5F5F5F5E2E2E2E2E2E2E2E2E2E2E2E2E2E2F5F5F5F5F5F5F5E2E2E2E2E2E2E2E2E2E2E2E2E2E2E2E2E2E2E2E2E2E2F5F5F5F5F5F5F5F5F5F5F5F5
310
F5F5F5E2F5F5F5E2F5F5E2E2EFE2F5F5E2F5F5F5E2F5F5F5F5F5F5F5F5F5F5E2F5F5F5F5F5F5F5F5E2F5E2E2F5F5F5F5F5F5F5E2F5F5F5F5F5F5F5F5F5F5F5F5F5E2E2F5E2E2E2E2E2E2E2F5E2F5F5F5F5F5F5F5F5F5F5F5F5F5E2F5F5E2E2F5E2F5F5F5F5F5F5F5F5F5F5F5F5F5F5F5F5F5F5F5F5F5F5F5F5F5F5F5F5F5F5
310
F5F5F5F5E2F5F5F5F5F5F5E2F5F5F5F5F5F5F5E2F5F5F5F5F5F5F5F5E2F5F5F5F5F5F5F5F5F5F5F5E2F5F5F5F5F5F5F5F5F5F5F5F5F5F5F5E2F5F5F5E2F5F5E2E2EFE2F5F5E2F5F5F5E2F5F5F5F5F5F5F5F5F5F5E2F5F5F5F5F5F5F5F5E2F5E2E2F5F5F5F5F5F5F5E2F5F5F5F5F5F5F5F5F5F5F5F5F5E2E2F5E2E2E2E2F5E2
310
E2E2E2F5F5F5F5F5F5F5F5F5F5F5F5F5E2F5F5F5E2F5F5F5F5F5F5F5F5F5F5F5F5F5F5F5F5F5F5F5F5F5F5F5F5F5F5F5F5F5F5F5F5F5F5F5E2F5F5F5F5F5F5F5E2F5F5F5F5F5F5F5E2F5F5F5F5F5F5F5F5E2E2F5F5F5F5F5F5F5F5F5E2F5F5F5F5F5F5F5F5F5F5F5F5F5F5F5F5E2F5F5F5E2F5F5E2E2EFE2F5F5E2F5F5F5E2
310
F5F5F5F5F5F5F5F5F5F5E2F5F5F5F5F5F5F5F5F5F5E2F5F5F5F5F5F5F5F5E2F5F5F5F5F5F5F5F5F5F5F5F5F5E2E2E2E2E2E2F5E2E2E2F5E2F5F5F5F5F5F5F5F5F5F5F5F5F5E2F5F5F5E2F5F5F5F5F5F5F5F5F5F5F5F5F5F5F5F5F5F5F5F5F5F5F5F5F5F5F5F5F5F5F5F5F5F5F5F5F5F5F5F5F5F5F5E2F5F5F5F5F5F5E2F5F5
310
F5F5F5F5F5F5E2E2E2F5F5F5F5F5F5F5F5F5F5F5F5F5F5F5F5F5F5F5F5F5F5F5F5F5F5E2F5F5F5E2F5F5E2E2EFE2F5F5E2F5F5F5E2F5F5F5F5F5F5F5F5F5F5E2F5F5F5F5F5F5F5F5F5F5E2F5F5F5F5F5F5F5F5E2F5F5F5F5F5F5F5F5F5F5F5F5F5E2E2E2E2E2E2F5E2F5E2F5E2F5F5F5F5F5F5F5F5F5F5F5F5F5E2F5F5F5E2
310
F5F5F5F5F5F5F5F5F5F5F5F5F5F5F5F5F5F5F5F5F5F5F5F5F5F5F5F5F5F5F5F5F5F5F5F5F5F5F5F5F5F5F5E2F5F5F5F5F5F5E2F5F5F5F5F5F5F5F5E2E2F5E2F5F5F5F5F5F5F5F5F5F5F5F5F5F5F5F5F5F5F5F5F5F5F5F5F5E2F5F5F5E2F5F5E2E2EFE2F5F5E2F5F5F5E2F5F5F5F5F5F5F5F5F5F5E2F5F5F5F5E2E2E2F5F5F5
310
E2F5F5F5F5F5F5F5F5F5F5F5F5F5F5F5F5F5F5F5F5F5F5E2F5E2E2E2E2F5F5E2F5F5E2F5F5F5F5F5F5F5F5F5F5F5F5F5F5F5F5F5E2F5F5F5F5F5F5F5F5F5F5F5F5F5F5F5F5F5F5F5F5F5F5F5F5F5F5F5F5F5F5F5F5F5F5F5F5F5F5F5F5F5F5F5E2F5F5F5F5F5E2F5F5F5F5F5F5F5F5F5E2E2F5E2F5F5F5F5F5F5F5F5F5F5F5
310
F5F5F5F5F5F5F5F5F5F5F5F5F5F5E2F5F5F5E2F5F5E2E2EFE2F5F5E2F5F5F5E2F5F5F5F5F5F5F5F5F5F5F5F5F5F5E2F5F5E2F5F5F5E2F5F5F5F5F5F5F5F5E2F5F5F5F5F5F5F5F5F5F5F5F5F5E2F5E2F5F5E2F5F5F5E2F5E2F5F5F5F5F5F5F5F5F5F5F5F5F5E2F5F5F5E2F5F5F5F5F5F5F5F5F5F5F5F5F5F5F5F5F5F5F5F5F5
310
F5F5F5F5F5F5F5F5F5F5F5F5F5F5F5F5F5F5F5F5F5F5E2F5F5F5F5F5E2F5F5F5F5F5F5F5F5F5F5E2F5F5F5F5F5F5F5F5F5F5F5F5F5F5F5F5F5F5F5F5F5F5F5F5F5F5F5E2F5F5F5E2F5F5E2E2EFE2F5F5E2F5F5F5E2F5F5F5F5F5F5F5F5F5F5E2F5F5F5E2F5F5F5F5F5F5E2F5F5F5F5F5F5F5F5E2F5F5F5F5F5F5F5F5F5F5F5
310
F5F5E2E2F5F5F5E2F5F5F5E2E2E2F5F5F5F5F5F5F5F5F5F5F5F5F5E2F5F5F5E2F5F5F5F5F5F5F5F5F5F5F5F5F5F5F5F5F5F5F5F5F5F5F5F5F5F5F5F5F5F5F5F5F5F5F5F5F5F5F5F5F5F5F5E2E2E2F5F5E2F5F5F5F5F5F5F5F5F5F5F5E2F5F5F5F5F5F5F5F5F5F5F5F5F5F5F5F5F5F5F5F5F5F5F5F5F5F5F5E2F5F5F5E2F5F5
310
E2E2EFE2F5F5F5F5F5F5E2F5F5F5F5F5F5F5F5F5F5E2F5F5F5F5E2E2E2F5F5F5E2F5F5F5F5F5F5F5F5E2F5F5F5F5F5F5F5F5F5F5F5F5F5E2E2F5F5F5E2F5F5F5E2F5E2F5F5F5F5F5F5F5F5F5F5F5F5F5E2F5F5F5E2F5F5F5F5F5F5F5F5F5F5F5F5F5F5F5F5F5F5F5F5F5F5F5F5F5F5F5F5F5F5F5F5F5F5F5F5F5F5F5F5F5F5
310
F5F5F5E2F5F5E2F5F5F5F5F5F5F5F5F5F5F5E2F5F5F5F5F5F5F5F5F5F5F5F5F5F5F5F5F5F5F5F5F5F5F5F5F5F5F5E2F5F5F5F5F5F5E2E2EFE2F5F5F5F5F5F5E2F5F5F5F5F5F5F5F5F5F5E2F5F5F5F5F5F5F5F5F5F5E2F5F5F5F5F5F5F5F5E2F5F5F5F5F5F5F5F5F5F5F5F5F5E2E2F5F5F5E2F5F5F5E2F5E2F5F5F5F5F5F5F5
310
F5F5F5F5F5F5E2F5F5F5E2F5F5F5F5F5F5F5F5F5F5F5F5F5F5F5F5F5F5F5F5F5F5F5F5F5F5F5F5F5F5F5F5F5F5F5F5F5F5F5F5F5F5F5F5F5E2F5F5E2F5F5F5F5F5F5F5F5F5F5F5E2F5F5F5F5F5F5F5F5F5F5F5F5F5F5F5F5F5F5F5F5F5F5F5F5F5F5F5E2F5F5F5F5F5F5E2E2EFE2F5F5F5F5F5F5E2F5F5F5F5F5F5F5F5F5F5
310
E2F5F5F5F5F5F5F5F5F5F5E2F5F5F5F5F5F5F5F5E2F5F5F5F5F5F5F5F5F5F5F5F5F5E2E2F5F5F5F5F5F5F5E2F5E2F5F5F5F5F5F5F5F5F5F5F5F5F5E2F5F5F5E2F5F5F5F5F5F5F5F5F5F5F5F5F5F5F5F5F5F5F5F5F5F5F5F5F5F5F5F5F5F5F5F5F5F5F5F5F5F5F5F5F5F5F5F5F5E2F5F5E2F5F5F5F5F5F5F5F5F5F5F5E2F5F5
310
F5F5F5F5F5F5F5F5F5F5F5F5F5F5F5F5F5F5F5F5F5F5F5F5F5E2F5F5F5F5F5F5E2E2EFE2F5F5F5F5F5F5E2F5F5F5F5F5F5F5F5F5E2E2E2F5F5F5F5F5F5F5E2F5E2E2F5F5F5F5F5F5F5E2F5F5F5F5F5F5F5F5F5F5F5F5F5E2E2F5F5F5E2F5F5F5E2F5E2F5F5F5F5F5F5F5F5F5F5F5F5F5E2F5F5F5E2F5F5F5F5F5F5F5F5F5F5
310
F5F5F5F5F5F5F5F5F5F5F5F5F5F5F5F5F5F5F5F5F5F5F5F5F5F5F5F5F5F5F5F5F5F5F5E2F5F5E2F5F5F5F5F5F5F5F5F5F5F5E2F5F5F5F5F5F5F5F5F5F5F5F5F5F5F5F5F5F5F5F5F5F5F5F5F5F5F5E2F5F5F5F5F5F5E2E2EFE2F5F5F5F5F5F5E2F5F5F5F5F5F5F5F5F5E2E2E2F5F5F5F5F5F5F5E2F5E2E2F5F5F5F5F5F5F5E2
310
F5F5F5F5F5F5F5F5F5F5F5F5F5E2E2F5F5F5E2F5F5F5E2F5E2F5F5F5F5F5F5F5F5F5F5F5F5F5E2F5F5F5F5F5F5F5F5F5F5F5F5F5F5F5F5F5F5F5F5F5F5F5F5F5F5F5F5F5F5F5F5F5F5F5F5F5F5F5F5F5F5F5F5F5F5F5F5F5E2F5F5E2F5F5F5F5F5F5F5F5F5F5F5E2F5F5F5F5F5F5F5F5F5F5F5F5F5F5F5F5F5F5F5F5F5F5F5
310
F5F5F5F5E2F5F5F5F5F5F5E2E2EFE2F5F5F5F5F5F5E2F5F5F5F5F5F5F5F5F5E2E2E2F5F5F5F5F5F5F5F5E2E2E2F5F5F5F5F5F5F5E2F5F5F5F5F5F5F5F5F5F5F5F5F5E2E2F5F5F5E2F5F5F5E2F5E2F5F5F5F5F5F5F5F5F5F5F5F5F5E2F5F5F5E2F5F5F5F5F5F5F5F5F5F5F5F5F5F5F5F5F5F5F5F5F5F5F5F5F5F5F5F5F5F5F5
310
F5F5F5F5F5F5F5F5F5F5F5F5F5F5E2F5F5E2F5F5F5F5F5F5F5F5F5F5F5F5F5F5F5F5F5F5F5F5F5F5F5F5F5F5F5F5F5F5F5F5F5F5F5F5F5F5F5E2F5F5F5F5F5F5E2E2EFE2F5F5F5F5F5F5E2F5F5F5F5F5F5F5F5F5F5E2F5F5F5F5F5F5F5F5F5E2E2F5F5F5F5F5F5F5F5E2F5F5F5F5F5F5F5F5F5F5F5F5F5E2E2F5F5F5E2F5F5
310
F5E2F5E2F5F5F5F5F5F5F5F5F5F5F5F5F5E2F5F5F5E2F5F5F5F5F5F5F5F5F5F5F5F5F5F5F5F5F5F5F5F5F5F5F5F5F5F5F5F5F5F5F5F5F5F5F5F5F5F5F5F5F5F5F5F5F5E2F5E2F5F5F5F5F5F5F5F5F5F5F5F5E2F5F5F5F5F5F5F5F5F5F5F5F5F5F5F5F5F5F5F5F5F5F5F5F5F5F5F5E2F5F5F5F5F5F5E2E2EFE2F5F5F5F5F5F5
310
E2F5F5F5F5F5F5F5F5F5F5E2F5F5F5F5F5F5F5F5F5F5E2F5F5F5F5F5F5F5F5E2F5F5F5F5F5F5F5F5F5F5F5F5F5E2E2F5F5F5E2F5F5F5E2F5E2F5F5F5F5F5F5F5F5F5F5F5F5F5E2F5F5F5E2F5F5F5F5F5F5F5F5F5F5F5F5F5F5F5F5F5F5F5F5F5F5F5F5F5F5F5F5F5F5F5F5F5F5F5F5F5F5F5F5F5F5F5F5F5E2E2F5F5F5F5F5
310
F5F5F5F5F5F5F5F5E2F5F5F5F5F5F5F5F5F5F5F5F5F5F5F5F5F5F5F5F5F5F5F5F5F5F5F5E2F5F5F5F5F5F5E2E2EFE2F5F5E2F5F5F5E2F5F5F5F5F5F5F5F5F5E2E2E2F5E2E2E2E2E2F5E2E2E2E2E2E2E2E2E2E2F5E2E2E2E2E2F5E2E2E2E2E2E2E2E2E2E2F5F5F5F5F5F5F5F5E2E2F5F5F5F5F5F5F5F5F5F5F5F5F5F5F5F5F5
310
E2F5F5F5F5F5F5F5F5F5F5F5F5F5F5F5F5F5F5F5F5F5F5F5F5F5F5F5F5F5F5F5F5F5F5F5F5F5F5F5F5F5F5F5F5F5E2F5F5F5F5F5F5F5F5F5F5F5F5F5F5E2F5F5F5F5F5F5F5F5F5F5F5F5F5F5F5F5F5F5F5F5F5F5F5F5F5F5F5E2F5F5F5E2F5F5E2E2EFE2F5F5E2F5F5F5E2F5F5F5F5F5F5F5F5F5F5F5F5F5F5F5F5F5F5F5F5
310
F5F5F5F5F5F5F5F5F5F5E2F5F5F5F5F5F5F5F5F5F5F5F5F5F5F5F5F5F5E2F5F5F5F5F5F5F5F5F5F5F5F5F5F5F5F5F5F5F5E2F5F5F5E2F5F5F5F5F5F5F5F5F5F5F5F5F5F5F5F5F5F5F5F5F5F5F5F5F5F5F5F5F5F5F5F5F5F5F5F5F5F5F5F5F5F5F5F5F5F5F5F5F5F5F5F5F5F5F5F5F5F5F5F5E2F5F5F5F5F5F5F5F5F5F5F5F5
310
F5F5F5F5F5F5F5F5F5F5F5F5F5F5F5E2F5F5F5E2F5F5E2E2EFE2F5F5E2F5F5F5E2F5F5F5F5F5F5F5F5F5F5F5F5F5F5F5F5F5F5F5F5F5F5F5F5F5F5F5F5F5F5E2F5F5F5F5F5F5F5F5F5F5F5F5F5F5F5F5F5F5E2F5F5F5F5F5F5F5F5F5F5F5F5F5F5F5F5F5F5F5E2F5F5F5F5F5F5F5F5F5F5F5F5F5F5F5F5F5F5F5F5F5F5F5F5
310
F5F5F5F5F5F5F5F5F5F5F5F5F5F5F5F5F5F5F5F5F5F5F5F5F5F5F5F5F5F5F5F5F5F5F5F5F5F5F5F5E2F5F5F5F5F5F5F5F5F5F5F5F5F5F5F5F5F5F5F5F5F5F5F5F5F5F5F5E2F5F5F5E2F5F5E2E2EFE2F5F5E2F5F5F5E2F5F5F5F5F5F5F5F5F5F5F5F5F5F5F5F5F5F5F5F5F5F5F5F5F5F5F5F5F5F5E2F5F5F5F5F5F5F5F5F5F5
310
F5F5F5F5F5F5F5F5E2F5F5F5F5F5F5F5F5F5F5F5F5F5F5F5F5F5F5F5E2F5F5F5E2F5F5F5E2E2F5E2E2F5E2F5E2F5F5E2E2E2F5F5E2F5F5F5F5F5F5F5F5F5F5F5F5F5F5F5F5F5F5F5F5F5F5F5F5F5F5F5F5F5F5F5F5F5F5F5F5F5F5F5F5F5F5F5F5E2F5F5E2E2E2F5E2F5F5E2E2E2F5F5E2F5F5F5F5F5F5F5F5E2F5F5F5E2F5
310
F5E2E2EFE2F5F5E2F5F5F5E2F5F5F5F5F5F5F5F5F5F5F5F5F5F5F5F5F5F5F5F5F5F5F5F5F5F5F5F5F5F5E2F5F5F5F5F5F5F5F5F5F5F5F5F5F5F5F5F5F5E2F5F5F5F5F5F5F5F5F5F5F5F5F5F5F5F5F5F5F5E2F5F5F5E2E2E2E2E2E2E2E2F5F5F5E2E2E2E2F5E2E2F5E2E2F5F5F5F5F5F5F5F5F5F5F5F5F5F5F5F5F5F5F5F5F5
310
F5F5F5F5F5F5F5F5F5F5F5F5F5F5F5F5F5F5F5E2E2E2F5E2E2E2E2F5F5E2E2E2E2F5E2E2F5E2E2F5E2F5F5F5F5F5F5E2F5F5F5E2F5F5E2E2EFE2F5F5E2F5F5F5E2F5F5F5F5F5F5F5F5F5F5F5F5F5F5F5F5F5F5F5F5F5F5F5F5F5F5F5F5F5F5E2F5F5F5F5F5F5F5F5F5F5F5F5F5F5F5F5F5F5E2F5F5F5F5F5F5F5F5F5F5F5F5
310
F5F5F5F5F5F5F5E2F5F5F5E2E2F5F5E2E2E2E2E2F5E2E2E2E2E2E2E2E2F5E2E2F5E2F5F5F5F5F5F5F5F5F5F5F5F5F5F5F5F5F5F5F5F5F5F5F5F5F5F5F5F5F5F5F5F5F5F5F5F5F5F5E2E2F5E2E2E2E2E2F5E2E2E2E2E2E2E2E2F5E2E2F5F5E2F5F5F5F5F5E2F5F5F5E2F5F5E2E2EFE2F5F5E2F5F5F5E2F5F5F5F5F5F5F5F5F5
310
F5F5F5F5F5F5F5F5F5F5F5F5F5F5F5F5F5F5F5F5F5F5F5F5F5F5F5F5F5F5F5F5F5F5F5F5F5F5F5F5F5F5F5F5F5F5F5F5F5F5F5F5F5F5F5F5F5F5F5F5F5F5F5F5E2E2F5E2E2F5E2E2F5F5F5E2F5E2F5F5E2E2F5E2F5F5F5E2F5F5F5F5F5F5F5F5F5F5F5F5F5F5F5F5F5F5F5F5F5F5F5F5F5F5F5F5F5F5F5F5F5F5F5F5F5E2E2
310
F5F5E2E2E2E2E2F5E2F5E2F5F5E2E2F5E2F5F5F5E2F5F5F5F5F5E2F5F5F5E2F5F5E2E2EFE2F5F5E2F5F5F5E2F5F5F5F5F5F5F5F5F5F5F5F5F5F5F5F5F5F5F5F5F5F5F5F5F5F5F5F5F5F5E2F5F5F5E2E2F5F5F5F5F5F5F5F5E2E2F5F5F5E2F5F5F5E2E2F5F5F5F5F5F5F5F5F5E2E2F5F5F5E2F5F5F5F5E2E2E2F5E2E2E2E2F5
310
E2F5E2E2E2F5E2E2E2E2E2E2F5E2F5F5F5F5F5F5F5F5F5F5F5F5F5F5F5F5F5F5F5F5F5F5F5F5F5F5F5F5F5F5F5F5F5F5F5F5F5E2E2E2E2E2E2E2E2F5E2F5E2E2E2F5E2E2E2E2E2E2F5E2F5F5F5F5F5E2F5F5F5E2F5F5E2E2EFE2F5F5E2F5F5F5E2F5F5F5F5F5F5F5F5F5F5F5F5F5F5F5F5F5F5F5F5F5F5F5F5F5F5F5F5F5F5
310
E2F5E2E2F5F5F5F5F5F5F5F5F5F5F5F5E2E2F5E2F5E2E2F5F5F5F5F5F5F5F5F5F5F5F5F5E2E2F5E2F5F5F5E2E2F5F5E2E2E2E2F5F5F5E2F5E2F5F5F5E2F5E2F5F5F5E2F5F5F5F5F5F5F5F5F5F5F5F5F5F5F5F5F5F5F5F5F5F5F5F5F5F5F5F5F5F5F5F5F5F5F5F5F5E2E2F5F5E2E2E2E2F5F5E2F5E2F5F5F5E2F5E2F5F5E2F5
310
F5F5F5F5F5E2F5F5F5E2F5F5E2E2EFE2F5F5E2F5F5F5E2F5F5F5F5F5F5F5F5F5F5F5F5F5F5F5F5F5F5F5F5F5F5F5F5F5F5F5F5F5F5E2E2E2E2E2E2E2E2E2E2E2E2E2E2E2E2E2E2E2E2E2E2E2E2E2E2E2E2E2F5E2E2E2E2E2E2E2E2E2E2F5F5F5E2F5F5F5F5F5F5F5F5F5F5F5F5F5F5F5F5F5F5F5F5F5E2F5F5F5F5F5F5F5F5
310
F5F5F5F5F5F5F5F5F5F5F5F5F5F5F5F5F5F5F5F5F5F5F5F5F5F5F5F5F5F5F5F5F5F5F5F5F5F5F5F5F5F5F5F5F5F5F5F5F5F5F5F5F5F5F5F5F5F5E2F5F5F5E2F5F5E2E2EFE2F5F5E2F5F5F5E2F5F5F5F5F5F5F5F5F5F5F5F5F5F5F5F5F5F5F5F5F5F5F5F5F5F5F5F5F5F5F5F5F5E2E2E2F5F5F5F5F5F5F5F5E2E2E2F5F5F5F5
310
F5E2E2E2F5F5F5F5F5F5F5F5F5E2E2E2F5F5F5F5F5F5E2F5F5F5F5F5F5F5F5F5F5F5F5F5F5F5F5F5F5F5F5F5F5F5F5F5F5F5F5F5F5F5F5F5F5F5F5F5F5F5F5F5F5F5F5F5F5F5F5F5F5F5F5F5F5F5F5F5F5F5F5E2F5F5F5F5F5F5E2E2E2E2F5F5F5F5F5F5F5F5F5F5F5F5F5F5F5F5F5E2F5F5F5E2F5F5E2E2EFE2F5F5E2F5F5
310
F5E2F5F5F5F5F5F5F5F5F5F5F5F5F5F5F5F5F5F5F5F5F5F5F5F5F5F5F5F5F5F5F5F5F5F5F5F5F5F5E2E2E2F5F5F5F5F5F5F5F5F5F5F5F5F5F5F5F5F5E2E2E2F5F5F5F5F5F5F5F5F5F5F5F5E2F5F5F5F5F5E2F5F5F5F5F5F5F5F5F5F5F5F5F5F5F5F5F5F5F5F5F5F5F5F5F5F5F5F5F5F5F5F5F5F5F5F5F5F5F5F5F5F5F5F5F5
310
F5F5F5F5F5F5F5F5F5E2F5F5F5F5F5F5E2E2E2E2F5F5F5F5F5F5F5F5F5F5F5F5F5F5F5F5F5E2F5F5F5E2F5F5E2E2EFE2F5F5E2F5F5F5E2F5F5F5F5F5F5F5F5F5F5F5F5F5F5F5F5F5F5F5F5F5F5F5F5F5F5F5F5F5F5F5F5F5F5F5F5F5E2F5E2E2F5F5F5F5F5F5F5F5F5F5F5F5F5F5F5F5E2F5E2E2F5F5F5F5F5F5F5F5F5F5F5
310
F5E2F5F5F5F5F5E2E2E2F5F5F5F5F5F5F5F5F5F5F5F5F5F5F5F5F5F5F5F5F5F5F5F5F5F5F5F5F5F5F5F5F5F5F5F5F5F5F5F5F5F5F5F5F5F5F5F5F5F5F5F5E2F5F5F5F5F5F5E2F5F5F5F5F5F5F5F5F5F5F5F5F5F5F5F5F5F5F5F5E2F5F5F5E2F5F5E2E2EFE2F5F5E2F5F5F5E2F5F5F5F5F5F5F5F5F5F5F5F5F5F5F5F5F5F5F5
310
F5F5F5F5F5F5F5F5F5F5F5F5F5F5F5F5F5F5E2F5F5F5F5F5F5F5F5F5F5F5F5F5F5F5F5F5F5F5E2F5F5F5F5F5F5F5F5F5F5F5F5F5F5F5E2E2E2E2E2E2E2F5F5F5F5F5F5F5F5F5F5F5F5F5F5F5F5F5F5F5F5F5F5F5F5F5F5F5F5F5F5F5F5F5F5F5F5F5F5F5F5F5F5F5F5F5F5F5F5F5F5F5F5F5F5E2E2E2E2E2E2F5E2E2E2E2F5
310
F5F5F5F5F5F5F5F5F5F5F5F5F5F5F5F5E2F5F5F5E2F5F5E2E2EFE2F5F5E2F5F5F5E2F5F5F5F5F5F5F5F5F5F5F5F5F5F5F5F5F5F5F5F5F5F5F5F5F5F5F5F5F5F5F5F5F5F5F5F5F5E2E2E2E2F5F5F5F5F5F5F5F5F5F5F5F5F5F5F5F5E2E2E2E2F5F5F5F5F5F5F5F5F5F5F5F5F5F5F5F5F5F5E2E2E2E2F5F5F5F5F5F5F5F5F5F5
310
F5F5F5F5F5F5F5F5F5F5F5F5F5F5F5F5F5F5F5F5F5F5F5F5F5F5F5F5F5F5F5F5F5F5F5F5F5F5F5F5F5F5F5F5F5F5F5F5F5F5F5F5F5F5F5F5F5F5F5F5F5F5F5F5F5F5F5F5F5E2F5F5F5E2F5F5E2E2EFE2F5F5F5F5F5F5E2F5F5F5F5F5F5F5F5F5F5F5F5F5F5F5F5F5F5F5F5F5F5F5F5F5F5F5F5F5F5F5F5F5F5F5F5F5F5F5F5
310
F5F5F5F5F5F5F5F5F5F5F5F5F5F5F5F5F5F5F5F5F5F5F5F5F5F5F5F5F5F5F5F5F5F5F5F5F5F5F5F5F5F5F5F5F5F5F5F5F5F5F5F5F5F5F5F5F5F5F5F5F5F5F5F5F5F5F5F5F5F5F5F5F5F5F5F5F5F5F5F5F5F5F5F5F5F5F5F5F5F5F5F5F5F5F5F5F5F5F5F5F5F5F5F5F5F5F5F5F5F5F5F5F5F5F5F5F5F5F5F5F5F5E2F5F5F5F5
310
F5F5E2E2EFE2F5F5F5F5F5F5E2F5F5F5F5F5F5F5F5F5F5F5F5F5F5F5F5F5F5F5F5F5F5F5F5F5F5F5F5F5F5F5F5F5F5F5F5F5F5F5F5F5F5F5F5F5F5F5F5F5F5F5F5F5F5F5F5F5F5F5F5F5F5F5F5F5F5F5F5F5F5F5F5F5F5F5F5F5F5F5F5F5F5F5F5F5F5F5F5F5F5F5F5F5F5F5F5F5F5F5F5F5F5F5F5F5F5F5F5F5F5F5F5F5F5
310
F5F5F5F5F5F5F5F5F5F5F5F5F5F5F5F5F5F5F5F5F5F5F5F5F5F5F5F5F5F5F5F5F5F5F5F5F5F5F5F5F5F5F5F5F5F5F5F5E2F5F5F5F5F5F5E2E2EFE2F5F5F5F5F5F5E2F5F5F5F5F5F5F5F5F5F5F5F5F5F5F5F5F5F5F5F5F5F5F5F5F5F5F5F5F5F5F5F5F5F5F5F5F5F5F5F5F5F5F5F5F5F5F5F5F5F5F5F5F5F5F5F5F5F5F5F5F5
310
F5F5F5F5F5F5F5F5F5F5F5F5F5F5F5F5F5F5F5F5F5F5F5F5F5F5F5F5F5F5F5F5F5F5F5F5F5F5F5F5F5F5F5F5F5F5F5F5F5F5F5F5F5F5F5F5F5F5F5F5F5F5F5F5F5F5F5F5F5F5F5F5F5F5F5F5F5F5F5F5F5F5F5F5F5F5F5F5F5F5F5F5F5F5F5F5F5F5F5F5F5E2F5F5F5F5F5F5E2E2EFE2F5F5F5F5F5F5E2F5F5F5F5F5F5F5F5
310
F5F5F5F5F5F5F5F5F5F5F5F5F5F5F5F5F5F5F5F5F5F5F5F5F5F5F5F5F5F5F5F5F5F5F5F5F5F5F5F5F5F5F5F5F5F5F5F5F5F5F5F5F5F5F5F5F5F5F5F5F5F5F5F5F5F5F5F5F5F5F5F5F5F5F5F5F5F5F5F5F5F5F5F5F5F5F5F5F5F5F5F5F5F5F5F5F5F5F5F5F5F5F5F5F5F5F5F5F5F5F5F5F5F5F5F5F5F5F5F5F5F5F5F5F5F5F5
310
F5F5F5F5F5F5F5F5F5F5F5F5F5F5F5F5F5F5F5F5F5F5F5F5F5F5F5E2F5F5F5F5F5F5E2E2EFE2F5F5F5F5F5F5E2F5F5F5F5F5F5F5F5F5F5F5F5F5F5F5F5F5F5F5F5F5F5F5F5F5F5F5F5F5F5F5F5F5F5F5F5F5F5F5F5F5F5F5F5F5F5F5F5F5F5F5F5F5F5F5F5F5F5F5F5F5F5F5F5F5F5F5F5F5F5F5F5F5F5F5F5F5F5F5F5F5F5
310
F5F5F5F5F5F5F5F5F5F5F5F5F5F5F5F5F5F5F5F5F5F5F5F5F5F5F5F5F5F5F5F5F5F5F5F5F5F5F5F5F5F5F5F5F5F5F5F5F5F5F5F5F5F5F5F5F5F5F5F5F5F5F5F5F5F5F5F5F5F5F5F5F5F5F5F5F5F5F5F5E2F5F5F5F5F5F5E2E2EFE2F5F5F5F5F5F5E2F5F5F5F5F5F5F5F5F5F5F5F5F5F5F5F5F5F5F5F5F5F5F5F5F5F5F5F5F5
310
F5F5F5F5F5F5F5F5F5F5F5F5F5F5F5F5F5F5F5F5F5F5F5F5F5F5F5F5F5F5F5F5F5F5F5F5F5F5F5F5F5F5F5F5F5F5F5F5F5F5F5F5F5F5F5F5F5F5F5F5F5F5F5F5F5F5F5F5F5F5F5F5F5F5F5F5F5F5F5F5F5F5F5F5F5F5F5F5F5F5F5F5F5F5F5F5F5F5F5F5F5F5F5F5F5F5F5F5F5F5F5F5F5F5F5F5F5F5F5F5F5F5F5F5F5F5F5
310
F5F5F5F5F5F5E2F5F5F5F5F5F5E2E2EFE2F5F5F5F5F5F5E2F5F5F5F5F5F5F5F5F5F5F5F5F5F5F5F5F5F5F5F5F5F5F5F5F5F5F5F5F5F5F5F5F5F5F5F5F5F5F5F5F5F5F5F5F5F5F5F5F5F5F5F5F5F5F5F5F5F5F5F5F5F5F5F5F5F5F5F5F5F5F5F5F5F5F5F5F5F5F5F5F5F5F5F5F5F5F5F5F5F5F5F5F5F5F5F5F5F5F5F5F5F5F5
310
F5F5F5F5F5F5F5F5F5F5F5F5F5F5F5F5F5F5F5F5F5F5F5F5F5F5F5F5F5F5F5F5F5F5F5F5F5F5F5F5F5F5F5F5F5F5F5F5F5F5F5F5F5F5F5F5F5F5F5E2F5F5F5F5F5F5E2E2EFE2F5F5F5F5F5F5E2F5F5F5F5F5F5F5F5F5F5F5F5F5F5F5F5F5F5F5F5F5F5F5F5F5F5F5F5F5F5F5F5F5F5F5F5F5F5F5F5F5F5F5F5F5F5F5F5F5F5
310
F5F5F5F5F5F5F5F5F5F5F5F5F5F5F5F5F5F5F5F5F5F5F5F5F5F5F5F5F5F5F5F5F5F5F5F5F5F5F5F5F5F5F5F5F5F5F5F5F5F5F5F5F5F5F5F5F5F5F5F5F5F5F5F5F5F5F5F5F5F5F5F5F5F5F5F5F5F5F5F5F5F5F5F5F5F5F5F5F5F5F5F5F5F5F5F5F5F5F5F5F5F5F5F5F5F5F5F5F5F5F5F5E2F5F5F5F5F5F5E2E2EFE2F5F5F5F5
310
F5F5E2F5F5F5F5F5F5F5F5F5F5F5F5F5F5F5F5F5F5F5F5F5F5F5F5F5F5F5F5F5F5F5F5F5F5F5F5F5F5F5F5F5F5F5F5F5F5F5F5F5F5F5F5F5F5F5F5F5F5F5F5F5F5F5F5F5F5F5F5F5F5F5F5F5F5F5F5F5F5F5F5F5F5F5F5F5F5F5F5F5F5F5F5F5F5F5F5F5F5F5F5F5F5F5F5F5F5F5F5F5F5F5F5F5F5F5F5F5F5F5F5F5F5F5F5
310
F5F5F5F5F5F5F5F5F5F5F5F5F5F5F5F5F5F5F5F5F5F5F5F5F5F5F5F5F5F5F5F5F5F5F5F5F5F5E2F5F5F5F5F5F5E2E2EFE2F5F5E2F5F5F5E2F5F5F5F5F5F5F5F5F5F5F5F5F5F5F5F5F5F5F5F5F5F5F5F5F5F5F5F5F5F5F5F5F5F5F5F5F5F5F5F5F5F5F5F5F5F5F5F5F5F5F5F5F5F5F5F5F5F5F5F5F5F5F5F5F5F5F5F5F5F5F5
310
F5F5F5F5F5F5F5F5F5F5F5F5F5F5F5F5F5F5F5F5F5F5F5F5F5F5F5F5F5F5F5F5F5F5F5F5F5F5F5F5F5F5F5F5F5F5F5F5F5F5F5F5F5F5F5F5F5F5F5F5F5F5F5F5F5F5F5F5F5F5F5F5F5F5F5F5F5F5F5F5F5F5F5F5F5F5F5F5F5F5F5E2F5F5F5E2F5F5E2E2EFE2F5F5E2F5F5F5E2F5F5F5F5F5F5F5F5F5F5F5F5F5F5F5F5F5F5
310
F5F5F5F5F5F5F5F5F5F5F5F5F5F5F5F5F5F5F5F5F5F5F5F5F5F5F5F5F5F5F5F5F5F5F5F5F5F5F5F5F5F5F5F5F5F5F5F5F5F5F5F5F5F5F5F5F5F5F5F5F5F5F5F5F5F5F5F5F5F5F5F5F5F5F5F5F5F5F5F5F5F5F5F5F5F5F5F5F5F5F5F5F5F5F5F5F5F5F5F5F5F5F5F5F5F5F5F5F5F5F5F5F5F5F5F5F5F5F5F5F5F5F5F5F5F5F5
310
F5F5F5F5F5F5F5F5F5F5F5F5F5F5F5F5F5E2F5F5F5E2F5F5E2E2EFE2F5F5E2F5F5F5E2F5F5F5F5F5F5F5F5F5F5F5F5F5F5F5F5F5F5F5F5F5F5F5F5F5F5F5F5F5F5F5F5F5F5F5F5F5F5F5F5F5F5F5F5F5F5F5F5F5F5F5F5F5F5F5F5F5F5F5F5F5F5F5F5F5F5F5F5F5F5F5F5F5F5F5F5F5F5F5F5F5F5F5F5F5F5F5F5F5F5F5F5
310
F5F5F5F5F5F5F5F5F5F5F5F5F5F5F5F5F5F5F5F5F5F5F5F5F5F5F5F5F5F5F5F5F5F5F5F5F5F5F5F5F5F5F5F5F5F5F5F5F5F5F5F5F5F5F5F5F5F5F5F5F5F5F5F5F5F5F5F5F5F5E2F5F5F5E2F5F5E2E2EFE2F5F5E2F5F5F5E2F5F5F5F5F5F5F5F5F5F5F5F5F5F5F5F5F5F5F5F5F5F5F5F5F5F5F5F5F5F5F5F5F5F5F5F5F5F5F5
310
F5F5F5F5F5F5F5F5F5F5F5F5F5F5F5F5F5F5F5F5F5F5F5F5F5F5F5F5F5F5F5F5F5F5F5F5F5F5F5F5F5F5F5F5F5F5F5F5F5F5F5F5F5F5F5F5F5F5F5F5F5F5F5F5F5F5F5F5F5F5F5F5F5F5F5F5F5F5F5F5F5F5F5F5F5F5F5F5F5F5F5F5F5F5F5F5F5F5F5F5F5F5F5F5F5F5F5F5F5F5F5F5F5F5F5F5F5F5F5F5F5F5F5E2F5F5F5
310
E2F5F5E2E2EFE2F5F5E2F5F5F5E2F5F5F5F5F5F5F5F5F5F5F5F5F5F5F5F5F5F5F5F5F5F5F5F5F5F5F5F5F5F5F5F5F5F5F5F5F5F5F5F5F5F5F5F5F5F5F5F5F5F5F5F5F5F5F5F5F5F5F5F5F5F5F5F5F5F5F5F5F5F5F5F5F5F5F5F5F5F5F5F5F5F5F5F5F5F5F5F5F5F5F5F5F5F5F5F5F5F5F5F5F5F5F5F5F5F5F5F5F5F5F5F5F5
310
F5F5F5F5F5F5F5F5F5F5F5F5F5F5F5F5F5F5F5F5F5F5F5F5F5F5F5F5F5F5F5F5F5F5F5F5F5F5F5F5F5F5F5F5F5F5F5F5F5E2F5F5F5E2F5F5E2E2EFE2F5F5E2F5F5F5E2F5F5F5F5F5F5F5F5F5F5F5F5F5F5F5F5F5F5F5F5F5F5F5F5F5F5F5F5F5F5F5F5F5F5F5F5F5F5F5F5F5F5F5F5F5F5F5F5F5F5F5F5F5F5F5F5F5F5F5F5
310
F5F5F5F5F5F5F5F5F5F5F5F5F5F5F5F5F5F5F5F5F5F5F5F5F5F5F5F5F5F5F5F5F5F5F5F5F5F5F5F5F5F5F5F5F5F5F5F5F5F5F5F5F5F5F5F5F5F5F5F5F5F5F5F5F5F5F5F5F5F5F5F5F5F5F5F5F5F5F5F5F5F5F5F5F5F5F5F5F5F5F5F5F5F5F5F5F5F5F5F5F5F5E2F5F5F5E2F5F5E2E2EFE2F5F5E2F5F5F5E2E2E2E2E2E2E2E2
310
E2E2E2E2E2E2E2E2E2E2E2E2E2E2E2E2E2E2E2E2E2E2E2E2E2E2E2E2E2E2E2E2E2E2E2E2E2E2E2E2E2E2E2E2E2E2E2E2E2E2E2E2E2E2E2E2E2E2E2E2E2E2E2E2E2E2E2E2E2E2E2E2E2E2E2E2E2E2E2E2E2E2E2E2E2E2E2E2E2E2E2E2E2E2E2E2E2E2E2E2E2E2E2E2E2E2E2E2E2E2E2E2E2E2E2E2E2E2E2E2E2E2E2E2E2E2E2
310
E2E2E2E2E2E2E2E2E2E2E2E2E2E2E2E2E2E2E2E2E2E2E2E2E2E2E2E2E2F5F5F5E2F5F5E2E2EFE2F5F5E2E2E2E2E2E2E2E2F5F5F5F5F5F5F5F5F5E2E2E2E2E2E2E2E2E2E2E2E2E2E2E2E2F5F5F5F5F5F5F5F5F5E2E2E2E2E2E2E2E2E2E2E2E2E2E2E2F5F5F5F5F5F5F5F5F5E2E2E2E2E2E2E2E2E2E2E2E2E2E2E2E2F5F5F5F5
310
F5F5F5F5E2E2E2E2E2E2E2E2E2E2E2E2E2E2E2E2F5F5F5F5F5F5F5F5F5E2E2E2E2E2E2E2E2E2E2E2E2E2E2E2F5F5F5F5F5F5F5F5F5E2E2E2E2E2E2E2E2E2E2E2E2E2E2E2E2F5F5F5F5F5F5F5F5F5E2E2E2E2E2E2E2E2F5F5E2E2EFE2F5F5F5F5F5F5F5F5F5F5F5F5F5F5F5F5F5F5F5F5F5F5F5F5F5F5F5F5F5F5F5F5F5F5F5
310
F5F5F5F5F5F5F5F5F5F5F5F5F5F5F5F5F5F5F5F5F5F5F5F5F5F5F5F5F5F5F5F5F5F5F5F5F5F5F5F5F5F5F5F5F5F5F5F5F5F5F5F5F5F5F5F5F5F5F5F5F5F5F5F5F5F5F5F5F5F5F5F5F5F5F5F5F5F5F5F5F5F5F5F5F5F5F5F5F5F5F5F5F5F5F5F5F5F5F5F5F5F5F5F5F5F5F5F5F5F5F5F5F5F5F5F5F5F5F5F5F5F5F5F5F5F5F5
310
F5F5F5F5F5F5F5F5F5F5F5F5F5F5E2E2EFE2F5F5F5F5F5F5F5F5F5F5F5F5F5F5F5F5F5F5F5F5F5F5F5F5F5F5F5F5F5F5F5F5F5F5F5F5F5F5F5F5F5F5F5F5F5F5F5F5F5F5F5F5F5F5F5F5F5F5F5F5F5F5F5F5F5F5F5F5F5F5F5F5F5F5F5F5F5F5F5F5F5F5F5F5F5F5F5F5F5F5F5F5F5F5F5F5F5F5F5F5F5F5F5F5F5F5F5F5F5
310
F5F5F5F5F5F5F5F5F5F5F5F5F5F5F5F5F5F5F5F5F5F5F5F5F5F5F5F5F5F5F5F5F5F5F5F5F5F5F5F5F5F5F5F5F5F5F5F5F5F5F5F5F5F5F5F5F5F5F5F5F5F5F5F5F5F5F5E2E2EFE2F5F5F5F5F5F5F5F5F5F5F5F5F5F5F5F5F5F5F5F5F5F5F5F5F5F5F5F5F5F5F5F5F5F5F5F5F5F5F5F5F5F5F5F5F5F5F5F5F5F5F5F5F5F5F5F5
310
F5F5F5F5F5F5F5F5F5F5F5F5F5F5F5F5F5F5F5F5F5F5F5F5F5F5F5F5F5F5F5F5F5F5F5F5F5F5F5F5F5F5F5F5F5F5F5F5F5F5F5F5F5F5F5F5F5F5F5F5F5F5F5F5F5F5F5F5F5F5F5F5F5F5F5F5F5F5F5F5F5F5F5F5F5F5F5F5F5F5F5F5F5F5F5F5F5F5F5F5F5F5F5F5F5F5F5F5F5F5F5F5F5F5F5F5F5F5F5F5E2EFEFE2E2E2E2
310
E2E2E2E2E2E2E2E2E2E2E2E2E2E2E2E2E2E2E2E2E2E2E2E2E2E2E2E2E2E2E2E2E2E2E2E2E2E2E2E2E2E2E2E2E2E2E2E2E2E2E2E2E2E2E2E2E2E2E2E2E2E2E2E2E2E2E2E2E2E2E2E2E2E2E2E2E2E2E2E2E2E2E2E2E2E2E2E2E2E2E2E2E2E2E2E2E2E2E2E2E2E2E2E2E2E2E2E2E2E2E2E2E2E2E2E2E2E2E2E2E2E2E2E2E2E2E2
310
E2E2E2E2E2E2E2E2E2E2E2E2E2E2E2E2E2E2E2E2E2E2E2E2E2E2E2E2E2E2E2E2E2E2E2E2E2E2E2E2E2E2E2E2E2E2E2EF
  0
XRECORD
  5
7754
102
{ACAD_REACTORS
330
7753
102
}
330
7753
100
AcDbXrecord
280
     1
102
SHADEPLOT
 70
     0
102
SHADEPLOTRESLEVEL
 70
     2
102
SHADEPLOTCUSTOMDPI
 70
   300
  0
XRECORD
  5
76AB
102
{ACAD_REACTORS
330
76AA
102
}
330
76AA
100
AcDbXrecord
280
     1
102
MATERIAL
148
0.0
149
0.0
149
0.0
 93
        0
 94
       63
282
     0
 72
     1
 77
     1
171
     1
175
     1
179
     1
273
     0
  0
XRECORD
  5
76A9
102
{ACAD_REACTORS
330
76A8
102
}
330
76A8
100
AcDbXrecord
280
     1
102
MATERIAL
148
0.0
149
0.0
149
0.0
 93
        0
 94
       63
282
     0
 72
     1
 77
     1
171
     1
175
     1
179
     1
273
     0
  0
XRECORD
  5
76AD
102
{ACAD_REACTORS
330
76AC
102
}
330
76AC
100
AcDbXrecord
280
     1
102
MATERIAL
148
0.0
149
0.0
149
0.0
 93
        0
 94
       63
282
     0
 72
     1
 77
     1
171
     1
175
     1
179
     1
273
     0
  0
XRECORD
  5
7756
102
{ACAD_REACTORS
330
7755
102
}
330
7755
100
AcDbXrecord
280
     1
102
SHADEPLOT
 70
     0
102
SHADEPLOTRESLEVEL
 70
     2
102
SHADEPLOTCUSTOMDPI
 70
   300
  0
XRECORD
  5
7758
102
{ACAD_REACTORS
330
7757
102
}
330
7757
100
AcDbXrecord
280
     1
102
ACAD_ROUNDTRIP_PRE2007_TABLESTYLE
 90
      512
 91
        0
  1

 92
      512
 93
        0
  2

 94
      512
 95
        0
  3

  0
ENDSEC
  0
EOF
