  0
SECTION
  2
HEADER
  9
$ACADVER
  1
AC1015
  9
$ACADMAINTVER
 70
    20
  9
$DWGCODEPAGE
  3
ANSI_932
  9
$INSBASE
 10
0.0
 20
0.0
 30
0.0
  9
$EXTMIN
 10
189.0305193234901
 20
2195.93975340262
 30
0.0
  9
$EXTMAX
 10
379.7825193234901
 20
2364.116927326427
 30
0.0
  9
$LIMMIN
 10
0.0
 20
0.0
  9
$LIMMAX
 10
420.0
 20
297.0
  9
$ORTHOMODE
 70
     1
  9
$REGENMODE
 70
     1
  9
$FILLMODE
 70
     1
  9
$QTEXTMODE
 70
     0
  9
$MIRRTEXT
 70
     0
  9
$LTSCALE
 40
1.0
  9
$ATTMODE
 70
     1
  9
$TEXTSIZE
 40
2.5
  9
$TRACEWID
 40
1.0
  9
$TEXTSTYLE
  7
Standard
  9
$CLAYER
  8
Viewport
  9
$CELTYPE
  6
ByLayer
  9
$CECOLOR
 62
   256
  9
$CELTSCALE
 40
1.0
  9
$DISPSILH
 70
     0
  9
$DIMSCALE
 40
1.0
  9
$DIMASZ
 40
2.5
  9
$DIMEXO
 40
1.0
  9
$DIMDLI
 40
7.0
  9
$DIMRND
 40
0.0
  9
$DIMDLE
 40
0.0
  9
$DIMEXE
 40
1.0
  9
$DIMTP
 40
0.0
  9
$DIMTM
 40
0.0
  9
$DIMTXT
 40
2.5
  9
$DIMCEN
 40
0.0
  9
$DIMTSZ
 40
0.0
  9
$DIMTOL
 70
     0
  9
$DIMLIM
 70
     0
  9
$DIMTIH
 70
     0
  9
$DIMTOH
 70
     0
  9
$DIMSE1
 70
     0
  9
$DIMSE2
 70
     0
  9
$DIMTAD
 70
     1
  9
$DIMZIN
 70
     8
  9
$DIMBLK
  1

  9
$DIMASO
 70
     1
  9
$DIMSHO
 70
     1
  9
$DIMPOST
  1

  9
$DIMAPOST
  1

  9
$DIMALT
 70
     0
  9
$DIMALTD
 70
     2
  9
$DIMALTF
 40
0.0394
  9
$DIMLFAC
 40
1.0
  9
$DIMTOFL
 70
     1
  9
$DIMTVP
 40
0.0
  9
$DIMTIX
 70
     1
  9
$DIMSOXD
 70
     1
  9
$DIMSAH
 70
     0
  9
$DIMBLK1
  1

  9
$DIMBLK2
  1

  9
$DIMSTYLE
  2
JIS
  9
$DIMCLRD
 70
     0
  9
$DIMCLRE
 70
     0
  9
$DIMCLRT
 70
     0
  9
$DIMTFAC
 40
1.0
  9
$DIMGAP
 40
0.0
  9
$DIMJUST
 70
     0
  9
$DIMSD1
 70
     0
  9
$DIMSD2
 70
     0
  9
$DIMTOLJ
 70
     1
  9
$DIMTZIN
 70
     0
  9
$DIMALTZ
 70
     0
  9
$DIMALTTZ
 70
     0
  9
$DIMUPT
 70
     0
  9
$DIMDEC
 70
     4
  9
$DIMTDEC
 70
     4
  9
$DIMALTU
 70
     2
  9
$DIMALTTD
 70
     2
  9
$DIMTXSTY
  7
Standard
  9
$DIMAUNIT
 70
     0
  9
$DIMADEC
 70
     0
  9
$DIMALTRND
 40
0.0
  9
$DIMAZIN
 70
     0
  9
$DIMDSEP
 70
    46
  9
$DIMATFIT
 70
     3
  9
$DIMFRAC
 70
     0
  9
$DIMLDRBLK
  1

  9
$DIMLUNIT
 70
     2
  9
$DIMLWD
 70
    -2
  9
$DIMLWE
 70
    -2
  9
$DIMTMOVE
 70
     0
  9
$LUNITS
 70
     2
  9
$LUPREC
 70
     4
  9
$SKETCHINC
 40
1.0
  9
$FILLETRAD
 40
0.0
  9
$AUNITS
 70
     0
  9
$AUPREC
 70
     0
  9
$MENU
  1
.
  9
$ELEVATION
 40
0.0
  9
$PELEVATION
 40
0.0
  9
$THICKNESS
 40
0.0
  9
$LIMCHECK
 70
     0
  9
$CHAMFERA
 40
0.0
  9
$CHAMFERB
 40
0.0
  9
$CHAMFERC
 40
0.0
  9
$CHAMFERD
 40
0.0
  9
$SKPOLY
 70
     0
  9
$TDCREATE
 40
2454379.577641921
  9
$TDUCREATE
 40
2454379.202641921
  9
$TDUPDATE
 40
2454936.593997709
  9
$TDUUPDATE
 40
2454936.218997708
  9
$TDINDWG
 40
0.0613151389
  9
$TDUSRTIMER
 40
0.0613145949
  9
$USRTIMER
 70
     1
  9
$ANGBASE
 50
0.0
  9
$ANGDIR
 70
     0
  9
$PDMODE
 70
     0
  9
$PDSIZE
 40
0.0
  9
$PLINEWID
 40
0.0
  9
$SPLFRAME
 70
     0
  9
$SPLINETYPE
 70
     6
  9
$SPLINESEGS
 70
     8
  9
$HANDSEED
  5
1622
  9
$SURFTAB1
 70
     6
  9
$SURFTAB2
 70
     6
  9
$SURFTYPE
 70
     6
  9
$SURFU
 70
     6
  9
$SURFV
 70
     6
  9
$UCSBASE
  2

  9
$UCSNAME
  2

  9
$UCSORG
 10
0.0
 20
0.0
 30
0.0
  9
$UCSXDIR
 10
1.0
 20
0.0
 30
0.0
  9
$UCSYDIR
 10
0.0
 20
1.0
 30
0.0
  9
$UCSORTHOREF
  2

  9
$UCSORTHOVIEW
 70
     0
  9
$UCSORGTOP
 10
0.0
 20
0.0
 30
0.0
  9
$UCSORGBOTTOM
 10
0.0
 20
0.0
 30
0.0
  9
$UCSORGLEFT
 10
0.0
 20
0.0
 30
0.0
  9
$UCSORGRIGHT
 10
0.0
 20
0.0
 30
0.0
  9
$UCSORGFRONT
 10
0.0
 20
0.0
 30
0.0
  9
$UCSORGBACK
 10
0.0
 20
0.0
 30
0.0
  9
$PUCSBASE
  2

  9
$PUCSNAME
  2

  9
$PUCSORG
 10
0.0
 20
0.0
 30
0.0
  9
$PUCSXDIR
 10
1.0
 20
0.0
 30
0.0
  9
$PUCSYDIR
 10
0.0
 20
1.0
 30
0.0
  9
$PUCSORTHOREF
  2

  9
$PUCSORTHOVIEW
 70
     0
  9
$PUCSORGTOP
 10
0.0
 20
0.0
 30
0.0
  9
$PUCSORGBOTTOM
 10
0.0
 20
0.0
 30
0.0
  9
$PUCSORGLEFT
 10
0.0
 20
0.0
 30
0.0
  9
$PUCSORGRIGHT
 10
0.0
 20
0.0
 30
0.0
  9
$PUCSORGFRONT
 10
0.0
 20
0.0
 30
0.0
  9
$PUCSORGBACK
 10
0.0
 20
0.0
 30
0.0
  9
$USERI1
 70
     0
  9
$USERI2
 70
     0
  9
$USERI3
 70
     0
  9
$USERI4
 70
     0
  9
$USERI5
 70
     0
  9
$USERR1
 40
0.0
  9
$USERR2
 40
0.0
  9
$USERR3
 40
0.0
  9
$USERR4
 40
0.0
  9
$USERR5
 40
0.0
  9
$WORLDVIEW
 70
     1
  9
$SHADEDGE
 70
     3
  9
$SHADEDIF
 70
    70
  9
$TILEMODE
 70
     0
  9
$MAXACTVP
 70
    64
  9
$PINSBASE
 10
0.0
 20
0.0
 30
0.0
  9
$PLIMCHECK
 70
     0
  9
$PEXTMIN
 10
0.0
 20
0.0
 30
0.0
  9
$PEXTMAX
 10
297.0
 20
210.0
 30
0.0
  9
$PLIMMIN
 10
0.037002778146416
 20
0.0133361937478469
  9
$PLIMMAX
 10
296.9629976511933
 20
209.9866638304666
  9
$UNITMODE
 70
     0
  9
$VISRETAIN
 70
     1
  9
$PLINEGEN
 70
     0
  9
$PSLTSCALE
 70
     1
  9
$TREEDEPTH
 70
  3020
  9
$CMLSTYLE
  2
Standard
  9
$CMLJUST
 70
     0
  9
$CMLSCALE
 40
20.0
  9
$PROXYGRAPHICS
 70
     1
  9
$MEASUREMENT
 70
     1
  9
$CELWEIGHT
370
    -1
  9
$ENDCAPS
280
     0
  9
$JOINSTYLE
280
     0
  9
$LWDISPLAY
290
     0
  9
$INSUNITS
 70
     4
  9
$HYPERLINKBASE
  1

  9
$STYLESHEET
  1

  9
$XEDIT
290
     1
  9
$CEPSNTYPE
380
     0
  9
$PSTYLEMODE
290
     1
  9
$FINGERPRINTGUID
  2
{733C549A-BCB8-4AFB-9693-44D802A4876F}
  9
$VERSIONGUID
  2
{08E4F949-B54B-4A06-9ABD-B295AEBD041A}
  9
$EXTNAMES
290
     1
  9
$PSVPSCALE
 40
0.0
  9
$OLESTARTUP
290
     0
  0
ENDSEC
  0
SECTION
  2
CLASSES
  0
CLASS
  1
ACDBDICTIONARYWDFLT
  2
AcDbDictionaryWithDefault
  3
ObjectDBX Classes
 90
        0
280
     0
281
     0
  0
CLASS
  1
PLOTSETTINGS
  2
AcDbPlotSettings
  3
ObjectDBX Classes
 90
        0
280
     0
281
     0
  0
CLASS
  1
DICTIONARYVAR
  2
AcDbDictionaryVar
  3
ObjectDBX Classes
 90
        0
280
     0
281
     0
  0
CLASS
  1
TABLESTYLE
  2
AcDbTableStyle
  3
ObjectDBX Classes
 90
     4095
280
     0
281
     0
  0
CLASS
  1
MATERIAL
  2
AcDbMaterial
  3
ObjectDBX Classes
 90
     1024
280
     0
281
     0
  0
CLASS
  1
VISUALSTYLE
  2
AcDbVisualStyle
  3
ObjectDBX Classes
 90
     4095
280
     0
281
     0
  0
CLASS
  1
ACAD_EVALUATION_GRAPH
  2
AcDbEvalGraph
  3
ObjectDBX Classes
 90
    33921
280
     0
281
     0
  0
CLASS
  1
ACAECUSTOBJ
  2
AcAeEditorObj
  3
AcAeEditorObj
 90
    33792
280
     0
281
     0
  0
CLASS
  1
ACDB_DYNAMICBLOCKPURGEPREVENTER_VERSION
  2
AcDbDynamicBlockPurgePreventer
  3
ObjectDBX Classes
 90
    33921
280
     0
281
     0
  0
CLASS
  1
SORTENTSTABLE
  2
AcDbSortentsTable
  3
ObjectDBX Classes
 90
        0
280
     0
281
     0
  0
CLASS
  1
ACDBPLACEHOLDER
  2
AcDbPlaceHolder
  3
ObjectDBX Classes
 90
        0
280
     0
281
     0
  0
CLASS
  1
LAYOUT
  2
AcDbLayout
  3
ObjectDBX Classes
 90
        0
280
     0
281
     0
  0
ENDSEC
  0
SECTION
  2
TABLES
  0
TABLE
  2
VPORT
  5
8
330
0
100
AcDbSymbolTable
 70
     2
  0
VPORT
  5
1B5
330
8
100
AcDbSymbolTableRecord
100
AcDbViewportTableRecord
  2
*Active
 70
     0
 10
0.0
 20
0.0
 11
1.0
 21
1.0
 12
277.659560432192
 22
2263.53643248151
 13
0.0
 23
0.0
 14
10.0
 24
10.0
 15
10.0
 25
10.0
 16
0.0
 26
0.0
 36
1.0
 17
0.0
 27
0.0
 37
0.0
 40
495.8685843736684
 41
1.767477203647416
 42
50.0
 43
0.0
 44
0.0
 50
0.0
 51
0.0
 71
     0
 72
  1000
 73
     1
 74
     3
 75
     0
 76
     0
 77
     0
 78
     0
281
     0
 65
     1
110
0.0
120
0.0
130
0.0
111
1.0
121
0.0
131
0.0
112
0.0
122
1.0
132
0.0
 79
     0
146
0.0
  0
VPORT
  5
45A
330
8
100
AcDbSymbolTableRecord
100
AcDbViewportTableRecord
  2
本図
 70
     0
 10
0.0
 20
0.0
 11
1.0
 21
1.0
 12
322.2643325138894
 22
893.4870383816823
 13
0.0
 23
0.0
 14
10.0
 24
10.0
 15
10.0
 25
10.0
 16
0.0
 26
0.0
 36
1.0
 17
0.0
 27
0.0
 37
0.0
 40
349.6006736910367
 41
1.105194805194805
 42
50.0
 43
0.0
 44
0.0
 50
0.0
 51
0.0
 71
     0
 72
  1000
 73
     1
 74
     3
 75
     0
 76
     1
 77
     0
 78
     0
281
     0
 65
     1
110
0.0
120
0.0
130
0.0
111
1.0
121
0.0
131
0.0
112
0.0
122
1.0
132
0.0
 79
     0
146
0.0
  0
ENDTAB
  0
TABLE
  2
LTYPE
  5
5
330
0
100
AcDbSymbolTable
 70
     8
  0
LTYPE
  5
14
330
5
100
AcDbSymbolTableRecord
100
AcDbLinetypeTableRecord
  2
ByBlock
 70
     0
  3

 72
    65
 73
     0
 40
0.0
  0
LTYPE
  5
15
330
5
100
AcDbSymbolTableRecord
100
AcDbLinetypeTableRecord
  2
ByLayer
 70
     0
  3

 72
    65
 73
     0
 40
0.0
  0
LTYPE
  5
16
330
5
100
AcDbSymbolTableRecord
100
AcDbLinetypeTableRecord
  2
Continuous
 70
     0
  3
Solid line
 72
    65
 73
     0
 40
0.0
  0
LTYPE
  5
291
330
5
100
AcDbSymbolTableRecord
100
AcDbLinetypeTableRecord
  2
HIDDEN2
 70
     0
  3
Hidden (.5x) _ _ _ _ _ _ _ _ _ _ _ _ _ _ _ _ _
 72
    65
 73
     2
 40
4.762499999999999
 49
3.174999999999999
 74
     0
 49
-1.587499999999999
 74
     0
  0
LTYPE
  5
4C3
330
5
100
AcDbSymbolTableRecord
100
AcDbLinetypeTableRecord
  2
CENTER2
 70
     0
  3
Center (.5x) ___ _ ___ _ ___ _ ___ _ ___ _ ___
 72
    65
 73
     4
 40
28.575
 49
19.05
 74
     0
 49
-3.174999999999999
 74
     0
 49
3.174999999999999
 74
     0
 49
-3.174999999999999
 74
     0
  0
LTYPE
  5
4C4
330
5
100
AcDbSymbolTableRecord
100
AcDbLinetypeTableRecord
  2
PHANTOM2
 70
     0
  3
Phantom (.5x) ___ _ _ ___ _ _ ___ _ _ ___ _ _
 72
    65
 73
     6
 40
31.75
 49
15.875
 74
     0
 49
-3.174999999999999
 74
     0
 49
3.174999999999999
 74
     0
 49
-3.174999999999999
 74
     0
 49
3.174999999999999
 74
     0
 49
-3.174999999999999
 74
     0
  0
ENDTAB
  0
TABLE
  2
LAYER
  5
2
102
{ACAD_XDICTIONARY
360
18A
102
}
330
0
100
AcDbSymbolTable
 70
    19
  0
LAYER
  5
10
330
2
100
AcDbSymbolTableRecord
100
AcDbLayerTableRecord
  2
0
 70
     0
 62
     7
  6
Continuous
370
    -3
390
F
  0
LAYER
  5
E4
330
2
100
AcDbSymbolTableRecord
100
AcDbLayerTableRecord
  2
Object
 70
     0
 62
     7
  6
Continuous
370
    -3
390
F
  0
LAYER
  5
12C
330
2
100
AcDbSymbolTableRecord
100
AcDbLayerTableRecord
  2
Title Block
 70
     0
 62
     7
  6
Continuous
370
    -3
390
F
  0
LAYER
  5
12D
330
2
100
AcDbSymbolTableRecord
100
AcDbLayerTableRecord
  2
Viewport
 70
     0
 62
     7
  6
Continuous
370
    -3
390
F
  0
LAYER
  5
345
330
2
100
AcDbSymbolTableRecord
100
AcDbLayerTableRecord
  2
作図線
 70
     0
 62
     6
  6
Continuous
290
     0
370
    18
390
F
  0
LAYER
  5
3DA
330
2
100
AcDbSymbolTableRecord
100
AcDbLayerTableRecord
  2
Dims
 70
     0
 62
     6
  6
Continuous
370
    -3
390
F
  0
LAYER
  5
3DB
330
2
100
AcDbSymbolTableRecord
100
AcDbLayerTableRecord
  2
Defpoints
 70
     0
 62
     7
  6
Continuous
290
     0
370
    -3
390
F
  0
LAYER
  5
3DC
330
2
100
AcDbSymbolTableRecord
100
AcDbLayerTableRecord
  2
テキスト
 70
     0
 62
     4
  6
Continuous
370
    -3
390
F
1001
AcAecLayerStandard
1000

1000

  0
LAYER
  5
4C5
330
2
100
AcDbSymbolTableRecord
100
AcDbLayerTableRecord
  2
寸法線
 70
     0
 62
     3
  6
Continuous
370
    18
390
F
  0
LAYER
  5
4C6
330
2
100
AcDbSymbolTableRecord
100
AcDbLayerTableRecord
  2
隠れ線
 70
     0
 62
     5
  6
HIDDEN2
370
    18
390
F
  0
LAYER
  5
4C7
330
2
100
AcDbSymbolTableRecord
100
AcDbLayerTableRecord
  2
中心線
 70
     0
 62
     1
  6
CENTER2
370
    18
390
F
  0
LAYER
  5
4C8
330
2
100
AcDbSymbolTableRecord
100
AcDbLayerTableRecord
  2
太線0.5
 70
     0
 62
     8
  6
Continuous
370
    50
390
F
  0
LAYER
  5
4C9
330
2
100
AcDbSymbolTableRecord
100
AcDbLayerTableRecord
  2
想像線
 70
     0
 62
     5
  6
PHANTOM2
370
    18
390
F
  0
LAYER
  5
4CA
330
2
100
AcDbSymbolTableRecord
100
AcDbLayerTableRecord
  2
一時線
 70
     0
 62
     2
  6
Continuous
290
     0
370
    18
390
F
1001
AcAecLayerStandard
1000

1000

  0
LAYER
  5
4CB
330
2
100
AcDbSymbolTableRecord
100
AcDbLayerTableRecord
  2
切断線
 70
     0
 62
     8
  6
Continuous
370
    25
390
F
1001
AcAecLayerStandard
1000

1000

  0
LAYER
  5
4CC
330
2
100
AcDbSymbolTableRecord
100
AcDbLayerTableRecord
  2
塗潰し
 70
     0
 62
     8
  6
Continuous
370
    18
390
F
1001
AcAecLayerStandard
1000

1000

  0
LAYER
  5
A4A
330
2
100
AcDbSymbolTableRecord
100
AcDbLayerTableRecord
  2
寸法
 70
     0
 62
     3
  6
Continuous
370
    18
390
F
  0
ENDTAB
  0
TABLE
  2
STYLE
  5
3
330
0
100
AcDbSymbolTable
 70
     7
  0
STYLE
  5
11
330
3
100
AcDbSymbolTableRecord
100
AcDbTextStyleTableRecord
  2
Standard
 70
     0
 40
0.0
 41
1.0
 50
0.0
 71
     0
 42
2.5
  3
MS Gothic.ttf
  4

1001
ACAD
1000
MS Gothic
1071
    32817
  0
STYLE
  5
B0
330
3
100
AcDbSymbolTableRecord
100
AcDbTextStyleTableRecord
  2
Roman
 70
     0
 40
0.0
 41
1.0
 50
0.0
 71
     0
 42
5.0
  3
romans.shx
  4
extfont2.shx
  0
STYLE
  5
346
330
3
100
AcDbSymbolTableRecord
100
AcDbTextStyleTableRecord
  2
尺度１／２
 70
     0
 40
0.0
 41
1.0
 50
0.0
 71
     0
 42
8.0
  3
MS Gothic.ttf
  4

1001
ACAD
1000
MS Gothic
1071
    32817
  0
STYLE
  5
68E
330
3
100
AcDbSymbolTableRecord
100
AcDbTextStyleTableRecord
  2
BWH-jdt02
 70
     0
 40
0.0
 41
0.7
 50
0.0
 71
     0
 42
4.752464886293636
  3
SIMSUN.TTF
  4

1001
ACAD
1000
SimSun
1071
    34306
  0
ENDTAB
  0
TABLE
  2
VIEW
  5
6
330
0
100
AcDbSymbolTable
 70
     7
  0
ENDTAB
  0
TABLE
  2
UCS
  5
7
330
0
100
AcDbSymbolTable
 70
     0
  0
ENDTAB
  0
TABLE
  2
APPID
  5
9
330
0
100
AcDbSymbolTable
 70
    10
  0
APPID
  5
12
330
9
100
AcDbSymbolTableRecord
100
AcDbRegAppTableRecord
  2
ACAD
 70
     0
  0
APPID
  5
1B4
330
9
100
AcDbSymbolTableRecord
100
AcDbRegAppTableRecord
  2
ACAD_PSEXT
 70
     0
  0
APPID
  5
27C
330
9
100
AcDbSymbolTableRecord
100
AcDbRegAppTableRecord
  2
ACAUTHENVIRON
 70
     0
  0
APPID
  5
280
330
9
100
AcDbSymbolTableRecord
100
AcDbRegAppTableRecord
  2
AcDbDynamicBlockTrueName
 70
     0
  0
APPID
  5
281
330
9
100
AcDbSymbolTableRecord
100
AcDbRegAppTableRecord
  2
AcDbDynamicBlockGUID
 70
     0
  0
APPID
  5
283
330
9
100
AcDbSymbolTableRecord
100
AcDbRegAppTableRecord
  2
AcDbBlockRepETag
 70
     0
  0
APPID
  5
331
330
9
100
AcDbSymbolTableRecord
100
AcDbRegAppTableRecord
  2
ACAD_EXEMPT_FROM_CAD_STANDARDS
 70
     0
  0
APPID
  5
3DD
330
9
100
AcDbSymbolTableRecord
100
AcDbRegAppTableRecord
  2
AcAecLayerStandard
 70
     0
  0
APPID
  5
692
330
9
100
AcDbSymbolTableRecord
100
AcDbRegAppTableRecord
  2
RAK
 70
     0
  0
ENDTAB
  0
TABLE
  2
DIMSTYLE
  5
A
330
0
100
AcDbSymbolTable
 70
     6
100
AcDbDimStyleTable
 71
     1
340
121
  0
DIMSTYLE
105
121
102
{ACAD_REACTORS
330
15BE
330
15BF
330
15C0
102
}
330
A
100
AcDbSymbolTableRecord
100
AcDbDimStyleTableRecord
  2
JIS
 70
     0
 41
2.5
 42
1.0
 43
7.0
 44
1.0
 73
     0
 74
     0
 77
     1
 78
     8
140
2.5
141
0.0
143
0.0394
147
0.0
172
     1
174
     1
175
     1
340
11
  0
DIMSTYLE
105
292
330
A
100
AcDbSymbolTableRecord
100
AcDbDimStyleTableRecord
  2
ISO-25
 70
     0
 41
2.5
 42
0.625
 43
3.75
 44
1.25
 73
     0
 74
     0
 77
     1
 78
     8
140
2.5
141
2.5
143
0.03937007874016
147
0.625
171
     3
172
     1
271
     2
272
     2
274
     3
278
    44
283
     0
284
     8
340
11
  0
DIMSTYLE
105
347
330
A
100
AcDbSymbolTableRecord
100
AcDbDimStyleTableRecord
  2
JIS１／２
 70
     0
 41
1.5
 42
1.0
 43
7.0
 44
1.0
 73
     0
 74
     0
 77
     1
 78
     8
140
3.0
141
0.0
143
0.0394
147
0.5
172
     1
271
     2
272
     2
340
346
341
33F
342
33F
  0
DIMSTYLE
105
348
330
A
100
AcDbSymbolTableRecord
100
AcDbDimStyleTableRecord
  2
JIS２／１
 70
     0
 41
3.0
 42
1.0
 43
7.0
 44
1.0
 73
     0
 74
     0
 77
     1
 78
     8
140
4.0
141
0.0
143
0.0394
147
1.0
172
     1
271
     2
272
     2
340
11
341
33F
342
33F
  0
ENDTAB
  0
TABLE
  2
BLOCK_RECORD
  5
1
330
0
100
AcDbSymbolTable
 70
    61
  0
BLOCK_RECORD
  5
1F
330
1
100
AcDbSymbolTableRecord
100
AcDbBlockTableRecord
  2
*Model_Space
340
22
  0
BLOCK_RECORD
  5
B15
102
{ACAD_XDICTIONARY
360
B2D
102
}
330
1
100
AcDbSymbolTableRecord
100
AcDbBlockTableRecord
  2
*Paper_Space
340
B12
  0
BLOCK_RECORD
  5
AB
102
{ACAD_XDICTIONARY
360
28E
102
}
330
1
100
AcDbSymbolTableRecord
100
AcDbBlockTableRecord
  2
JIS A4 title block (portrait)
340
0
310
2800000020000000200000000100080000000000000400000000000000000000000000000000000000000000000080000080000000808000800000008000800080800000C0C0C000C0DCC000F0CAA6000020400000206000002080000020A0000020C0000020E00000400000004020000040400000406000004080000040A0
310
000040C0000040E00000600000006020000060400000606000006080000060A0000060C0000060E00000800000008020000080400000806000008080000080A0000080C0000080E00000A0000000A0200000A0400000A0600000A0800000A0A00000A0C00000A0E00000C0000000C0200000C0400000C0600000C0800000C0
310
A00000C0C00000C0E00000E0000000E0200000E0400000E0600000E0800000E0A00000E0C00000E0E00040000000400020004000400040006000400080004000A0004000C0004000E00040200000402020004020400040206000402080004020A0004020C0004020E000404000004040200040404000404060004040800040
310
40A0004040C0004040E00040600000406020004060400040606000406080004060A0004060C0004060E00040800000408020004080400040806000408080004080A0004080C0004080E00040A0000040A0200040A0400040A0600040A0800040A0A00040A0C00040A0E00040C0000040C0200040C0400040C0600040C08000
310
40C0A00040C0C00040C0E00040E0000040E0200040E0400040E0600040E0800040E0A00040E0C00040E0E00080000000800020008000400080006000800080008000A0008000C0008000E00080200000802020008020400080206000802080008020A0008020C0008020E00080400000804020008040400080406000804080
310
008040A0008040C0008040E00080600000806020008060400080606000806080008060A0008060C0008060E00080800000808020008080400080806000808080008080A0008080C0008080E00080A0000080A0200080A0400080A0600080A0800080A0A00080A0C00080A0E00080C0000080C0200080C0400080C0600080C0
310
800080C0A00080C0C00080C0E00080E0000080E0200080E0400080E0600080E0800080E0A00080E0C00080E0E000C0000000C0002000C0004000C0006000C0008000C000A000C000C000C000E000C0200000C0202000C0204000C0206000C0208000C020A000C020C000C020E000C0400000C0402000C0404000C0406000C0
310
408000C040A000C040C000C040E000C0600000C0602000C0604000C0606000C0608000C060A000C060C000C060E000C0800000C0802000C0804000C0806000C0808000C080A000C080C000C080E000C0A00000C0A02000C0A04000C0A06000C0A08000C0A0A000C0A0C000C0A0E000C0C00000C0C02000C0C04000C0C06000
310
C0C08000C0C0A000F0FBFF00A4A0A000808080000000FF0000FF000000FFFF00FF000000FF00FF00FFFF0000FFFFFF00FFFFFFFFFFFFFFFFFFFFFFFFFFFFFFFFFFFFFFFFFFFFFFFFFFFFFFFFFFFFFFFFFFFFFFFFFFFF000000FFFFFFFFFFFFFF00FFFFFFFFFFFFFFFF00FFFFFFFFFFFFFFFFFFFFFFFF000000000000000000
310
0000000000000000000000FFFFFFFFFFFFFFFFFFFFFFFFFFFF00FFFFFF0000000000000000000000000000FFFFFFFFFFFFFFFFFFFFFFFFFFFF00FFFFFF0000000000000000FFFFFFFFFF00FFFFFFFFFFFFFFFFFFFFFFFFFFFF00FFFFFF0000000000000000000000000000FFFFFFFFFFFFFFFFFFFFFFFFFFFF00FFFFFF0000
310
000000000000000000000000FFFFFFFFFFFFFFFFFFFFFFFFFF0000FFFFFFFFFFFFFFFFFFFFFFFFFFFFFFFF00FFFFFFFFFFFFFFFFFFFFFFFFFFFF00FFFFFFFFFFFFFFFFFFFFFFFFFFFFFFFF00FFFFFFFFFFFFFFFFFFFFFFFFFFFF00FFFFFFFFFFFFFFFFFFFFFFFFFFFFFFFF00FFFFFFFFFFFFFFFFFFFFFFFFFFFF00FFFFFFFF
310
FFFFFFFFFFFFFFFFFFFFFFFF00FFFFFFFFFFFFFFFFFFFFFFFFFF0000FFFFFFFFFFFFFFFFFFFFFFFFFFFFFFFF00FFFFFFFFFFFFFFFFFFFFFFFFFFFF00FFFFFFFFFFFFFFFFFFFFFFFFFFFFFFFF00FFFFFFFFFFFFFFFFFFFFFFFFFFFF00FFFFFFFFFFFFFFFFFFFFFFFFFFFFFFFF00FFFFFFFFFFFFFFFFFFFFFFFFFFFF00FFFFFF
310
FFFFFFFFFFFFFFFFFFFFFFFFFF00FFFFFFFFFFFFFFFFFFFFFFFF000000FFFFFFFFFFFFFFFFFFFFFFFFFFFFFFFF00FFFFFFFFFFFFFFFFFFFFFFFFFFFF00FFFFFFFFFFFFFFFFFFFFFFFFFFFFFFFF00FFFFFFFFFFFFFFFFFFFFFFFFFFFF00FFFFFFFFFFFFFFFFFFFFFFFFFFFFFFFF00FFFFFFFFFFFFFFFFFFFFFFFFFFFF00FFFF
310
FFFFFFFFFFFFFFFFFFFFFFFFFFFF00FFFFFFFFFFFFFFFFFFFFFFFFFFFF00FFFFFFFFFFFFFFFFFFFFFFFFFFFFFFFF00FFFFFFFFFFFFFFFFFFFFFFFFFF0000FFFFFFFFFFFFFFFFFFFFFFFFFFFFFFFF00FFFFFFFFFFFFFFFFFFFFFFFFFFFF00FFFFFFFFFFFFFFFFFFFFFFFFFFFFFFFF00FFFFFFFFFFFFFFFFFFFFFFFFFFFF00FF
310
FFFFFFFFFFFFFFFFFFFFFFFFFFFFFF00FFFFFFFFFFFFFFFFFFFFFFFFFFFF00FFFFFFFFFFFFFFFFFFFFFFFFFFFFFFFF00FFFFFFFFFFFFFFFFFFFFFFFFFF0000FFFFFFFFFFFFFFFFFFFFFFFFFFFFFFFF00FFFFFFFFFFFFFFFFFFFFFFFFFFFF00FFFFFFFFFFFFFFFFFFFFFFFFFFFFFFFF00FFFFFFFFFFFFFFFFFFFFFFFFFFFF00
310
00000000000000000000FFFFFFFFFFFF00FFFFFFFFFFFFFFFFFFFFFFFFFFFF0000000000000000000000FFFFFFFFFFFF00FFFFFFFFFFFFFFFFFFFFFFFFFFFF0000000000000000000000FFFFFFFFFFFF00FFFFFFFFFFFFFFFFFFFFFFFF00FF000000000000000000000000000000000000FFFFFFFFFFFFFFFFFFFFFFFF0000
310
00FFFFFFFFFFFFFF00FFFFFFFFFFFFFFFF00FFFFFFFFFFFFFFFFFFFFFFFFFFFFFFFFFFFFFFFFFFFFFFFFFFFFFFFFFFFFFFFFFFFFFFFFFFFF
102
{BLKREFS
331
11A
102
}
1001
AcDbDynamicBlockGUID
1000
{6DB1C6FB-04ED-4989-8D70-427348F3A6A6}
1001
AcDbBlockRepETag
1070
     1
1071
       23
1001
ACAD
1000
DesignCenter Data
1002
{
1070
     1
1070
     4
1002
}
  0
BLOCK_RECORD
  5
33F
330
1
100
AcDbSymbolTableRecord
100
AcDbBlockTableRecord
  2
_Open30
340
0
102
{BLKREFS
331
B59
331
B5A
331
B67
331
B68
331
B40
331
B41
331
B4C
331
B4D
331
C92
331
C93
331
C9B
331
C9C
331
CA5
331
CA6
331
CB0
331
CB1
331
D07
331
D08
331
D14
331
D15
331
CED
331
CEE
331
CF9
331
CFA
331
1013
331
1014
331
101C
331
101D
331
1027
331
1028
331
1031
331
1032
331
1065
331
1066
331
1071
331
1072
331
107F
331
1080
331
108D
331
108E
331
12C7
331
12C8
331
12D2
331
12D3
331
12DB
331
12DC
331
12E4
331
12E5
331
1318
331
1319
331
1324
331
1325
331
1331
331
1332
331
133F
331
1340
331
1468
331
1469
331
1471
331
1472
331
147B
331
147C
331
1486
331
1487
331
14BA
331
14BB
331
14C7
331
14C8
331
14D4
331
14D5
331
15E7
331
15E8
331
15F1
331
15F2
102
}
  0
BLOCK_RECORD
  5
4E7
102
{ACAD_XDICTIONARY
360
4E8
102
}
330
1
100
AcDbSymbolTableRecord
100
AcDbBlockTableRecord
  2
JIS A3 title block
340
0
310
2800000020000000200000000100080000000000000400000000000000000000000000000000000000000000000080000080000000808000800000008000800080800000C0C0C000C0DCC000F0CAA6000020400000206000002080000020A0000020C0000020E00000400000004020000040400000406000004080000040A0
310
000040C0000040E00000600000006020000060400000606000006080000060A0000060C0000060E00000800000008020000080400000806000008080000080A0000080C0000080E00000A0000000A0200000A0400000A0600000A0800000A0A00000A0C00000A0E00000C0000000C0200000C0400000C0600000C0800000C0
310
A00000C0C00000C0E00000E0000000E0200000E0400000E0600000E0800000E0A00000E0C00000E0E00040000000400020004000400040006000400080004000A0004000C0004000E00040200000402020004020400040206000402080004020A0004020C0004020E000404000004040200040404000404060004040800040
310
40A0004040C0004040E00040600000406020004060400040606000406080004060A0004060C0004060E00040800000408020004080400040806000408080004080A0004080C0004080E00040A0000040A0200040A0400040A0600040A0800040A0A00040A0C00040A0E00040C0000040C0200040C0400040C0600040C08000
310
40C0A00040C0C00040C0E00040E0000040E0200040E0400040E0600040E0800040E0A00040E0C00040E0E00080000000800020008000400080006000800080008000A0008000C0008000E00080200000802020008020400080206000802080008020A0008020C0008020E00080400000804020008040400080406000804080
310
008040A0008040C0008040E00080600000806020008060400080606000806080008060A0008060C0008060E00080800000808020008080400080806000808080008080A0008080C0008080E00080A0000080A0200080A0400080A0600080A0800080A0A00080A0C00080A0E00080C0000080C0200080C0400080C0600080C0
310
800080C0A00080C0C00080C0E00080E0000080E0200080E0400080E0600080E0800080E0A00080E0C00080E0E000C0000000C0002000C0004000C0006000C0008000C000A000C000C000C000E000C0200000C0202000C0204000C0206000C0208000C020A000C020C000C020E000C0400000C0402000C0404000C0406000C0
310
408000C040A000C040C000C040E000C0600000C0602000C0604000C0606000C0608000C060A000C060C000C060E000C0800000C0802000C0804000C0806000C0808000C080A000C080C000C080E000C0A00000C0A02000C0A04000C0A06000C0A08000C0A0A000C0A0C000C0A0E000C0C00000C0C02000C0C04000C0C06000
310
C0C08000C0C0A000F0FBFF00A4A0A000808080000000FF0000FF000000FFFF00FF000000FF00FF00FFFF0000FFFFFF00FFFFFFFFFFFFFFFFFFFFFFFFFFFFFFFFFFFFFFFFFFFFFFFFFFFFFFFFFFFFFFFFFFFFFFFFFFFFFFFFFFFFFFFFFFFFFFFFFFFFFFFFFFFFFFFFFFFFFFFFFFFFFFFFFFFFFFFFFFFFFFFFFFFFFFFFFFFFFF
310
FFFFFFFFFFFFFFFFFFFFFFFFFFFFFFFFFFFFFFFFFFFFFFFFFFFFFFFFFFFFFFFFFFFFFFFFFFFFFFFFFFFFFFFFFFFFFFFFFFFFFFFFFFFFFFFFFFFFFFFFFFFFFFFFFFFFFFFFFFFFFFFFFFFFFFFFFFFFFFFFFFFFFFFFFFFFFFFFFFFFFFFFFFFFFFFFFFFFFFFFFFFFFFFFFFFFFFFFFFFFFFFFFFFF00FFFF00000000000000000000
310
000000000000FFFFFFFFFFFF0000FFFF00FFFFFFFF0000000000000000FFFFFFFFFFFFFFFFFFFFFFFFFFFFFFFFFFFFFFFFFFFFFFFF0000000000000000FFFFFFFFFFFFFFFFFFFFFFFFFFFFFFFFFFFF00FFFFFFFFFF00FFFFFFFFFFFFFFFFFFFFFFFFFFFFFFFFFFFFFFFFFFFFFFFFFF00FFFFFFFFFFFFFFFFFFFFFFFFFFFFFF
310
FFFFFFFFFFFFFFFFFFFFFFFFFFFFFFFF00FFFFFFFFFF00FFFFFFFFFFFFFFFFFFFFFFFFFFFFFFFFFFFFFFFFFFFFFFFFFF00FFFFFFFFFF00FFFFFFFFFFFFFFFFFFFFFFFFFFFFFFFFFFFFFFFFFFFFFFFFFF00FFFFFFFFFFFFFFFFFFFFFFFFFFFFFFFFFFFFFFFFFFFFFFFFFFFFFFFFFFFFFF00FFFFFFFFFF00FFFFFFFFFFFFFFFF
310
FFFFFFFFFFFFFFFFFFFFFFFFFFFFFFFFFF00FFFFFFFFFF00FFFFFFFFFFFFFFFFFFFFFFFFFFFFFFFFFFFFFFFFFFFFFFFFFF00FFFFFF000000FFFFFFFFFFFFFFFFFFFFFFFFFFFFFFFFFFFFFFFFFFFFFFFFFF0000FFFFFFFF00FFFFFFFFFFFFFFFFFFFFFFFFFFFFFFFFFFFFFFFFFFFFFFFFFF00FFFFFFFFFF00FFFFFFFFFFFFFF
310
FFFFFFFFFFFFFFFFFFFFFFFFFFFFFFFFFFFF00FFFFFFFFFF00FFFFFFFFFFFFFFFFFFFFFFFFFFFFFFFFFFFFFFFFFFFFFFFFFF00FFFFFFFFFF00FFFFFFFFFFFFFFFFFFFFFFFFFFFFFFFFFFFFFFFFFFFFFFFFFF00FFFFFFFFFF00FFFFFFFFFFFFFFFFFFFFFFFFFFFFFFFFFFFFFFFFFFFFFFFFFF00FFFFFFFFFF00FFFFFFFFFFFF
310
FFFFFFFFFFFFFFFFFFFFFFFFFFFFFFFFFFFFFF00FFFFFFFFFF00FFFFFFFFFFFFFFFFFFFFFFFFFFFFFFFFFFFFFFFFFFFFFFFFFF00FFFFFFFFFF00FFFFFFFFFFFFFFFFFFFFFFFFFFFFFFFFFFFFFFFFFFFFFFFFFF00FFFFFF000000000000000000000000000000000000000000000000000000000000FFFFFFFFFFFFFFFFFFFF
310
FFFFFFFFFFFFFFFFFFFFFFFFFFFFFFFFFFFFFFFFFFFFFFFFFFFFFFFFFFFFFFFFFFFFFFFFFFFFFFFFFFFFFFFFFFFFFFFFFFFFFFFFFFFFFFFFFFFFFFFFFFFFFFFFFFFFFFFFFFFFFFFFFFFFFFFFFFFFFFFFFFFFFFFFFFFFFFFFFFFFFFFFFFFFFFFFFFFFFFFFFFFFFFFFFFFFFFFFFFFFFFFFFFFFFFFFFFFFFFFFFFFFFFFFFFFFFF
310
FFFFFFFFFFFFFFFFFFFFFFFFFFFFFFFFFFFFFFFFFFFFFFFFFFFFFFFFFFFFFFFFFFFFFFFFFFFFFFFFFFFFFFFFFFFFFFFFFFFFFFFFFFFFFFFF
102
{BLKREFS
331
6B2
102
}
1001
AcDbDynamicBlockGUID
1000
{ADD7F6C8-90DF-4B5E-9041-BE536E290B26}
1001
AcDbBlockRepETag
1070
     1
1071
       75
1001
ACAD
1000
DesignCenter Data
1002
{
1070
     1
1070
     4
1002
}
  0
BLOCK_RECORD
  5
6ED
102
{ACAD_XDICTIONARY
360
930
102
}
330
1
100
AcDbSymbolTableRecord
100
AcDbBlockTableRecord
  2
JIS A4 title block (landscape)
340
0
102
{BLKREFS
331
8B6
102
}
1001
AcDbDynamicBlockGUID
1000
{CEEEE382-D703-4645-97A2-E5AB7DAA0D3B}
1001
AcDbBlockRepETag
1070
     1
1071
       77
1001
ACAD
1000
DesignCenter Data
1002
{
1070
     1
1070
     4
1002
}
  0
BLOCK_RECORD
  5
B3B
330
1
100
AcDbSymbolTableRecord
100
AcDbBlockTableRecord
  2
*D18
340
0
  0
BLOCK_RECORD
  5
B47
330
1
100
AcDbSymbolTableRecord
100
AcDbBlockTableRecord
  2
*D19
340
0
  0
BLOCK_RECORD
  5
B53
330
1
100
AcDbSymbolTableRecord
100
AcDbBlockTableRecord
  2
*D20
340
0
  0
BLOCK_RECORD
  5
B60
330
1
100
AcDbSymbolTableRecord
100
AcDbBlockTableRecord
  2
*D21
340
0
  0
BLOCK_RECORD
  5
C5C
330
1
100
AcDbSymbolTableRecord
100
AcDbBlockTableRecord
  2
*D23
340
0
  0
BLOCK_RECORD
  5
C68
330
1
100
AcDbSymbolTableRecord
100
AcDbBlockTableRecord
  2
*D24
340
0
  0
BLOCK_RECORD
  5
C74
330
1
100
AcDbSymbolTableRecord
100
AcDbBlockTableRecord
  2
*D25
340
0
  0
BLOCK_RECORD
  5
C81
330
1
100
AcDbSymbolTableRecord
100
AcDbBlockTableRecord
  2
*D26
340
0
  0
BLOCK_RECORD
  5
CE8
330
1
100
AcDbSymbolTableRecord
100
AcDbBlockTableRecord
  2
*D27
340
0
  0
BLOCK_RECORD
  5
CF4
330
1
100
AcDbSymbolTableRecord
100
AcDbBlockTableRecord
  2
*D28
340
0
  0
BLOCK_RECORD
  5
D00
330
1
100
AcDbSymbolTableRecord
100
AcDbBlockTableRecord
  2
*D29
340
0
  0
BLOCK_RECORD
  5
D0E
330
1
100
AcDbSymbolTableRecord
100
AcDbBlockTableRecord
  2
*D30
340
0
  0
BLOCK_RECORD
  5
FDD
330
1
100
AcDbSymbolTableRecord
100
AcDbBlockTableRecord
  2
*D32
340
0
  0
BLOCK_RECORD
  5
FE9
330
1
100
AcDbSymbolTableRecord
100
AcDbBlockTableRecord
  2
*D33
340
0
  0
BLOCK_RECORD
  5
FF5
330
1
100
AcDbSymbolTableRecord
100
AcDbBlockTableRecord
  2
*D34
340
0
  0
BLOCK_RECORD
  5
1003
330
1
100
AcDbSymbolTableRecord
100
AcDbBlockTableRecord
  2
*D35
340
0
  0
BLOCK_RECORD
  5
1060
330
1
100
AcDbSymbolTableRecord
100
AcDbBlockTableRecord
  2
*D36
340
0
  0
BLOCK_RECORD
  5
106C
330
1
100
AcDbSymbolTableRecord
100
AcDbBlockTableRecord
  2
*D37
340
0
  0
BLOCK_RECORD
  5
1078
330
1
100
AcDbSymbolTableRecord
100
AcDbBlockTableRecord
  2
*D38
340
0
  0
BLOCK_RECORD
  5
1086
330
1
100
AcDbSymbolTableRecord
100
AcDbBlockTableRecord
  2
*D39
340
0
  0
BLOCK_RECORD
  5
128E
330
1
100
AcDbSymbolTableRecord
100
AcDbBlockTableRecord
  2
*D41
340
0
  0
BLOCK_RECORD
  5
129C
330
1
100
AcDbSymbolTableRecord
100
AcDbBlockTableRecord
  2
*D42
340
0
  0
BLOCK_RECORD
  5
12AA
330
1
100
AcDbSymbolTableRecord
100
AcDbBlockTableRecord
  2
*D43
340
0
  0
BLOCK_RECORD
  5
12B6
330
1
100
AcDbSymbolTableRecord
100
AcDbBlockTableRecord
  2
*D44
340
0
  0
BLOCK_RECORD
  5
1313
330
1
100
AcDbSymbolTableRecord
100
AcDbBlockTableRecord
  2
*D45
340
0
  0
BLOCK_RECORD
  5
131F
330
1
100
AcDbSymbolTableRecord
100
AcDbBlockTableRecord
  2
*D46
340
0
  0
BLOCK_RECORD
  5
132B
330
1
100
AcDbSymbolTableRecord
100
AcDbBlockTableRecord
  2
*D47
340
0
  0
BLOCK_RECORD
  5
1338
330
1
100
AcDbSymbolTableRecord
100
AcDbBlockTableRecord
  2
*D48
340
0
  0
BLOCK_RECORD
  5
1432
330
1
100
AcDbSymbolTableRecord
100
AcDbBlockTableRecord
  2
*D50
340
0
  0
BLOCK_RECORD
  5
143E
330
1
100
AcDbSymbolTableRecord
100
AcDbBlockTableRecord
  2
*D51
340
0
  0
BLOCK_RECORD
  5
144A
330
1
100
AcDbSymbolTableRecord
100
AcDbBlockTableRecord
  2
*D52
340
0
  0
BLOCK_RECORD
  5
1457
330
1
100
AcDbSymbolTableRecord
100
AcDbBlockTableRecord
  2
*D53
340
0
  0
BLOCK_RECORD
  5
14B5
330
1
100
AcDbSymbolTableRecord
100
AcDbBlockTableRecord
  2
*D54
340
0
  0
BLOCK_RECORD
  5
14C1
330
1
100
AcDbSymbolTableRecord
100
AcDbBlockTableRecord
  2
*D55
340
0
  0
BLOCK_RECORD
  5
14CE
330
1
100
AcDbSymbolTableRecord
100
AcDbBlockTableRecord
  2
*D56
340
0
  0
BLOCK_RECORD
  5
15C1
330
1
100
AcDbSymbolTableRecord
100
AcDbBlockTableRecord
  2
*D58
340
0
  0
BLOCK_RECORD
  5
15CD
330
1
100
AcDbSymbolTableRecord
100
AcDbBlockTableRecord
  2
*D59
340
0
  0
BLOCK_RECORD
  5
15DA
330
1
100
AcDbSymbolTableRecord
100
AcDbBlockTableRecord
  2
*D60
340
0
  0
ENDTAB
  0
ENDSEC
  0
SECTION
  2
BLOCKS
  0
BLOCK
  5
20
330
1F
100
AcDbEntity
  8
0
100
AcDbBlockBegin
  2
*Model_Space
 70
     0
 10
0.0
 20
0.0
 30
0.0
  3
*Model_Space
  1

  0
ENDBLK
  5
21
330
1F
100
AcDbEntity
  8
0
100
AcDbBlockEnd
  0
BLOCK
  5
B30
330
B15
100
AcDbEntity
 67
     1
  8
0
100
AcDbBlockBegin
  2
*Paper_Space
 70
     0
 10
0.0
 20
0.0
 30
0.0
  3
*Paper_Space
  1

  0
ENDBLK
  5
B31
330
B15
100
AcDbEntity
 67
     1
  8
0
100
AcDbBlockEnd
  0
BLOCK
  5
116
330
AB
100
AcDbEntity
  8
0
100
AcDbBlockBegin
  2
JIS A4 title block (portrait)
 70
     2
 10
0.0
 20
0.0
 30
0.0
  3
JIS A4 title block (portrait)
  1

  4
JIS A4 title block and attributes (portrait)
  0
LINE
  5
28C
330
AB
100
AcDbEntity
  8
0
100
AcDbLine
 10
0.0
 20
297.0
 30
0.0
 11
25.0
 21
297.0
 31
0.0
1001
AcDbBlockRepETag
1070
     1
1071
        0
1005
28C
  0
LINE
  5
28D
330
AB
100
AcDbEntity
  8
0
100
AcDbLine
 10
0.0
 20
287.0
 30
0.0
 11
0.0
 21
297.0
 31
0.0
1001
AcDbBlockRepETag
1070
     1
1071
        1
1005
28D
  0
LINE
  5
2E7
330
AB
100
AcDbEntity
  8
0
100
AcDbLine
 10
17.5
 20
10.0
 30
0.0
 11
17.5
 21
287.0
 31
0.0
1001
AcDbBlockRepETag
1070
     1
1071
        2
1005
2E7
  0
LINE
  5
2E8
330
AB
100
AcDbEntity
  8
0
100
AcDbLine
 10
192.5
 20
287.0
 30
0.0
 11
192.5
 21
10.0
 31
0.0
1001
AcDbBlockRepETag
1070
     1
1071
        3
1005
2E8
  0
LINE
  5
2E9
330
AB
100
AcDbEntity
  8
0
100
AcDbLine
 10
192.5
 20
10.0
 30
0.0
 11
17.5
 21
10.0
 31
0.0
1001
AcDbBlockRepETag
1070
     1
1071
        4
1005
2E9
  0
LINE
  5
2EA
330
AB
100
AcDbEntity
  8
0
100
AcDbLine
 10
25.0
 20
0.0
 30
0.0
 11
0.0
 21
0.0
 31
0.0
1001
AcDbBlockRepETag
1070
     1
1071
        5
1005
2EA
  0
LINE
  5
2EB
330
AB
100
AcDbEntity
  8
0
100
AcDbLine
 10
0.0
 20
0.0
 30
0.0
 11
0.0
 21
10.0
 31
0.0
1001
AcDbBlockRepETag
1070
     1
1071
        6
1005
2EB
  0
LINE
  5
2EC
330
AB
100
AcDbEntity
  8
0
100
AcDbLine
 10
61.25
 20
10.0
 30
0.0
 11
61.25
 21
5.0
 31
0.0
1001
AcDbBlockRepETag
1070
     1
1071
        7
1005
2EC
  0
LINE
  5
2ED
330
AB
100
AcDbEntity
  8
0
100
AcDbLine
 10
17.5
 20
148.5
 30
0.0
 11
0.0
 21
148.5
 31
0.0
1001
AcDbBlockRepETag
1070
     1
1071
        8
1005
2ED
  0
LINE
  5
2EE
330
AB
100
AcDbEntity
  8
0
100
AcDbLine
 10
17.5
 20
56.16666666666668
 30
0.0
 11
12.5
 21
56.16666666666668
 31
0.0
1001
AcDbBlockRepETag
1070
     1
1071
        9
1005
2EE
  0
LINE
  5
2EF
330
AB
100
AcDbEntity
  8
0
100
AcDbLine
 10
17.5
 20
102.3333333333333
 30
0.0
 11
12.5
 21
102.3333333333333
 31
0.0
1001
AcDbBlockRepETag
1070
     1
1071
       10
1005
2EF
  0
LINE
  5
2F0
330
AB
100
AcDbEntity
  8
0
100
AcDbLine
 10
17.5
 20
148.5
 30
0.0
 11
12.5
 21
148.5
 31
0.0
1001
AcDbBlockRepETag
1070
     1
1071
       11
1005
2F0
  0
LINE
  5
2F1
330
AB
100
AcDbEntity
  8
0
100
AcDbLine
 10
105.0
 20
10.0
 30
0.0
 11
105.0
 21
0.0
 31
0.0
1001
AcDbBlockRepETag
1070
     1
1071
       12
1005
2F1
  0
LINE
  5
2F2
330
AB
100
AcDbEntity
  8
0
100
AcDbLine
 10
210.0
 20
10.0
 30
0.0
 11
210.0
 21
0.0
 31
0.0
1001
AcDbBlockRepETag
1070
     1
1071
       13
1005
2F2
  0
LINE
  5
2F3
330
AB
100
AcDbEntity
  8
0
100
AcDbLine
 10
148.75
 20
10.0
 30
0.0
 11
148.75
 21
5.0
 31
0.0
1001
AcDbBlockRepETag
1070
     1
1071
       14
1005
2F3
  0
LINE
  5
2F4
330
AB
100
AcDbEntity
  8
0
100
AcDbLine
 10
210.0
 20
0.0
 30
0.0
 11
200.0
 21
0.0
 31
0.0
1001
AcDbBlockRepETag
1070
     1
1071
       15
1005
2F4
  0
LINE
  5
2F5
330
AB
100
AcDbEntity
  8
0
100
AcDbLine
 10
192.5
 20
56.16666666666668
 30
0.0
 11
197.5
 21
56.16666666666668
 31
0.0
1001
AcDbBlockRepETag
1070
     1
1071
       16
1005
2F5
  0
LINE
  5
2F6
330
AB
100
AcDbEntity
  8
0
100
AcDbLine
 10
192.5
 20
102.3333333333333
 30
0.0
 11
197.5
 21
102.3333333333333
 31
0.0
1001
AcDbBlockRepETag
1070
     1
1071
       17
1005
2F6
  0
LINE
  5
2F7
330
AB
100
AcDbEntity
  8
0
100
AcDbLine
 10
192.5
 20
148.5
 30
0.0
 11
210.0
 21
148.5
 31
0.0
1001
AcDbBlockRepETag
1070
     1
1071
       18
1005
2F7
  0
LINE
  5
2F8
330
AB
100
AcDbEntity
  8
0
100
AcDbLine
 10
192.5
 20
148.5
 30
0.0
 11
197.5
 21
148.5
 31
0.0
1001
AcDbBlockRepETag
1070
     1
1071
       19
1005
2F8
  0
LINE
  5
2F9
330
AB
100
AcDbEntity
  8
0
100
AcDbLine
 10
17.5
 20
287.0
 30
0.0
 11
192.5
 21
287.0
 31
0.0
1001
AcDbBlockRepETag
1070
     1
1071
       20
1005
2F9
  0
LINE
  5
2FA
330
AB
100
AcDbEntity
  8
0
100
AcDbLine
 10
17.5
 20
194.6666666666666
 30
0.0
 11
12.5
 21
194.6666666666666
 31
0.0
1001
AcDbBlockRepETag
1070
     1
1071
       21
1005
2FA
  0
LINE
  5
2FB
330
AB
100
AcDbEntity
  8
0
100
AcDbLine
 10
17.5
 20
240.8333333333333
 30
0.0
 11
12.5
 21
240.8333333333333
 31
0.0
1001
AcDbBlockRepETag
1070
     1
1071
       22
1005
2FB
  0
LINE
  5
2FC
330
AB
100
AcDbEntity
  8
0
100
AcDbLine
 10
61.25
 20
287.0
 30
0.0
 11
61.25
 21
292.0
 31
0.0
1001
AcDbBlockRepETag
1070
     1
1071
       24
1005
2FC
  0
ATTDEF
  5
2FD
330
AB
100
AcDbEntity
  8
0
 62
     0
380
     1
100
AcDbText
 10
17.5
 20
293.0
 30
0.0
 40
3.0
  1

  7
Roman
100
AcDbAttributeDefinition
  3
Author:
  2
USER
 70
     8
1001
AcDbBlockRepETag
1070
     1
1071
       25
1005
0
  0
LINE
  5
2FE
330
AB
100
AcDbEntity
  8
0
100
AcDbLine
 10
192.5
 20
194.6666666666667
 30
0.0
 11
197.5
 21
194.6666666666667
 31
0.0
1001
AcDbBlockRepETag
1070
     1
1071
       26
1005
2FE
  0
LINE
  5
2FF
330
AB
100
AcDbEntity
  8
0
100
AcDbLine
 10
192.5
 20
240.8333333333334
 30
0.0
 11
197.5
 21
240.8333333333334
 31
0.0
1001
AcDbBlockRepETag
1070
     1
1071
       27
1005
2FF
  0
ATTDEF
  5
300
330
AB
100
AcDbEntity
  8
0
 62
     0
380
     1
100
AcDbText
 10
125.5
 20
293.0
 30
0.0
 40
3.0
  1

  7
Roman
100
AcDbAttributeDefinition
  3
File name:
  2
FNAME
 70
     8
1001
AcDbBlockRepETag
1070
     1
1071
       28
1005
0
  0
LINE
  5
301
330
AB
100
AcDbEntity
  8
0
100
AcDbLine
 10
105.0
 20
287.0
 30
0.0
 11
105.0
 21
297.0
 31
0.0
1001
AcDbBlockRepETag
1070
     1
1071
       29
1005
301
  0
LINE
  5
302
330
AB
100
AcDbEntity
  8
0
100
AcDbLine
 10
105.0
 20
287.0
 30
0.0
 11
105.0
 21
292.0
 31
0.0
1001
AcDbBlockRepETag
1070
     1
1071
       30
1005
302
  0
ATTDEF
  5
303
330
AB
100
AcDbEntity
  8
0
 62
     0
380
     1
100
AcDbText
 10
77.5
 20
293.0
 30
0.0
 40
3.0
  1

  7
Roman
100
AcDbAttributeDefinition
  3
Revision date:
  2
REVDATE
 70
     8
1001
AcDbBlockRepETag
1070
     1
1071
       31
1005
0
  0
LINE
  5
304
330
AB
100
AcDbEntity
  8
0
100
AcDbLine
 10
210.0
 20
297.0
 30
0.0
 11
210.0
 21
287.0
 31
0.0
1001
AcDbBlockRepETag
1070
     1
1071
       32
1005
304
  0
LINE
  5
305
330
AB
100
AcDbEntity
  8
0
100
AcDbLine
 10
148.75
 20
287.0
 30
0.0
 11
148.75
 21
292.0
 31
0.0
1001
AcDbBlockRepETag
1070
     1
1071
       33
1005
305
  0
LINE
  5
306
330
AB
100
AcDbEntity
  8
0
100
AcDbLine
 10
200.0
 20
297.0
 30
0.0
 11
210.0
 21
297.0
 31
0.0
1001
AcDbBlockRepETag
1070
     1
1071
       34
1005
306
  0
TEXT
  5
307
330
AB
100
AcDbEntity
  8
0
100
AcDbText
 10
13.87568307432492
 20
120.75
 30
0.0
 40
3.0
  1
D
  7
Roman
 72
     1
 11
15.4471116457535
 21
120.75
 31
0.0
100
AcDbText
1001
AcDbBlockRepETag
1070
     1
1071
       35
1005
307
  0
TEXT
  5
308
330
AB
100
AcDbEntity
  8
0
100
AcDbText
 10
13.9471116457535
 20
168.25
 30
0.0
 40
3.0
  1
C
  7
Roman
 72
     1
 11
15.4471116457535
 21
168.25
 31
0.0
100
AcDbText
1001
AcDbBlockRepETag
1070
     1
1071
       36
1005
308
  0
TEXT
  5
309
330
AB
100
AcDbEntity
  8
0
100
AcDbText
 10
13.87568307432492
 20
215.75
 30
0.0
 40
3.0
  1
B
  7
Roman
 72
     1
 11
15.4471116457535
 21
215.75
 31
0.0
100
AcDbText
1001
AcDbBlockRepETag
1070
     1
1071
       37
1005
309
  0
TEXT
  5
30A
330
AB
100
AcDbEntity
  8
0
100
AcDbText
 10
14.16139736003921
 20
263.25
 30
0.0
 40
3.0
  1
A
  7
Roman
 72
     1
 11
15.4471116457535
 21
263.25
 31
0.0
100
AcDbText
1001
AcDbBlockRepETag
1070
     1
1071
       38
1005
30A
  0
TEXT
  5
30B
330
AB
100
AcDbEntity
  8
0
100
AcDbText
 10
38.11904761904761
 20
288.0
 30
0.0
 40
3.0
  1
1
  7
Roman
 72
     1
 11
39.33333333333332
 21
288.0
 31
0.0
100
AcDbText
1001
AcDbBlockRepETag
1070
     1
1071
       39
1005
30B
  0
TEXT
  5
30C
330
AB
100
AcDbEntity
  8
0
100
AcDbText
 10
81.57142857142856
 20
288.0
 30
0.0
 40
3.0
  1
2
  7
Roman
 72
     1
 11
83.0
 21
288.0
 31
0.0
100
AcDbText
1001
AcDbBlockRepETag
1070
     1
1071
       40
1005
30C
  0
TEXT
  5
30D
330
AB
100
AcDbEntity
  8
0
100
AcDbText
 10
125.2380952380952
 20
288.0
 30
0.0
 40
3.0
  1
3
  7
Roman
 72
     1
 11
126.6666666666667
 21
288.0
 31
0.0
100
AcDbText
1001
AcDbBlockRepETag
1070
     1
1071
       41
1005
30D
  0
TEXT
  5
30E
330
AB
100
AcDbEntity
  8
0
100
AcDbText
 10
168.8333333333333
 20
288.0
 30
0.0
 40
3.0
  1
4
  7
Roman
 72
     1
 11
170.3333333333333
 21
288.0
 31
0.0
100
AcDbText
1001
AcDbBlockRepETag
1070
     1
1071
       42
1005
30E
  0
TEXT
  5
30F
330
AB
100
AcDbEntity
  8
0
100
AcDbText
 10
13.9471116457535
 20
28.41666666666668
 30
0.0
 40
3.0
  1
F
  7
Roman
 72
     1
 11
15.4471116457535
 21
28.41666666666668
 31
0.0
100
AcDbText
1001
AcDbBlockRepETag
1070
     1
1071
       43
1005
30F
  0
TEXT
  5
310
330
AB
100
AcDbEntity
  8
0
100
AcDbText
 10
13.9471116457535
 20
75.91666666666668
 30
0.0
 40
3.0
  1
E
  7
Roman
 72
     1
 11
15.4471116457535
 21
75.91666666666668
 31
0.0
100
AcDbText
1001
AcDbBlockRepETag
1070
     1
1071
       44
1005
310
  0
LINE
  5
311
330
AB
100
AcDbEntity
  8
0
100
AcDbLine
 10
192.4978723404242
 20
19.0
 30
0.0
 11
75.49787234042418
 21
19.0
 31
0.0
1001
AcDbBlockRepETag
1070
     1
1071
      166
1005
311
  0
LINE
  5
312
330
AB
100
AcDbEntity
  8
0
100
AcDbLine
 10
115.4978723404242
 20
28.0
 30
0.0
 11
75.49787234042418
 21
28.0
 31
0.0
1001
AcDbBlockRepETag
1070
     1
1071
      168
1005
312
  0
LINE
  5
313
330
AB
100
AcDbEntity
  8
0
100
AcDbLine
 10
192.4978723404242
 20
37.0
 30
0.0
 11
75.49787234042418
 21
37.0
 31
0.0
1001
AcDbBlockRepETag
1070
     1
1071
      169
1005
313
  0
LINE
  5
314
330
AB
100
AcDbEntity
  8
0
100
AcDbLine
 10
192.4978723404242
 20
46.0
 30
0.0
 11
75.49787234042418
 21
46.0
 31
0.0
1001
AcDbBlockRepETag
1070
     1
1071
      170
1005
314
  0
MTEXT
  5
315
330
AB
100
AcDbEntity
  8
0
100
AcDbMText
 10
100.9978723404242
 20
14.5
 30
0.0
 40
4.0
 41
51.0
 71
     5
 72
     5
  1
富国石油株式会社
 73
     1
 44
1.0
1001
AcDbBlockRepETag
1070
     1
1071
      171
1005
315
1001
ACAD
1000
MTEXTBEGIN
1070
    73
1070
     1
1070
    44
1040
1.0
1070
    74
1070
     0
1000
MTEXTEND
  0
MTEXT
  5
316
102
{ACAD_XDICTIONARY
360
160D
102
}
330
AB
100
AcDbEntity
  8
0
100
AcDbMText
 10
78.47796344079569
 20
23.5
 30
0.0
 40
2.0
 41
3.960182200742991
 71
     5
 72
     5
  1
検\P図
 73
     1
 44
1.0
1001
AcDbBlockRepETag
1070
     1
1071
      172
1005
316
1001
ACAD
1000
MTEXTBEGIN
1070
    73
1070
     1
1070
    44
1040
1.0
1070
    74
1070
     0
1000
MTEXTEND
1000
ACAD_MTEXT_DEFINED_HEIGHT_BEGIN
1070
    46
1040
9.0
1000
ACAD_MTEXT_DEFINED_HEIGHT_END
  0
MTEXT
  5
317
330
AB
100
AcDbEntity
  8
0
100
AcDbMText
 10
78.47796344079569
 20
32.5
 30
0.0
 40
2.0
 41
3.960182200742991
 71
     5
 72
     5
  1
確\P認
 73
     1
 44
1.0
1001
AcDbBlockRepETag
1070
     1
1071
      173
1005
317
1001
ACAD
1000
MTEXTBEGIN
1070
    73
1070
     1
1070
    44
1040
1.0
1070
    74
1070
     0
1000
MTEXTEND
1000
ACAD_MTEXT_DEFINED_HEIGHT_BEGIN
1070
    46
1040
9.0
1000
ACAD_MTEXT_DEFINED_HEIGHT_END
  0
MTEXT
  5
318
330
AB
100
AcDbEntity
  8
0
100
AcDbMText
 10
78.47796344079569
 20
41.5
 30
0.0
 40
2.0
 41
3.960182200742991
 71
     5
 72
     5
  1
縮\P尺
 73
     1
 44
1.0
1001
AcDbBlockRepETag
1070
     1
1071
      174
1005
318
1001
ACAD
1000
MTEXTBEGIN
1070
    73
1070
     1
1070
    44
1040
1.0
1070
    74
1070
     0
1000
MTEXTEND
1000
ACAD_MTEXT_DEFINED_HEIGHT_BEGIN
1070
    46
1040
9.0
1000
ACAD_MTEXT_DEFINED_HEIGHT_END
  0
LINE
  5
319
330
AB
100
AcDbEntity
  8
0
100
AcDbLine
 10
95.49787234042417
 20
19.0
 30
0.0
 11
95.49787234042417
 21
46.0
 31
0.0
1001
AcDbBlockRepETag
1070
     1
1071
      175
1005
319
  0
LINE
  5
31A
330
AB
100
AcDbEntity
  8
0
100
AcDbLine
 10
115.4978723404242
 20
19.0
 30
0.0
 11
115.4978723404242
 21
46.0
 31
0.0
1001
AcDbBlockRepETag
1070
     1
1071
      176
1005
31A
  0
LINE
  5
31B
330
AB
100
AcDbEntity
  8
0
100
AcDbLine
 10
147.4978723404241
 20
37.0
 30
0.0
 11
147.4978723404241
 21
46.0
 31
0.0
1001
AcDbBlockRepETag
1070
     1
1071
      194
1005
31B
  0
MTEXT
  5
31C
330
AB
100
AcDbEntity
  8
0
100
AcDbMText
 10
98.47796344079569
 20
32.5
 30
0.0
 40
2.0
 41
3.960182200742991
 71
     5
 72
     5
  1
設\P計
 73
     1
 44
1.0
1001
AcDbBlockRepETag
1070
     1
1071
      177
1005
31C
1001
ACAD
1000
MTEXTBEGIN
1070
    73
1070
     1
1070
    44
1040
1.0
1070
    74
1070
     0
1000
MTEXTEND
1000
ACAD_MTEXT_DEFINED_HEIGHT_BEGIN
1070
    46
1040
9.0
1000
ACAD_MTEXT_DEFINED_HEIGHT_END
  0
MTEXT
  5
31D
330
AB
100
AcDbEntity
  8
0
100
AcDbMText
 10
98.47796344079569
 20
23.5
 30
0.0
 40
2.0
 41
3.960182200742991
 71
     5
 72
     5
  1
製\P図
 73
     1
 44
1.0
1001
AcDbBlockRepETag
1070
     1
1071
      178
1005
31D
1001
ACAD
1000
MTEXTBEGIN
1070
    73
1070
     1
1070
    44
1040
1.0
1070
    74
1070
     0
1000
MTEXTEND
1000
ACAD_MTEXT_DEFINED_HEIGHT_BEGIN
1070
    46
1040
9.0
1000
ACAD_MTEXT_DEFINED_HEIGHT_END
  0
MTEXT
  5
31E
330
AB
100
AcDbEntity
  8
0
100
AcDbMText
 10
118.4779634407957
 20
41.5
 30
0.0
 40
2.0
 41
3.960182200742991
 71
     5
 72
     5
  1
材\P料
 73
     1
 44
1.0
1001
AcDbBlockRepETag
1070
     1
1071
      179
1005
31E
1001
ACAD
1000
MTEXTBEGIN
1070
    73
1070
     1
1070
    44
1040
1.0
1070
    74
1070
     0
1000
MTEXTEND
1000
ACAD_MTEXT_DEFINED_HEIGHT_BEGIN
1070
    46
1040
9.0
1000
ACAD_MTEXT_DEFINED_HEIGHT_END
  0
LINE
  5
31F
330
AB
100
AcDbEntity
  8
0
  6
HIDDEN2
 48
0.5
100
AcDbLine
 10
192.4978723404242
 20
32.5
 30
0.0
 11
115.4978723404242
 21
32.5
 31
0.0
1001
AcDbBlockRepETag
1070
     1
1071
      180
1005
31F
  0
POINT
  5
320
330
AB
100
AcDbEntity
  8
0
100
AcDbPoint
 10
101.2478723404242
 20
37.0
 30
0.0
1001
AcDbBlockRepETag
1070
     1
1071
      189
1005
320
  0
POINT
  5
321
330
AB
100
AcDbEntity
  8
0
100
AcDbPoint
 10
101.2478723404242
 20
28.0
 30
0.0
1001
AcDbBlockRepETag
1070
     1
1071
      190
1005
321
  0
MTEXT
  5
322
330
AB
100
AcDbEntity
  8
0
100
AcDbMText
 10
108.3728723404242
 20
23.5
 30
0.0
 40
3.0
 41
14.25
 71
     5
 72
     5
  1
齊藤
 73
     1
 44
1.0
1001
AcDbBlockRepETag
1070
     1
1071
      192
1005
322
1001
ACAD
1000
MTEXTBEGIN
1070
    73
1070
     1
1070
    44
1040
1.0
1070
    74
1070
     0
1000
MTEXTEND
1000
ACAD_MTEXT_DEFINED_HEIGHT_BEGIN
1070
    46
1040
9.0
1000
ACAD_MTEXT_DEFINED_HEIGHT_END
  0
TEXT
  5
323
330
AB
100
AcDbEntity
  8
0
100
AcDbText
 10
38.45238095238097
 20
6.230338100985591
 30
0.0
 40
3.0
  1
1
  7
Roman
 72
     1
 11
39.66666666666668
 21
6.230338100985591
 31
0.0
100
AcDbText
1001
AcDbBlockRepETag
1070
     1
1071
       45
1005
323
  0
TEXT
  5
324
330
AB
100
AcDbEntity
  8
0
100
AcDbText
 10
81.90476190476188
 20
6.230338100985591
 30
0.0
 40
3.0
  1
2
  7
Roman
 72
     1
 11
83.33333333333332
 21
6.230338100985591
 31
0.0
100
AcDbText
1001
AcDbBlockRepETag
1070
     1
1071
       46
1005
324
  0
TEXT
  5
325
330
AB
100
AcDbEntity
  8
0
100
AcDbText
 10
125.5714285714286
 20
6.230338100985591
 30
0.0
 40
3.0
  1
3
  7
Roman
 72
     1
 11
127.0
 21
6.230338100985591
 31
0.0
100
AcDbText
1001
AcDbBlockRepETag
1070
     1
1071
       47
1005
325
  0
TEXT
  5
326
330
AB
100
AcDbEntity
  8
0
100
AcDbText
 10
169.1666666666667
 20
6.230338100985591
 30
0.0
 40
3.0
  1
4
  7
Roman
 72
     1
 11
170.6666666666667
 21
6.230338100985591
 31
0.0
100
AcDbText
1001
AcDbBlockRepETag
1070
     1
1071
       48
1005
326
  0
TEXT
  5
327
330
AB
100
AcDbEntity
  8
0
100
AcDbText
 10
193.2387724536951
 20
33.75
 30
0.0
 40
3.0
  1
F
  7
Roman
 72
     1
 11
194.7387724536952
 21
33.75
 31
0.0
100
AcDbText
1001
AcDbBlockRepETag
1070
     1
1071
       49
1005
327
  0
TEXT
  5
328
330
AB
100
AcDbEntity
  8
0
100
AcDbText
 10
193.2387724536951
 20
81.25
 30
0.0
 40
3.0
  1
E
  7
Roman
 72
     1
 11
194.7387724536952
 21
81.25
 31
0.0
100
AcDbText
1001
AcDbBlockRepETag
1070
     1
1071
       50
1005
328
  0
TEXT
  5
329
330
AB
100
AcDbEntity
  8
0
100
AcDbText
 10
193.1673438822666
 20
221.0833333333333
 30
0.0
 40
3.0
  1
B
  7
Roman
 72
     1
 11
194.7387724536952
 21
221.0833333333333
 31
0.0
100
AcDbText
1001
AcDbBlockRepETag
1070
     1
1071
       51
1005
329
  0
TEXT
  5
32A
330
AB
100
AcDbEntity
  8
0
100
AcDbText
 10
193.4530581679809
 20
268.5833333333333
 30
0.0
 40
3.0
  1
A
  7
Roman
 72
     1
 11
194.7387724536952
 21
268.5833333333333
 31
0.0
100
AcDbText
1001
AcDbBlockRepETag
1070
     1
1071
       52
1005
32A
  0
LINE
  5
32B
330
AB
100
AcDbEntity
  8
0
100
AcDbLine
 10
75.49787234042418
 20
10.0
 30
0.0
 11
75.49787234042418
 21
46.0
 31
0.0
1001
AcDbBlockRepETag
1070
     1
1071
      162
1005
32B
  0
LINE
  5
32C
330
AB
100
AcDbEntity
  8
0
100
AcDbLine
 10
126.4978723404242
 20
10.0
 30
0.0
 11
126.4978723404242
 21
19.0
 31
0.0
1001
AcDbBlockRepETag
1070
     1
1071
      167
1005
32C
  0
TEXT
  5
32D
330
AB
100
AcDbEntity
  8
0
100
AcDbText
 10
193.1673438822666
 20
126.0833333333333
 30
0.0
 40
3.0
  1
D
  7
Roman
 72
     1
 11
194.7387724536952
 21
126.0833333333333
 31
0.0
100
AcDbText
1001
AcDbBlockRepETag
1070
     1
1071
       54
1005
32D
  0
TEXT
  5
32E
330
AB
100
AcDbEntity
  8
0
100
AcDbText
 10
193.2387724536951
 20
173.5833333333333
 30
0.0
 40
3.0
  1
C
  7
Roman
 72
     1
 11
194.7387724536952
 21
173.5833333333333
 31
0.0
100
AcDbText
1001
AcDbBlockRepETag
1070
     1
1071
       53
1005
32E
  0
ENDBLK
  5
117
330
AB
100
AcDbEntity
  8
0
100
AcDbBlockEnd
  0
BLOCK
  5
340
330
33F
100
AcDbEntity
  8
0
100
AcDbBlockBegin
  2
_Open30
 70
     0
 10
0.0
 20
0.0
 30
0.0
  3
_Open30
  1

  0
LINE
  5
341
330
33F
100
AcDbEntity
  8
0
  6
ByBlock
 62
     0
370
    -2
100
AcDbLine
 10
-1.0
 20
0.26794919
 30
0.0
 11
0.0
 21
0.0
 31
0.0
  0
LINE
  5
342
330
33F
100
AcDbEntity
  8
0
  6
ByBlock
 62
     0
370
    -2
100
AcDbLine
 10
0.0
 20
0.0
 30
0.0
 11
-1.0
 21
-0.26794919
 31
0.0
  0
LINE
  5
343
330
33F
100
AcDbEntity
  8
0
  6
ByBlock
 62
     0
370
    -2
100
AcDbLine
 10
0.0
 20
0.0
 30
0.0
 11
-1.0
 21
0.0
 31
0.0
  0
ENDBLK
  5
344
330
33F
100
AcDbEntity
  8
0
100
AcDbBlockEnd
  0
BLOCK
  5
4EA
330
4E7
100
AcDbEntity
  8
0
100
AcDbBlockBegin
  2
JIS A3 title block
 70
     2
 10
0.0
 20
0.0
 30
0.0
  3
JIS A3 title block
  1

  4
JIS A3 title block and attributes
  0
LINE
  5
4EB
330
4E7
100
AcDbEntity
  8
0
100
AcDbLine
 10
402.5
 20
10.0
 30
0.0
 11
17.49999999999999
 21
10.0
 31
0.0
1001
AcDbBlockRepETag
1070
     1
1071
        0
1005
4EB
  0
LINE
  5
4EC
330
4E7
100
AcDbEntity
  8
0
100
AcDbLine
 10
17.5
 20
287.0
 30
0.0
 11
402.5
 21
287.0
 31
0.0
1001
AcDbBlockRepETag
1070
     1
1071
        1
1005
4EC
  0
LINE
  5
4ED
330
4E7
100
AcDbEntity
  8
0
100
AcDbLine
 10
25.0
 20
0.0
 30
0.0
 11
0.0
 21
0.0
 31
0.0
1001
AcDbBlockRepETag
1070
     1
1071
        3
1005
4ED
  0
LINE
  5
4EE
330
4E7
100
AcDbEntity
  8
0
100
AcDbLine
 10
0.0
 20
0.0
 30
0.0
 11
0.0
 21
10.0
 31
0.0
1001
AcDbBlockRepETag
1070
     1
1071
        4
1005
4EE
  0
LINE
  5
4EF
330
4E7
100
AcDbEntity
  8
0
100
AcDbLine
 10
65.625
 20
10.0
 30
0.0
 11
65.625
 21
5.0
 31
0.0
1001
AcDbBlockRepETag
1070
     1
1071
        5
1005
4EF
  0
TEXT
  5
4F0
330
4E7
100
AcDbEntity
  8
0
100
AcDbText
 10
40.34821428571429
 20
6.019997240728748
 30
0.0
 40
3.0
  1
1
  7
Roman
 72
     1
 11
41.5625
 21
6.019997240728748
 31
0.0
100
AcDbText
1001
AcDbBlockRepETag
1070
     1
1071
        6
1005
4F0
  0
ATTDEF
  5
4F1
330
4E7
100
AcDbEntity
  8
0
 62
     0
380
     1
100
AcDbText
 10
11.49999999999999
 20
10.0
 30
0.0
 40
3.0
  1

 50
90.0
  7
Roman
100
AcDbAttributeDefinition
  3
Author:
  2
USER
 70
     8
1001
AcDbBlockRepETag
1070
     1
1071
        7
1005
0
  0
TEXT
  5
4F2
330
4E7
100
AcDbEntity
  8
0
100
AcDbText
 10
13.60716135953389
 20
33.08333333333334
 30
0.0
 40
3.0
  1
F
  7
Roman
 72
     1
 11
15.10716135953388
 21
33.08333333333334
 31
0.0
100
AcDbText
1001
AcDbBlockRepETag
1070
     1
1071
        8
1005
4F2
  0
LINE
  5
4F3
330
4E7
100
AcDbEntity
  8
0
100
AcDbLine
 10
17.49999999999999
 20
148.5
 30
0.0
 11
0.0
 21
148.5
 31
0.0
1001
AcDbBlockRepETag
1070
     1
1071
        9
1005
4F3
  0
ATTDEF
  5
4F4
330
4E7
100
AcDbEntity
  8
0
 62
     0
380
     1
100
AcDbText
 10
11.49999999999999
 20
70.0
 30
0.0
 40
3.0
  1

 50
90.0
  7
Roman
100
AcDbAttributeDefinition
  3
Revision date:
  2
REVDATE
 70
     8
1001
AcDbBlockRepETag
1070
     1
1071
       10
1005
0
  0
LINE
  5
4F5
330
4E7
100
AcDbEntity
  8
0
100
AcDbLine
 10
17.49999999999999
 20
56.16666666666667
 30
0.0
 11
12.49999999999999
 21
56.16666666666667
 31
0.0
1001
AcDbBlockRepETag
1070
     1
1071
       11
1005
4F5
  0
TEXT
  5
4F6
330
4E7
100
AcDbEntity
  8
0
100
AcDbText
 10
13.60716135953389
 20
79.25
 30
0.0
 40
3.0
  1
E
  7
Roman
 72
     1
 11
15.10716135953388
 21
79.25
 31
0.0
100
AcDbText
1001
AcDbBlockRepETag
1070
     1
1071
       12
1005
4F6
  0
ATTDEF
  5
4F7
330
4E7
100
AcDbEntity
  8
0
 62
     0
380
     1
100
AcDbText
 10
11.49999999999999
 20
118.0
 30
0.0
 40
3.0
  1

 50
90.0
  7
Roman
100
AcDbAttributeDefinition
  3
File name:
  2
FNAME
 70
     8
1001
AcDbBlockRepETag
1070
     1
1071
       13
1005
0
  0
LINE
  5
4F8
330
4E7
100
AcDbEntity
  8
0
100
AcDbLine
 10
17.49999999999999
 20
102.3333333333333
 30
0.0
 11
12.49999999999999
 21
102.3333333333333
 31
0.0
1001
AcDbBlockRepETag
1070
     1
1071
       14
1005
4F8
  0
TEXT
  5
4F9
330
4E7
100
AcDbEntity
  8
0
100
AcDbText
 10
13.53573278810531
 20
125.4166666666666
 30
0.0
 40
3.0
  1
D
  7
Roman
 72
     1
 11
15.10716135953388
 21
125.4166666666666
 31
0.0
100
AcDbText
1001
AcDbBlockRepETag
1070
     1
1071
       15
1005
4F9
  0
LINE
  5
4FA
330
4E7
100
AcDbEntity
  8
0
100
AcDbLine
 10
17.49999999999999
 20
148.5
 30
0.0
 11
12.49999999999999
 21
148.5
 31
0.0
1001
AcDbBlockRepETag
1070
     1
1071
       16
1005
4FA
  0
TEXT
  5
4FB
330
4E7
100
AcDbEntity
  8
0
100
AcDbText
 10
136.3839285714286
 20
6.019997240728748
 30
0.0
 40
3.0
  1
3
  7
Roman
 72
     1
 11
137.8125
 21
6.019997240728748
 31
0.0
100
AcDbText
1001
AcDbBlockRepETag
1070
     1
1071
       17
1005
4FB
  0
LINE
  5
4FC
330
4E7
100
AcDbEntity
  8
0
100
AcDbLine
 10
113.75
 20
10.0
 30
0.0
 11
113.75
 21
5.0
 31
0.0
1001
AcDbBlockRepETag
1070
     1
1071
       18
1005
4FC
  0
TEXT
  5
4FD
330
4E7
100
AcDbEntity
  8
0
100
AcDbText
 10
88.25892857142857
 20
6.019997240728748
 30
0.0
 40
3.0
  1
2
  7
Roman
 72
     1
 11
89.6875
 21
6.019997240728748
 31
0.0
100
AcDbText
1001
AcDbBlockRepETag
1070
     1
1071
       19
1005
4FD
  0
LINE
  5
4FE
330
4E7
100
AcDbEntity
  8
0
100
AcDbLine
 10
161.875
 20
10.0
 30
0.0
 11
161.875
 21
5.0
 31
0.0
1001
AcDbBlockRepETag
1070
     1
1071
       20
1005
4FE
  0
TEXT
  5
4FF
330
4E7
100
AcDbEntity
  8
0
100
AcDbText
 10
184.4375
 20
6.019997240728748
 30
0.0
 40
3.0
  1
4
  7
Roman
 72
     1
 11
185.9375
 21
6.019997240728748
 31
0.0
100
AcDbText
1001
AcDbBlockRepETag
1070
     1
1071
       21
1005
4FF
  0
TEXT
  5
500
330
4E7
100
AcDbEntity
  8
0
100
AcDbText
 10
13.60716135953389
 20
171.5833333333333
 30
0.0
 40
3.0
  1
C
  7
Roman
 72
     1
 11
15.10716135953388
 21
171.5833333333333
 31
0.0
100
AcDbText
1001
AcDbBlockRepETag
1070
     1
1071
       22
1005
500
  0
LINE
  5
501
330
4E7
100
AcDbEntity
  8
0
100
AcDbLine
 10
17.49999999999999
 20
194.6666666666666
 30
0.0
 11
12.49999999999999
 21
194.6666666666666
 31
0.0
1001
AcDbBlockRepETag
1070
     1
1071
       23
1005
501
  0
TEXT
  5
502
330
4E7
100
AcDbEntity
  8
0
100
AcDbText
 10
13.53573278810531
 20
217.75
 30
0.0
 40
3.0
  1
B
  7
Roman
 72
     1
 11
15.10716135953388
 21
217.75
 31
0.0
100
AcDbText
1001
AcDbBlockRepETag
1070
     1
1071
       24
1005
502
  0
LINE
  5
503
330
4E7
100
AcDbEntity
  8
0
100
AcDbLine
 10
17.49999999999999
 20
240.8333333333333
 30
0.0
 11
12.49999999999999
 21
240.8333333333333
 31
0.0
1001
AcDbBlockRepETag
1070
     1
1071
       25
1005
503
  0
LINE
  5
504
330
4E7
100
AcDbEntity
  8
0
100
AcDbLine
 10
0.0
 20
297.0
 30
0.0
 11
25.0
 21
297.0
 31
0.0
1001
AcDbBlockRepETag
1070
     1
1071
       26
1005
504
  0
LINE
  5
505
330
4E7
100
AcDbEntity
  8
0
100
AcDbLine
 10
0.0
 20
287.0
 30
0.0
 11
0.0
 21
297.0
 31
0.0
1001
AcDbBlockRepETag
1070
     1
1071
       27
1005
505
  0
LINE
  5
506
330
4E7
100
AcDbEntity
  8
0
100
AcDbLine
 10
65.625
 20
287.0
 30
0.0
 11
65.625
 21
292.0
 31
0.0
1001
AcDbBlockRepETag
1070
     1
1071
       28
1005
506
  0
TEXT
  5
507
330
4E7
100
AcDbEntity
  8
0
100
AcDbText
 10
13.8214470738196
 20
263.9166666666666
 30
0.0
 40
3.0
  1
A
  7
Roman
 72
     1
 11
15.10716135953388
 21
263.9166666666666
 31
0.0
100
AcDbText
1001
AcDbBlockRepETag
1070
     1
1071
       29
1005
507
  0
TEXT
  5
508
330
4E7
100
AcDbEntity
  8
0
100
AcDbText
 10
40.34821428571429
 20
288.0
 30
0.0
 40
3.0
  1
1
  7
Roman
 72
     1
 11
41.5625
 21
288.0
 31
0.0
100
AcDbText
1001
AcDbBlockRepETag
1070
     1
1071
       30
1005
508
  0
TEXT
  5
509
330
4E7
100
AcDbEntity
  8
0
100
AcDbText
 10
136.3839285714286
 20
288.0
 30
0.0
 40
3.0
  1
3
  7
Roman
 72
     1
 11
137.8125
 21
288.0
 31
0.0
100
AcDbText
1001
AcDbBlockRepETag
1070
     1
1071
       31
1005
509
  0
LINE
  5
50A
330
4E7
100
AcDbEntity
  8
0
100
AcDbLine
 10
113.75
 20
287.0
 30
0.0
 11
113.75
 21
292.0
 31
0.0
1001
AcDbBlockRepETag
1070
     1
1071
       32
1005
50A
  0
TEXT
  5
50B
330
4E7
100
AcDbEntity
  8
0
100
AcDbText
 10
88.25892857142857
 20
288.0
 30
0.0
 40
3.0
  1
2
  7
Roman
 72
     1
 11
89.6875
 21
288.0
 31
0.0
100
AcDbText
1001
AcDbBlockRepETag
1070
     1
1071
       33
1005
50B
  0
LINE
  5
50C
330
4E7
100
AcDbEntity
  8
0
100
AcDbLine
 10
161.875
 20
287.0
 30
0.0
 11
161.875
 21
292.0
 31
0.0
1001
AcDbBlockRepETag
1070
     1
1071
       34
1005
50C
  0
TEXT
  5
50D
330
4E7
100
AcDbEntity
  8
0
100
AcDbText
 10
184.4375
 20
288.0
 30
0.0
 40
3.0
  1
4
  7
Roman
 72
     1
 11
185.9375
 21
288.0
 31
0.0
100
AcDbText
1001
AcDbBlockRepETag
1070
     1
1071
       35
1005
50D
  0
LINE
  5
50E
330
4E7
100
AcDbEntity
  8
0
100
AcDbLine
 10
402.5
 20
287.0
 30
0.0
 11
402.5
 21
10.0
 31
0.0
1001
AcDbBlockRepETag
1070
     1
1071
       36
1005
50E
  0
LINE
  5
50F
330
4E7
100
AcDbEntity
  8
0
100
AcDbLine
 10
210.0
 20
10.0
 30
0.0
 11
210.0
 21
0.0
 31
0.0
1001
AcDbBlockRepETag
1070
     1
1071
       37
1005
50F
  0
LINE
  5
510
330
4E7
100
AcDbEntity
  8
0
100
AcDbLine
 10
258.125
 20
10.0
 30
0.0
 11
258.125
 21
5.0
 31
0.0
1001
AcDbBlockRepETag
1070
     1
1071
       39
1005
510
  0
TEXT
  5
511
330
4E7
100
AcDbEntity
  8
0
100
AcDbText
 10
232.6339285714286
 20
6.019997240728748
 30
0.0
 40
3.0
  1
5
  7
Roman
 72
     1
 11
234.0625
 21
6.019997240728748
 31
0.0
100
AcDbText
1001
AcDbBlockRepETag
1070
     1
1071
       40
1005
511
  0
LINE
  5
512
330
4E7
100
AcDbEntity
  8
0
100
AcDbLine
 10
306.25
 20
10.0
 30
0.0
 11
306.25
 21
5.0
 31
0.0
1001
AcDbBlockRepETag
1070
     1
1071
       41
1005
512
  0
TEXT
  5
513
330
4E7
100
AcDbEntity
  8
0
100
AcDbText
 10
280.6875
 20
6.019997240728748
 30
0.0
 40
3.0
  1
6
  7
Roman
 72
     1
 11
282.1875
 21
6.019997240728748
 31
0.0
100
AcDbText
1001
AcDbBlockRepETag
1070
     1
1071
       42
1005
513
  0
TEXT
  5
514
330
4E7
100
AcDbEntity
  8
0
100
AcDbText
 10
328.8839285714285
 20
6.019997240728748
 30
0.0
 40
3.0
  1
7
  7
Roman
 72
     1
 11
330.3125
 21
6.019997240728748
 31
0.0
100
AcDbText
1001
AcDbBlockRepETag
1070
     1
1071
       43
1005
514
  0
LINE
  5
515
330
4E7
100
AcDbEntity
  8
0
100
AcDbLine
 10
354.375
 20
10.0
 30
0.0
 11
354.375
 21
5.0
 31
0.0
1001
AcDbBlockRepETag
1070
     1
1071
       44
1005
515
  0
TEXT
  5
516
330
4E7
100
AcDbEntity
  8
0
100
AcDbText
 10
377.0089285714286
 20
6.019997240728748
 30
0.0
 40
3.0
  1
8
  7
Roman
 72
     1
 11
378.4375
 21
6.019997240728748
 31
0.0
100
AcDbText
1001
AcDbBlockRepETag
1070
     1
1071
       45
1005
516
  0
LINE
  5
517
330
4E7
100
AcDbEntity
  8
0
100
AcDbLine
 10
420.0
 20
10.0
 30
0.0
 11
420.0
 21
0.0
 31
0.0
1001
AcDbBlockRepETag
1070
     1
1071
       46
1005
517
  0
LINE
  5
518
330
4E7
100
AcDbEntity
  8
0
100
AcDbLine
 10
420.0
 20
0.0
 30
0.0
 11
410.0
 21
0.0
 31
0.0
1001
AcDbBlockRepETag
1070
     1
1071
       47
1005
518
  0
LINE
  5
519
330
4E7
100
AcDbEntity
  8
0
 62
     0
380
     1
100
AcDbLine
 10
402.5
 20
49.00000000000036
 30
0.0
 11
402.5
 21
10.0
 31
0.0
1001
AcDbBlockRepETag
1070
     1
1071
       48
1005
519
  0
LINE
  5
51A
330
4E7
100
AcDbEntity
  8
0
 62
     0
380
     1
100
AcDbLine
 10
402.5
 20
10.0
 30
0.0
 11
402.5
 21
49.00000000000036
 31
0.0
1001
AcDbBlockRepETag
1070
     1
1071
       49
1005
51A
  0
TEXT
  5
51B
330
4E7
100
AcDbEntity
  8
0
100
AcDbText
 10
403.8708251683468
 20
33.08333333333334
 30
0.0
 40
3.0
  1
F
  7
Roman
 72
     1
 11
405.3708251683468
 21
33.08333333333334
 31
0.0
100
AcDbText
1001
AcDbBlockRepETag
1070
     1
1071
       50
1005
51B
  0
LINE
  5
51C
330
4E7
100
AcDbEntity
  8
0
100
AcDbLine
 10
402.5
 20
56.16666666666668
 30
0.0
 11
407.5
 21
56.16666666666668
 31
0.0
1001
AcDbBlockRepETag
1070
     1
1071
       51
1005
51C
  0
TEXT
  5
51D
330
4E7
100
AcDbEntity
  8
0
100
AcDbText
 10
403.8708251683468
 20
79.25
 30
0.0
 40
3.0
  1
E
  7
Roman
 72
     1
 11
405.3708251683468
 21
79.25
 31
0.0
100
AcDbText
1001
AcDbBlockRepETag
1070
     1
1071
       52
1005
51D
  0
LINE
  5
51E
330
4E7
100
AcDbEntity
  8
0
100
AcDbLine
 10
402.5
 20
102.3333333333333
 30
0.0
 11
407.5
 21
102.3333333333333
 31
0.0
1001
AcDbBlockRepETag
1070
     1
1071
       53
1005
51E
  0
TEXT
  5
51F
330
4E7
100
AcDbEntity
  8
0
100
AcDbText
 10
403.7993965969183
 20
125.4166666666666
 30
0.0
 40
3.0
  1
D
  7
Roman
 72
     1
 11
405.3708251683468
 21
125.4166666666666
 31
0.0
100
AcDbText
1001
AcDbBlockRepETag
1070
     1
1071
       54
1005
51F
  0
LINE
  5
520
330
4E7
100
AcDbEntity
  8
0
100
AcDbLine
 10
402.5
 20
148.5
 30
0.0
 11
420.0
 21
148.5
 31
0.0
1001
AcDbBlockRepETag
1070
     1
1071
       56
1005
520
  0
LINE
  5
521
330
4E7
100
AcDbEntity
  8
0
100
AcDbLine
 10
210.0
 20
287.0
 30
0.0
 11
210.0
 21
297.0
 31
0.0
1001
AcDbBlockRepETag
1070
     1
1071
       57
1005
521
  0
LINE
  5
522
330
4E7
100
AcDbEntity
  8
0
100
AcDbLine
 10
258.125
 20
287.0
 30
0.0
 11
258.125
 21
292.0
 31
0.0
1001
AcDbBlockRepETag
1070
     1
1071
       58
1005
522
  0
LINE
  5
523
330
4E7
100
AcDbEntity
  8
0
100
AcDbLine
 10
210.0
 20
287.0
 30
0.0
 11
210.0
 21
292.0
 31
0.0
1001
AcDbBlockRepETag
1070
     1
1071
       59
1005
523
  0
TEXT
  5
524
330
4E7
100
AcDbEntity
  8
0
100
AcDbText
 10
232.6339285714286
 20
288.0
 30
0.0
 40
3.0
  1
5
  7
Roman
 72
     1
 11
234.0625
 21
288.0
 31
0.0
100
AcDbText
1001
AcDbBlockRepETag
1070
     1
1071
       60
1005
524
  0
LINE
  5
525
330
4E7
100
AcDbEntity
  8
0
100
AcDbLine
 10
306.25
 20
287.0
 30
0.0
 11
306.25
 21
292.0
 31
0.0
1001
AcDbBlockRepETag
1070
     1
1071
       61
1005
525
  0
TEXT
  5
526
330
4E7
100
AcDbEntity
  8
0
100
AcDbText
 10
280.6875
 20
288.0
 30
0.0
 40
3.0
  1
6
  7
Roman
 72
     1
 11
282.1875
 21
288.0
 31
0.0
100
AcDbText
1001
AcDbBlockRepETag
1070
     1
1071
       62
1005
526
  0
TEXT
  5
527
330
4E7
100
AcDbEntity
  8
0
100
AcDbText
 10
328.8839285714285
 20
288.0
 30
0.0
 40
3.0
  1
7
  7
Roman
 72
     1
 11
330.3125
 21
288.0
 31
0.0
100
AcDbText
1001
AcDbBlockRepETag
1070
     1
1071
       63
1005
527
  0
TEXT
  5
528
330
4E7
100
AcDbEntity
  8
0
100
AcDbText
 10
403.8708251683468
 20
171.5833333333333
 30
0.0
 40
3.0
  1
C
  7
Roman
 72
     1
 11
405.3708251683468
 21
171.5833333333333
 31
0.0
100
AcDbText
1001
AcDbBlockRepETag
1070
     1
1071
       64
1005
528
  0
LINE
  5
529
330
4E7
100
AcDbEntity
  8
0
100
AcDbLine
 10
402.5
 20
194.6666666666667
 30
0.0
 11
407.5
 21
194.6666666666667
 31
0.0
1001
AcDbBlockRepETag
1070
     1
1071
       65
1005
529
  0
TEXT
  5
52A
330
4E7
100
AcDbEntity
  8
0
100
AcDbText
 10
403.7993965969183
 20
217.75
 30
0.0
 40
3.0
  1
B
  7
Roman
 72
     1
 11
405.3708251683468
 21
217.75
 31
0.0
100
AcDbText
1001
AcDbBlockRepETag
1070
     1
1071
       66
1005
52A
  0
LINE
  5
52B
330
4E7
100
AcDbEntity
  8
0
100
AcDbLine
 10
402.5
 20
240.8333333333334
 30
0.0
 11
407.5
 21
240.8333333333334
 31
0.0
1001
AcDbBlockRepETag
1070
     1
1071
       67
1005
52B
  0
LINE
  5
52C
330
4E7
100
AcDbEntity
  8
0
100
AcDbLine
 10
354.375
 20
287.0
 30
0.0
 11
354.375
 21
292.0
 31
0.0
1001
AcDbBlockRepETag
1070
     1
1071
       68
1005
52C
  0
TEXT
  5
52D
330
4E7
100
AcDbEntity
  8
0
100
AcDbText
 10
377.0089285714286
 20
288.0
 30
0.0
 40
3.0
  1
8
  7
Roman
 72
     1
 11
378.4375
 21
288.0
 31
0.0
100
AcDbText
1001
AcDbBlockRepETag
1070
     1
1071
       69
1005
52D
  0
LINE
  5
52E
330
4E7
100
AcDbEntity
  8
0
100
AcDbLine
 10
420.0
 20
297.0
 30
0.0
 11
420.0
 21
287.0
 31
0.0
1001
AcDbBlockRepETag
1070
     1
1071
       70
1005
52E
  0
TEXT
  5
52F
330
4E7
100
AcDbEntity
  8
0
100
AcDbText
 10
404.0851108826325
 20
263.9166666666666
 30
0.0
 40
3.0
  1
A
  7
Roman
 72
     1
 11
405.3708251683468
 21
263.9166666666666
 31
0.0
100
AcDbText
1001
AcDbBlockRepETag
1070
     1
1071
       71
1005
52F
  0
LINE
  5
530
330
4E7
100
AcDbEntity
  8
0
100
AcDbLine
 10
410.0
 20
297.0
 30
0.0
 11
420.0
 21
297.0
 31
0.0
1001
AcDbBlockRepETag
1070
     1
1071
       72
1005
530
  0
LINE
  5
531
330
4E7
100
AcDbEntity
  8
0
100
AcDbLine
 10
286.4978723404242
 20
10.0
 30
0.0
 11
286.4978723404242
 21
10.0
 31
0.0
1001
AcDbBlockRepETag
1070
     1
1071
      161
1005
531
  0
LINE
  5
532
330
4E7
100
AcDbEntity
  8
0
100
AcDbLine
 10
285.4978723404242
 20
10.0
 30
0.0
 11
285.4978723404242
 21
46.0
 31
0.0
1001
AcDbBlockRepETag
1070
     1
1071
      162
1005
532
  0
LINE
  5
533
330
4E7
100
AcDbEntity
  8
0
100
AcDbLine
 10
402.4978723404242
 20
19.0
 30
0.0
 11
285.4978723404242
 21
19.0
 31
0.0
1001
AcDbBlockRepETag
1070
     1
1071
      166
1005
533
  0
LINE
  5
534
330
4E7
100
AcDbEntity
  8
0
100
AcDbLine
 10
336.4978723404242
 20
10.0
 30
0.0
 11
336.4978723404242
 21
19.0
 31
0.0
1001
AcDbBlockRepETag
1070
     1
1071
      167
1005
534
  0
LINE
  5
535
330
4E7
100
AcDbEntity
  8
0
100
AcDbLine
 10
325.4978723404242
 20
28.0
 30
0.0
 11
285.4978723404242
 21
28.0
 31
0.0
1001
AcDbBlockRepETag
1070
     1
1071
      168
1005
535
  0
LINE
  5
536
330
4E7
100
AcDbEntity
  8
0
100
AcDbLine
 10
402.4978723404242
 20
37.0
 30
0.0
 11
285.4978723404242
 21
37.0
 31
0.0
1001
AcDbBlockRepETag
1070
     1
1071
      169
1005
536
  0
LINE
  5
537
330
4E7
100
AcDbEntity
  8
0
100
AcDbLine
 10
402.4978723404242
 20
46.0
 30
0.0
 11
285.4978723404242
 21
46.0
 31
0.0
1001
AcDbBlockRepETag
1070
     1
1071
      170
1005
537
  0
MTEXT
  5
538
330
4E7
100
AcDbEntity
  8
0
100
AcDbMText
 10
310.9978723404242
 20
14.5
 30
0.0
 40
4.0
 41
51.0
 71
     5
 72
     5
  1
富国石油株式会社
 73
     1
 44
1.0
1001
AcDbBlockRepETag
1070
     1
1071
      171
1005
538
1001
ACAD
1000
MTEXTBEGIN
1070
    73
1070
     1
1070
    44
1040
1.0
1070
    74
1070
     0
1000
MTEXTEND
  0
MTEXT
  5
539
102
{ACAD_XDICTIONARY
360
1611
102
}
330
4E7
100
AcDbEntity
  8
0
100
AcDbMText
 10
288.4779634407957
 20
23.5
 30
0.0
 40
2.0
 41
3.960182200742991
 71
     5
 72
     5
  1
検\P図
 73
     1
 44
1.0
1001
AcDbBlockRepETag
1070
     1
1071
      172
1005
539
1001
ACAD
1000
MTEXTBEGIN
1070
    73
1070
     1
1070
    44
1040
1.0
1070
    74
1070
     0
1000
MTEXTEND
1000
ACAD_MTEXT_DEFINED_HEIGHT_BEGIN
1070
    46
1040
9.0
1000
ACAD_MTEXT_DEFINED_HEIGHT_END
  0
MTEXT
  5
53A
330
4E7
100
AcDbEntity
  8
0
100
AcDbMText
 10
288.4779634407957
 20
32.5
 30
0.0
 40
2.0
 41
3.960182200742991
 71
     5
 72
     5
  1
確\P認
 73
     1
 44
1.0
1001
AcDbBlockRepETag
1070
     1
1071
      173
1005
53A
1001
ACAD
1000
MTEXTBEGIN
1070
    73
1070
     1
1070
    44
1040
1.0
1070
    74
1070
     0
1000
MTEXTEND
1000
ACAD_MTEXT_DEFINED_HEIGHT_BEGIN
1070
    46
1040
9.0
1000
ACAD_MTEXT_DEFINED_HEIGHT_END
  0
MTEXT
  5
53B
330
4E7
100
AcDbEntity
  8
0
100
AcDbMText
 10
288.4779634407957
 20
41.5
 30
0.0
 40
2.0
 41
3.960182200742991
 71
     5
 72
     5
  1
縮\P尺
 73
     1
 44
1.0
1001
AcDbBlockRepETag
1070
     1
1071
      174
1005
53B
1001
ACAD
1000
MTEXTBEGIN
1070
    73
1070
     1
1070
    44
1040
1.0
1070
    74
1070
     0
1000
MTEXTEND
1000
ACAD_MTEXT_DEFINED_HEIGHT_BEGIN
1070
    46
1040
9.0
1000
ACAD_MTEXT_DEFINED_HEIGHT_END
  0
LINE
  5
53C
330
4E7
100
AcDbEntity
  8
0
100
AcDbLine
 10
305.4978723404242
 20
19.0
 30
0.0
 11
305.4978723404242
 21
46.0
 31
0.0
1001
AcDbBlockRepETag
1070
     1
1071
      175
1005
53C
  0
LINE
  5
53D
330
4E7
100
AcDbEntity
  8
0
100
AcDbLine
 10
325.4978723404242
 20
19.0
 30
0.0
 11
325.4978723404242
 21
46.0
 31
0.0
1001
AcDbBlockRepETag
1070
     1
1071
      176
1005
53D
  0
LINE
  5
53E
330
4E7
100
AcDbEntity
  8
0
100
AcDbLine
 10
357.4978723404242
 20
37.0
 30
0.0
 11
357.4978723404242
 21
46.0
 31
0.0
1001
AcDbBlockRepETag
1070
     1
1071
      194
1005
53E
  0
MTEXT
  5
53F
330
4E7
100
AcDbEntity
  8
0
100
AcDbMText
 10
308.4779634407957
 20
32.5
 30
0.0
 40
2.0
 41
3.960182200742991
 71
     5
 72
     5
  1
設\P計
 73
     1
 44
1.0
1001
AcDbBlockRepETag
1070
     1
1071
      177
1005
53F
1001
ACAD
1000
MTEXTBEGIN
1070
    73
1070
     1
1070
    44
1040
1.0
1070
    74
1070
     0
1000
MTEXTEND
1000
ACAD_MTEXT_DEFINED_HEIGHT_BEGIN
1070
    46
1040
9.0
1000
ACAD_MTEXT_DEFINED_HEIGHT_END
  0
MTEXT
  5
540
330
4E7
100
AcDbEntity
  8
0
100
AcDbMText
 10
308.4779634407957
 20
23.5
 30
0.0
 40
2.0
 41
3.960182200742991
 71
     5
 72
     5
  1
製\P図
 73
     1
 44
1.0
1001
AcDbBlockRepETag
1070
     1
1071
      178
1005
540
1001
ACAD
1000
MTEXTBEGIN
1070
    73
1070
     1
1070
    44
1040
1.0
1070
    74
1070
     0
1000
MTEXTEND
1000
ACAD_MTEXT_DEFINED_HEIGHT_BEGIN
1070
    46
1040
9.0
1000
ACAD_MTEXT_DEFINED_HEIGHT_END
  0
MTEXT
  5
541
330
4E7
100
AcDbEntity
  8
0
100
AcDbMText
 10
328.4779634407957
 20
41.5
 30
0.0
 40
2.0
 41
3.960182200742991
 71
     5
 72
     5
  1
材\P料
 73
     1
 44
1.0
1001
AcDbBlockRepETag
1070
     1
1071
      179
1005
541
1001
ACAD
1000
MTEXTBEGIN
1070
    73
1070
     1
1070
    44
1040
1.0
1070
    74
1070
     0
1000
MTEXTEND
1000
ACAD_MTEXT_DEFINED_HEIGHT_BEGIN
1070
    46
1040
9.0
1000
ACAD_MTEXT_DEFINED_HEIGHT_END
  0
LINE
  5
542
330
4E7
100
AcDbEntity
  8
0
  6
HIDDEN2
 48
0.5
100
AcDbLine
 10
402.4978723404242
 20
32.5
 30
0.0
 11
325.4978723404242
 21
32.5
 31
0.0
1001
AcDbBlockRepETag
1070
     1
1071
      180
1005
542
  0
POINT
  5
543
330
4E7
100
AcDbEntity
  8
0
100
AcDbPoint
 10
311.2478723404242
 20
37.0
 30
0.0
1001
AcDbBlockRepETag
1070
     1
1071
      189
1005
543
  0
POINT
  5
544
330
4E7
100
AcDbEntity
  8
0
100
AcDbPoint
 10
311.2478723404242
 20
28.0
 30
0.0
1001
AcDbBlockRepETag
1070
     1
1071
      190
1005
544
  0
LINE
  5
545
330
4E7
100
AcDbEntity
  8
0
100
AcDbLine
 10
17.5
 20
10.0
 30
0.0
 11
17.5
 21
287.0
 31
0.0
1001
AcDbBlockRepETag
1070
     1
1071
       74
1005
545
  0
ENDBLK
  5
546
330
4E7
100
AcDbEntity
  8
0
100
AcDbBlockEnd
  0
BLOCK
  5
6F0
330
6ED
100
AcDbEntity
  8
0
100
AcDbBlockBegin
  2
JIS A4 title block (landscape)
 70
     2
 10
0.0
 20
0.0
 30
0.0
  3
JIS A4 title block (landscape)
  1

  4
JIS A3 title block and attributes
  0
LINE
  5
92E
330
6ED
100
AcDbEntity
  8
0
100
AcDbLine
 10
0.0
 20
297.0
 30
0.0
 11
25.0
 21
297.0
 31
0.0
1001
AcDbBlockRepETag
1070
     1
1071
       26
1005
92E
  0
LINE
  5
92F
330
6ED
100
AcDbEntity
  8
0
100
AcDbLine
 10
0.0
 20
287.0
 30
0.0
 11
0.0
 21
297.0
 31
0.0
1001
AcDbBlockRepETag
1070
     1
1071
       27
1005
92F
  0
LINE
  5
989
330
6ED
100
AcDbEntity
  8
0
100
AcDbLine
 10
279.5
 20
97.0
 30
0.0
 11
17.5
 21
97.0
 31
0.0
1001
AcDbBlockRepETag
1070
     1
1071
        0
1005
989
  0
LINE
  5
98A
330
6ED
100
AcDbEntity
  8
0
100
AcDbLine
 10
17.5
 20
287.0
 30
0.0
 11
279.5
 21
287.0
 31
0.0
1001
AcDbBlockRepETag
1070
     1
1071
        1
1005
98A
  0
LINE
  5
98B
330
6ED
100
AcDbEntity
  8
0
100
AcDbLine
 10
17.5
 20
97.0
 30
0.0
 11
17.5
 21
287.0
 31
0.0
1001
AcDbBlockRepETag
1070
     1
1071
        2
1005
98B
  0
LINE
  5
98C
330
6ED
100
AcDbEntity
  8
0
100
AcDbLine
 10
25.0
 20
87.0
 30
0.0
 11
0.0
 21
87.0
 31
0.0
1001
AcDbBlockRepETag
1070
     1
1071
        3
1005
98C
  0
LINE
  5
98D
330
6ED
100
AcDbEntity
  8
0
100
AcDbLine
 10
0.0
 20
87.0
 30
0.0
 11
0.0
 21
97.0
 31
0.0
1001
AcDbBlockRepETag
1070
     1
1071
        4
1005
98D
  0
LINE
  5
98E
330
6ED
100
AcDbEntity
  8
0
100
AcDbLine
 10
61.16666666666668
 20
97.0
 30
0.0
 11
61.16666666666668
 21
92.0
 31
0.0
1001
AcDbBlockRepETag
1070
     1
1071
        5
1005
98E
  0
TEXT
  5
98F
330
6ED
100
AcDbEntity
  8
0
100
AcDbText
 10
38.1190476190476
 20
93.23033810098563
 30
0.0
 40
3.0
  1
1
  7
Roman
 72
     1
 11
39.33333333333332
 21
93.23033810098563
 31
0.0
100
AcDbText
1001
AcDbBlockRepETag
1070
     1
1071
        6
1005
98F
  0
ATTDEF
  5
990
330
6ED
100
AcDbEntity
  8
0
 62
     0
100
AcDbText
 10
11.5
 20
97.0
 30
0.0
 40
3.0
  1

 50
90.0
  7
Roman
100
AcDbAttributeDefinition
  3
Author:
  2
USER
 70
     8
1001
AcDbBlockRepETag
1070
     1
1071
        7
1005
0
  0
TEXT
  5
991
330
6ED
100
AcDbEntity
  8
0
100
AcDbText
 10
13.87568307432492
 20
120.75
 30
0.0
 40
3.0
  1
D
  7
Roman
 72
     1
 11
15.4471116457535
 21
120.75
 31
0.0
100
AcDbText
1001
AcDbBlockRepETag
1070
     1
1071
        8
1005
991
  0
LINE
  5
992
330
6ED
100
AcDbEntity
  8
0
100
AcDbLine
 10
17.5
 20
192.0
 30
0.0
 11
0.0
 21
192.0
 31
0.0
1001
AcDbBlockRepETag
1070
     1
1071
        9
1005
992
  0
ATTDEF
  5
993
330
6ED
100
AcDbEntity
  8
0
 62
     0
100
AcDbText
 10
11.5
 20
157.0
 30
0.0
 40
3.0
  1

 50
90.0
  7
Roman
100
AcDbAttributeDefinition
  3
Revision date:
  2
REVDATE
 70
     8
1001
AcDbBlockRepETag
1070
     1
1071
       10
1005
0
  0
LINE
  5
994
330
6ED
100
AcDbEntity
  8
0
100
AcDbLine
 10
17.5
 20
144.5
 30
0.0
 11
12.5
 21
144.5
 31
0.0
1001
AcDbBlockRepETag
1070
     1
1071
       11
1005
994
  0
TEXT
  5
995
330
6ED
100
AcDbEntity
  8
0
100
AcDbText
 10
13.9471116457535
 20
168.25
 30
0.0
 40
3.0
  1
C
  7
Roman
 72
     1
 11
15.4471116457535
 21
168.25
 31
0.0
100
AcDbText
1001
AcDbBlockRepETag
1070
     1
1071
       12
1005
995
  0
ATTDEF
  5
996
330
6ED
100
AcDbEntity
  8
0
 62
     0
100
AcDbText
 10
11.5
 20
205.0
 30
0.0
 40
3.0
  1

 50
90.0
  7
Roman
100
AcDbAttributeDefinition
  3
File name:
  2
FNAME
 70
     8
1001
AcDbBlockRepETag
1070
     1
1071
       13
1005
0
  0
LINE
  5
997
330
6ED
100
AcDbEntity
  8
0
100
AcDbLine
 10
17.5
 20
192.0
 30
0.0
 11
12.5
 21
192.0
 31
0.0
1001
AcDbBlockRepETag
1070
     1
1071
       14
1005
997
  0
TEXT
  5
998
330
6ED
100
AcDbEntity
  8
0
100
AcDbText
 10
13.87568307432492
 20
215.75
 30
0.0
 40
3.0
  1
B
  7
Roman
 72
     1
 11
15.4471116457535
 21
215.75
 31
0.0
100
AcDbText
1001
AcDbBlockRepETag
1070
     1
1071
       15
1005
998
  0
LINE
  5
999
330
6ED
100
AcDbEntity
  8
0
100
AcDbLine
 10
104.8333333333333
 20
97.0
 30
0.0
 11
104.8333333333333
 21
92.0
 31
0.0
1001
AcDbBlockRepETag
1070
     1
1071
       16
1005
999
  0
TEXT
  5
99A
330
6ED
100
AcDbEntity
  8
0
100
AcDbText
 10
81.57142857142856
 20
93.23033810098563
 30
0.0
 40
3.0
  1
2
  7
Roman
 72
     1
 11
83.0
 21
93.23033810098563
 31
0.0
100
AcDbText
1001
AcDbBlockRepETag
1070
     1
1071
       17
1005
99A
  0
TEXT
  5
99B
330
6ED
100
AcDbEntity
  8
0
100
AcDbText
 10
125.2380952380952
 20
93.23033810098563
 30
0.0
 40
3.0
  1
3
  7
Roman
 72
     1
 11
126.6666666666667
 21
93.23033810098563
 31
0.0
100
AcDbText
1001
AcDbBlockRepETag
1070
     1
1071
       18
1005
99B
  0
LINE
  5
99C
330
6ED
100
AcDbEntity
  8
0
100
AcDbLine
 10
148.5
 20
97.0
 30
0.0
 11
148.5
 21
87.0
 31
0.0
1001
AcDbBlockRepETag
1070
     1
1071
       19
1005
99C
  0
LINE
  5
99D
330
6ED
100
AcDbEntity
  8
0
100
AcDbLine
 10
148.5
 20
97.0
 30
0.0
 11
148.5
 21
92.0
 31
0.0
1001
AcDbBlockRepETag
1070
     1
1071
       20
1005
99D
  0
LINE
  5
99E
330
6ED
100
AcDbEntity
  8
0
100
AcDbLine
 10
192.1666666666667
 20
97.0
 30
0.0
 11
192.1666666666667
 21
92.0
 31
0.0
1001
AcDbBlockRepETag
1070
     1
1071
       21
1005
99E
  0
TEXT
  5
99F
330
6ED
100
AcDbEntity
  8
0
100
AcDbText
 10
168.8333333333333
 20
93.23033810098563
 30
0.0
 40
3.0
  1
4
  7
Roman
 72
     1
 11
170.3333333333333
 21
93.23033810098563
 31
0.0
100
AcDbText
1001
AcDbBlockRepETag
1070
     1
1071
       22
1005
99F
  0
LINE
  5
9A0
330
6ED
100
AcDbEntity
  8
0
100
AcDbLine
 10
17.5
 20
239.5
 30
0.0
 11
12.5
 21
239.5
 31
0.0
1001
AcDbBlockRepETag
1070
     1
1071
       25
1005
9A0
  0
TEXT
  5
9A1
330
6ED
100
AcDbEntity
  8
0
100
AcDbText
 10
14.16139736003921
 20
263.25
 30
0.0
 40
3.0
  1
A
  7
Roman
 72
     1
 11
15.4471116457535
 21
263.25
 31
0.0
100
AcDbText
1001
AcDbBlockRepETag
1070
     1
1071
       75
1005
9A1
  0
TEXT
  5
9A2
330
6ED
100
AcDbEntity
  8
0
100
AcDbText
 10
38.11904761904761
 20
288.0
 30
0.0
 40
3.0
  1
1
  7
Roman
 72
     1
 11
39.33333333333332
 21
288.0
 31
0.0
100
AcDbText
1001
AcDbBlockRepETag
1070
     1
1071
       76
1005
9A2
  0
LINE
  5
9A3
330
6ED
100
AcDbEntity
  8
0
100
AcDbLine
 10
61.16666666666666
 20
287.0
 30
0.0
 11
61.16666666666666
 21
292.0
 31
0.0
1001
AcDbBlockRepETag
1070
     1
1071
       28
1005
9A3
  0
TEXT
  5
9A4
330
6ED
100
AcDbEntity
  8
0
100
AcDbText
 10
81.57142857142856
 20
288.0
 30
0.0
 40
3.0
  1
2
  7
Roman
 72
     1
 11
83.0
 21
288.0
 31
0.0
100
AcDbText
1001
AcDbBlockRepETag
1070
     1
1071
       29
1005
9A4
  0
LINE
  5
9A5
330
6ED
100
AcDbEntity
  8
0
100
AcDbLine
 10
104.8333333333333
 20
287.0
 30
0.0
 11
104.8333333333333
 21
292.0
 31
0.0
1001
AcDbBlockRepETag
1070
     1
1071
       30
1005
9A5
  0
TEXT
  5
9A6
330
6ED
100
AcDbEntity
  8
0
100
AcDbText
 10
125.2380952380952
 20
288.0
 30
0.0
 40
3.0
  1
3
  7
Roman
 72
     1
 11
126.6666666666667
 21
288.0
 31
0.0
100
AcDbText
1001
AcDbBlockRepETag
1070
     1
1071
       31
1005
9A6
  0
TEXT
  5
9A7
330
6ED
100
AcDbEntity
  8
0
100
AcDbText
 10
168.8333333333333
 20
288.0
 30
0.0
 40
3.0
  1
4
  7
Roman
 72
     1
 11
170.3333333333333
 21
288.0
 31
0.0
100
AcDbText
1001
AcDbBlockRepETag
1070
     1
1071
       32
1005
9A7
  0
LINE
  5
9A8
330
6ED
100
AcDbEntity
  8
0
100
AcDbLine
 10
148.5
 20
287.0
 30
0.0
 11
148.5
 21
297.0
 31
0.0
1001
AcDbBlockRepETag
1070
     1
1071
       33
1005
9A8
  0
LINE
  5
9A9
330
6ED
100
AcDbEntity
  8
0
100
AcDbLine
 10
148.5
 20
287.0
 30
0.0
 11
148.5
 21
292.0
 31
0.0
1001
AcDbBlockRepETag
1070
     1
1071
       34
1005
9A9
  0
LINE
  5
9AA
330
6ED
100
AcDbEntity
  8
0
100
AcDbLine
 10
192.1666666666666
 20
287.0
 30
0.0
 11
192.1666666666666
 21
292.0
 31
0.0
1001
AcDbBlockRepETag
1070
     1
1071
       35
1005
9AA
  0
LINE
  5
9AB
330
6ED
100
AcDbEntity
  8
0
100
AcDbLine
 10
279.5
 20
287.0
 30
0.0
 11
279.5
 21
97.0
 31
0.0
1001
AcDbBlockRepETag
1070
     1
1071
       36
1005
9AB
  0
LINE
  5
9AC
330
6ED
100
AcDbEntity
  8
0
100
AcDbLine
 10
235.8333333333334
 20
97.0
 30
0.0
 11
235.8333333333334
 21
92.0
 31
0.0
1001
AcDbBlockRepETag
1070
     1
1071
       37
1005
9AC
  0
TEXT
  5
9AD
330
6ED
100
AcDbEntity
  8
0
100
AcDbText
 10
212.5714285714286
 20
93.23033810098563
 30
0.0
 40
3.0
  1
5
  7
Roman
 72
     1
 11
214.0
 21
93.23033810098563
 31
0.0
100
AcDbText
1001
AcDbBlockRepETag
1070
     1
1071
       38
1005
9AD
  0
TEXT
  5
9AE
330
6ED
100
AcDbEntity
  8
0
100
AcDbText
 10
256.1666666666667
 20
93.23033810098563
 30
0.0
 40
3.0
  1
6
  7
Roman
 72
     1
 11
257.6666666666667
 21
93.23033810098563
 31
0.0
100
AcDbText
1001
AcDbBlockRepETag
1070
     1
1071
       39
1005
9AE
  0
LINE
  5
9AF
330
6ED
100
AcDbEntity
  8
0
100
AcDbLine
 10
297.0
 20
97.0
 30
0.0
 11
297.0
 21
87.0
 31
0.0
1001
AcDbBlockRepETag
1070
     1
1071
       40
1005
9AF
  0
LINE
  5
9B0
330
6ED
100
AcDbEntity
  8
0
100
AcDbLine
 10
297.0
 20
87.0
 30
0.0
 11
287.0
 21
87.0
 31
0.0
1001
AcDbBlockRepETag
1070
     1
1071
       41
1005
9B0
  0
TEXT
  5
9B1
330
6ED
100
AcDbEntity
  8
0
100
AcDbText
 10
280.1673438822666
 20
120.75
 30
0.0
 40
3.0
  1
D
  7
Roman
 72
     1
 11
281.7387724536952
 21
120.75
 31
0.0
100
AcDbText
1001
AcDbBlockRepETag
1070
     1
1071
       42
1005
9B1
  0
LINE
  5
9B2
330
6ED
100
AcDbEntity
  8
0
100
AcDbLine
 10
279.5
 20
144.5
 30
0.0
 11
284.5
 21
144.5
 31
0.0
1001
AcDbBlockRepETag
1070
     1
1071
       43
1005
9B2
  0
TEXT
  5
9B3
330
6ED
100
AcDbEntity
  8
0
100
AcDbText
 10
280.2387724536952
 20
168.25
 30
0.0
 40
3.0
  1
C
  7
Roman
 72
     1
 11
281.7387724536952
 21
168.25
 31
0.0
100
AcDbText
1001
AcDbBlockRepETag
1070
     1
1071
       44
1005
9B3
  0
LINE
  5
9B4
330
6ED
100
AcDbEntity
  8
0
100
AcDbLine
 10
279.5
 20
192.0
 30
0.0
 11
297.0
 21
192.0
 31
0.0
1001
AcDbBlockRepETag
1070
     1
1071
       45
1005
9B4
  0
LINE
  5
9B5
330
6ED
100
AcDbEntity
  8
0
100
AcDbLine
 10
279.5
 20
192.0
 30
0.0
 11
284.5
 21
192.0
 31
0.0
1001
AcDbBlockRepETag
1070
     1
1071
       46
1005
9B5
  0
TEXT
  5
9B6
330
6ED
100
AcDbEntity
  8
0
100
AcDbText
 10
280.1673438822666
 20
215.75
 30
0.0
 40
3.0
  1
B
  7
Roman
 72
     1
 11
281.7387724536952
 21
215.75
 31
0.0
100
AcDbText
1001
AcDbBlockRepETag
1070
     1
1071
       47
1005
9B6
  0
TEXT
  5
9B7
330
6ED
100
AcDbEntity
  8
0
100
AcDbText
 10
212.5714285714286
 20
288.0
 30
0.0
 40
3.0
  1
5
  7
Roman
 72
     1
 11
214.0
 21
288.0
 31
0.0
100
AcDbText
1001
AcDbBlockRepETag
1070
     1
1071
       48
1005
9B7
  0
LINE
  5
9B8
330
6ED
100
AcDbEntity
  8
0
100
AcDbLine
 10
235.8333333333333
 20
287.0
 30
0.0
 11
235.8333333333333
 21
292.0
 31
0.0
1001
AcDbBlockRepETag
1070
     1
1071
       49
1005
9B8
  0
TEXT
  5
9B9
330
6ED
100
AcDbEntity
  8
0
100
AcDbText
 10
256.1666666666667
 20
288.0
 30
0.0
 40
3.0
  1
6
  7
Roman
 72
     1
 11
257.6666666666667
 21
288.0
 31
0.0
100
AcDbText
1001
AcDbBlockRepETag
1070
     1
1071
       50
1005
9B9
  0
LINE
  5
9BA
330
6ED
100
AcDbEntity
  8
0
100
AcDbLine
 10
279.5
 20
239.5
 30
0.0
 11
284.5
 21
239.5
 31
0.0
1001
AcDbBlockRepETag
1070
     1
1071
       51
1005
9BA
  0
TEXT
  5
9BB
330
6ED
100
AcDbEntity
  8
0
100
AcDbText
 10
280.4530581679809
 20
263.25
 30
0.0
 40
3.0
  1
A
  7
Roman
 72
     1
 11
281.7387724536952
 21
263.25
 31
0.0
100
AcDbText
1001
AcDbBlockRepETag
1070
     1
1071
       52
1005
9BB
  0
LINE
  5
9BC
330
6ED
100
AcDbEntity
  8
0
100
AcDbLine
 10
287.0
 20
297.0
 30
0.0
 11
297.0
 21
297.0
 31
0.0
1001
AcDbBlockRepETag
1070
     1
1071
       53
1005
9BC
  0
LINE
  5
9BD
330
6ED
100
AcDbEntity
  8
0
100
AcDbLine
 10
297.0
 20
297.0
 30
0.0
 11
297.0
 21
287.0
 31
0.0
1001
AcDbBlockRepETag
1070
     1
1071
       54
1005
9BD
  0
LINE
  5
9BE
330
6ED
100
AcDbEntity
  8
0
100
AcDbLine
 10
163.4978723404242
 20
97.0
 30
0.0
 11
163.4978723404242
 21
97.0
 31
0.0
1001
AcDbBlockRepETag
1070
     1
1071
      161
1005
9BE
  0
LINE
  5
9BF
330
6ED
100
AcDbEntity
  8
0
100
AcDbLine
 10
162.4978723404242
 20
97.0
 30
0.0
 11
162.4978723404242
 21
133.0
 31
0.0
1001
AcDbBlockRepETag
1070
     1
1071
      162
1005
9BF
  0
LINE
  5
9C0
330
6ED
100
AcDbEntity
  8
0
100
AcDbLine
 10
279.4978723404242
 20
106.0
 30
0.0
 11
162.4978723404242
 21
106.0
 31
0.0
1001
AcDbBlockRepETag
1070
     1
1071
      166
1005
9C0
  0
LINE
  5
9C1
330
6ED
100
AcDbEntity
  8
0
100
AcDbLine
 10
213.4978723404242
 20
97.0
 30
0.0
 11
213.4978723404242
 21
106.0
 31
0.0
1001
AcDbBlockRepETag
1070
     1
1071
      167
1005
9C1
  0
LINE
  5
9C2
330
6ED
100
AcDbEntity
  8
0
100
AcDbLine
 10
202.4978723404242
 20
115.0
 30
0.0
 11
162.4978723404242
 21
115.0
 31
0.0
1001
AcDbBlockRepETag
1070
     1
1071
      168
1005
9C2
  0
LINE
  5
9C3
330
6ED
100
AcDbEntity
  8
0
100
AcDbLine
 10
279.4978723404242
 20
124.0
 30
0.0
 11
162.4978723404242
 21
124.0
 31
0.0
1001
AcDbBlockRepETag
1070
     1
1071
      169
1005
9C3
  0
LINE
  5
9C4
330
6ED
100
AcDbEntity
  8
0
100
AcDbLine
 10
279.4978723404242
 20
133.0
 30
0.0
 11
162.4978723404242
 21
133.0
 31
0.0
1001
AcDbBlockRepETag
1070
     1
1071
      170
1005
9C4
  0
MTEXT
  5
9C5
330
6ED
100
AcDbEntity
  8
0
100
AcDbMText
 10
187.9978723404241
 20
101.5
 30
0.0
 40
4.0
 41
51.0
 71
     5
 72
     5
  1
富国石油株式会社
 73
     1
 44
1.0
1001
AcDbBlockRepETag
1070
     1
1071
      171
1005
9C5
1001
ACAD
1000
MTEXTBEGIN
1070
    73
1070
     1
1070
    44
1040
1.0
1070
    74
1070
     0
1000
MTEXTEND
  0
MTEXT
  5
9C6
102
{ACAD_XDICTIONARY
360
161B
102
}
330
6ED
100
AcDbEntity
  8
0
100
AcDbMText
 10
165.4779634407957
 20
110.5
 30
0.0
 40
2.0
 41
3.960182200742991
 71
     5
 72
     5
  1
検\P図
 73
     1
 44
1.0
1001
AcDbBlockRepETag
1070
     1
1071
      172
1005
9C6
1001
ACAD
1000
MTEXTBEGIN
1070
    73
1070
     1
1070
    44
1040
1.0
1070
    74
1070
     0
1000
MTEXTEND
1000
ACAD_MTEXT_DEFINED_HEIGHT_BEGIN
1070
    46
1040
9.0
1000
ACAD_MTEXT_DEFINED_HEIGHT_END
  0
MTEXT
  5
9C7
330
6ED
100
AcDbEntity
  8
0
100
AcDbMText
 10
165.4779634407957
 20
119.5
 30
0.0
 40
2.0
 41
3.960182200742991
 71
     5
 72
     5
  1
確\P認
 73
     1
 44
1.0
1001
AcDbBlockRepETag
1070
     1
1071
      173
1005
9C7
1001
ACAD
1000
MTEXTBEGIN
1070
    73
1070
     1
1070
    44
1040
1.0
1070
    74
1070
     0
1000
MTEXTEND
1000
ACAD_MTEXT_DEFINED_HEIGHT_BEGIN
1070
    46
1040
9.0
1000
ACAD_MTEXT_DEFINED_HEIGHT_END
  0
MTEXT
  5
9C8
330
6ED
100
AcDbEntity
  8
0
100
AcDbMText
 10
165.4779634407957
 20
128.5
 30
0.0
 40
2.0
 41
3.960182200742991
 71
     5
 72
     5
  1
縮\P尺
 73
     1
 44
1.0
1001
AcDbBlockRepETag
1070
     1
1071
      174
1005
9C8
1001
ACAD
1000
MTEXTBEGIN
1070
    73
1070
     1
1070
    44
1040
1.0
1070
    74
1070
     0
1000
MTEXTEND
1000
ACAD_MTEXT_DEFINED_HEIGHT_BEGIN
1070
    46
1040
9.0
1000
ACAD_MTEXT_DEFINED_HEIGHT_END
  0
LINE
  5
9C9
330
6ED
100
AcDbEntity
  8
0
100
AcDbLine
 10
182.4978723404242
 20
106.0
 30
0.0
 11
182.4978723404242
 21
133.0
 31
0.0
1001
AcDbBlockRepETag
1070
     1
1071
      175
1005
9C9
  0
LINE
  5
9CA
330
6ED
100
AcDbEntity
  8
0
100
AcDbLine
 10
202.4978723404242
 20
106.0
 30
0.0
 11
202.4978723404242
 21
133.0
 31
0.0
1001
AcDbBlockRepETag
1070
     1
1071
      176
1005
9CA
  0
LINE
  5
9CB
330
6ED
100
AcDbEntity
  8
0
100
AcDbLine
 10
234.4978723404242
 20
124.0
 30
0.0
 11
234.4978723404242
 21
133.0
 31
0.0
1001
AcDbBlockRepETag
1070
     1
1071
      194
1005
9CB
  0
MTEXT
  5
9CC
330
6ED
100
AcDbEntity
  8
0
100
AcDbMText
 10
185.4779634407957
 20
119.5
 30
0.0
 40
2.0
 41
3.960182200742991
 71
     5
 72
     5
  1
設\P計
 73
     1
 44
1.0
1001
AcDbBlockRepETag
1070
     1
1071
      177
1005
9CC
1001
ACAD
1000
MTEXTBEGIN
1070
    73
1070
     1
1070
    44
1040
1.0
1070
    74
1070
     0
1000
MTEXTEND
1000
ACAD_MTEXT_DEFINED_HEIGHT_BEGIN
1070
    46
1040
9.0
1000
ACAD_MTEXT_DEFINED_HEIGHT_END
  0
MTEXT
  5
9CD
330
6ED
100
AcDbEntity
  8
0
100
AcDbMText
 10
185.4779634407957
 20
110.5
 30
0.0
 40
2.0
 41
3.960182200742991
 71
     5
 72
     5
  1
製\P図
 73
     1
 44
1.0
1001
AcDbBlockRepETag
1070
     1
1071
      178
1005
9CD
1001
ACAD
1000
MTEXTBEGIN
1070
    73
1070
     1
1070
    44
1040
1.0
1070
    74
1070
     0
1000
MTEXTEND
1000
ACAD_MTEXT_DEFINED_HEIGHT_BEGIN
1070
    46
1040
9.0
1000
ACAD_MTEXT_DEFINED_HEIGHT_END
  0
MTEXT
  5
9CE
330
6ED
100
AcDbEntity
  8
0
100
AcDbMText
 10
205.4779634407957
 20
128.5
 30
0.0
 40
2.0
 41
3.960182200742991
 71
     5
 72
     5
  1
材\P料
 73
     1
 44
1.0
1001
AcDbBlockRepETag
1070
     1
1071
      179
1005
9CE
1001
ACAD
1000
MTEXTBEGIN
1070
    73
1070
     1
1070
    44
1040
1.0
1070
    74
1070
     0
1000
MTEXTEND
1000
ACAD_MTEXT_DEFINED_HEIGHT_BEGIN
1070
    46
1040
9.0
1000
ACAD_MTEXT_DEFINED_HEIGHT_END
  0
LINE
  5
9CF
330
6ED
100
AcDbEntity
  8
0
  6
HIDDEN2
 48
0.5
100
AcDbLine
 10
279.4978723404242
 20
119.5
 30
0.0
 11
202.4978723404242
 21
119.5
 31
0.0
1001
AcDbBlockRepETag
1070
     1
1071
      180
1005
9CF
  0
POINT
  5
9D0
330
6ED
100
AcDbEntity
  8
0
100
AcDbPoint
 10
188.2478723404242
 20
124.0
 30
0.0
1001
AcDbBlockRepETag
1070
     1
1071
      189
1005
9D0
  0
POINT
  5
9D1
330
6ED
100
AcDbEntity
  8
0
100
AcDbPoint
 10
188.2478723404242
 20
115.0
 30
0.0
1001
AcDbBlockRepETag
1070
     1
1071
      190
1005
9D1
  0
ENDBLK
  5
74C
330
6ED
100
AcDbEntity
  8
0
100
AcDbBlockEnd
  0
BLOCK
  5
B3C
330
B3B
100
AcDbEntity
  8
0
100
AcDbBlockBegin
  2
*D18
 70
     1
 10
0.0
 20
0.0
 30
0.0
  3
*D18
  1

  0
LINE
  5
B3D
330
B3B
100
AcDbEntity
  8
0
  6
HIDDEN2
 62
     0
 48
3.0
370
    -2
100
AcDbLine
 10
-182.6015554895849
 20
1743.101199955092
 30
0.0
 11
-182.6015554895849
 21
1823.101199955092
 31
0.0
  0
LINE
  5
B3E
330
B3B
100
AcDbEntity
  8
0
  6
HIDDEN2
 62
     0
 48
3.0
370
    -2
100
AcDbLine
 10
-137.061555489585
 20
1745.081199955092
 30
0.0
 11
-137.061555489585
 21
1823.101199955092
 31
0.0
  0
LINE
  5
B3F
330
B3B
100
AcDbEntity
  8
0
  6
HIDDEN2
 62
     0
 48
3.0
370
    -2
100
AcDbLine
 10
-174.6015554895849
 20
1822.101199955093
 30
0.0
 11
-145.061555489585
 21
1822.101199955093
 31
0.0
  0
INSERT
  5
B40
330
B3B
100
AcDbEntity
  8
0
  6
HIDDEN2
 62
     0
 48
3.0
370
    -2
100
AcDbBlockReference
  2
_Open30
 10
-182.6015554895849
 20
1822.101199955093
 30
0.0
 41
8.0
 42
8.0
 43
8.0
 50
180.0
  0
INSERT
  5
B41
330
B3B
100
AcDbEntity
  8
0
  6
HIDDEN2
 62
     0
 48
3.0
370
    -2
100
AcDbBlockReference
  2
_Open30
 10
-137.061555489585
 20
1822.101199955093
 30
0.0
 41
8.0
 42
8.0
 43
8.0
  0
MTEXT
  5
B42
330
B3B
100
AcDbEntity
  8
0
  6
HIDDEN2
 62
     0
 48
3.0
100
AcDbMText
 10
-160.0705731353388
 20
1830.150915864183
 30
0.0
 40
7.5
 41
0.0
 71
     5
 72
     1
  1
\A1;{\fＭＳ Ｐゴシック|b0|i0|c128|p50;カブリ}
 73
     1
 44
1.0
1001
ACAD
1000
MTEXTBEGIN
1070
    73
1070
     1
1070
    44
1040
1.0
1070
    74
1070
     0
1000
MTEXTEND
  0
POINT
  5
B43
330
B3B
100
AcDbEntity
  8
Defpoints
  6
HIDDEN2
 62
     0
 48
3.0
100
AcDbPoint
 10
-182.6015554895849
 20
1742.101199955093
 30
0.0
  0
POINT
  5
B44
330
B3B
100
AcDbEntity
  8
Defpoints
  6
HIDDEN2
 62
     0
 48
3.0
100
AcDbPoint
 10
-137.061555489585
 20
1744.081199955092
 30
0.0
  0
POINT
  5
B45
330
B3B
100
AcDbEntity
  8
Defpoints
  6
HIDDEN2
 62
     0
 48
3.0
100
AcDbPoint
 10
-137.061555489585
 20
1822.101199955093
 30
0.0
  0
ENDBLK
  5
B46
330
B3B
100
AcDbEntity
  8
0
100
AcDbBlockEnd
  0
BLOCK
  5
B48
330
B47
100
AcDbEntity
  8
0
100
AcDbBlockBegin
  2
*D19
 70
     1
 10
0.0
 20
0.0
 30
0.0
  3
*D19
  1

  0
LINE
  5
B49
330
B47
100
AcDbEntity
  8
0
  6
HIDDEN2
 62
     0
 48
3.0
370
    -2
100
AcDbLine
 10
-236.0448129102014
 20
1742.844255796969
 30
0.0
 11
-236.0448129102014
 21
1853.101199955093
 31
0.0
  0
LINE
  5
B4A
330
B47
100
AcDbEntity
  8
0
  6
HIDDEN2
 62
     0
 48
3.0
370
    -2
100
AcDbLine
 10
-137.061555489585
 20
1743.101199955092
 30
0.0
 11
-137.061555489585
 21
1853.101199955093
 31
0.0
  0
LINE
  5
B4B
330
B47
100
AcDbEntity
  8
0
  6
HIDDEN2
 62
     0
 48
3.0
370
    -2
100
AcDbLine
 10
-228.0448129102015
 20
1852.101199955091
 30
0.0
 11
-145.061555489585
 21
1852.101199955091
 31
0.0
  0
INSERT
  5
B4C
330
B47
100
AcDbEntity
  8
0
  6
HIDDEN2
 62
     0
 48
3.0
370
    -2
100
AcDbBlockReference
  2
_Open30
 10
-236.0448129102014
 20
1852.101199955091
 30
0.0
 41
8.0
 42
8.0
 43
8.0
 50
180.0
  0
INSERT
  5
B4D
330
B47
100
AcDbEntity
  8
0
  6
HIDDEN2
 62
     0
 48
3.0
370
    -2
100
AcDbBlockReference
  2
_Open30
 10
-137.061555489585
 20
1852.101199955091
 30
0.0
 41
8.0
 42
8.0
 43
8.0
  0
MTEXT
  5
B4E
330
B47
100
AcDbEntity
  8
0
  6
HIDDEN2
 62
     0
 48
3.0
100
AcDbMText
 10
-186.5531841998932
 20
1859.959154500547
 30
0.0
 40
7.5
 41
0.0
 71
     5
 72
     1
  1
\A1;{\fＭＳ Ｐゴシック|b0|i0|c128|p50;外径（ｄ）}
 73
     1
 44
1.0
1001
ACAD
1000
MTEXTBEGIN
1070
    73
1070
     1
1070
    44
1040
1.0
1070
    74
1070
     0
1000
MTEXTEND
  0
POINT
  5
B4F
330
B47
100
AcDbEntity
  8
Defpoints
  6
HIDDEN2
 62
     0
 48
3.0
100
AcDbPoint
 10
-236.0448129102014
 20
1741.844255796969
 30
0.0
  0
POINT
  5
B50
330
B47
100
AcDbEntity
  8
Defpoints
  6
HIDDEN2
 62
     0
 48
3.0
100
AcDbPoint
 10
-137.061555489585
 20
1742.101199955092
 30
0.0
  0
POINT
  5
B51
330
B47
100
AcDbEntity
  8
Defpoints
  6
HIDDEN2
 62
     0
 48
3.0
100
AcDbPoint
 10
-137.061555489585
 20
1852.101199955091
 30
0.0
  0
ENDBLK
  5
B52
330
B47
100
AcDbEntity
  8
0
100
AcDbBlockEnd
  0
BLOCK
  5
B54
330
B53
100
AcDbEntity
  8
0
100
AcDbBlockBegin
  2
*D20
 70
     1
 10
0.0
 20
0.0
 30
0.0
  3
*D20
  1

  0
LINE
  5
B55
330
B53
100
AcDbEntity
  8
0
  6
HIDDEN2
 62
     0
 48
3.0
370
    -2
100
AcDbLine
 10
-76.56155548958512
 20
1750.26434215959
 30
0.0
 11
-76.56155548958512
 21
1853.101199955093
 31
0.0
  0
LINE
  5
B56
330
B53
100
AcDbEntity
  8
0
  6
HIDDEN2
 62
     0
 48
3.0
370
    -2
100
AcDbLine
 10
-53.79155548958489
 20
1750.26434215959
 30
0.0
 11
-53.79155548958486
 21
1853.101199955093
 31
0.0
  0
LINE
  5
B57
330
B53
100
AcDbEntity
  8
0
  6
HIDDEN2
 62
     0
 48
3.0
370
    -2
100
AcDbLine
 10
-61.79155548958487
 20
1852.101199955091
 30
0.0
 11
-68.56155548958511
 21
1852.101199955091
 31
0.0
  0
LINE
  5
B58
330
B53
100
AcDbEntity
  8
0
  6
HIDDEN2
 62
     0
 48
3.0
370
    -2
100
AcDbLine
 10
-76.56155548958512
 20
1852.101199955091
 30
0.0
 11
-136.4820100350397
 21
1852.101199955091
 31
0.0
  0
INSERT
  5
B59
330
B53
100
AcDbEntity
  8
0
  6
HIDDEN2
 62
     0
 48
3.0
370
    -2
100
AcDbBlockReference
  2
_Open30
 10
-53.79155548958486
 20
1852.101199955091
 30
0.0
 41
8.0
 42
8.0
 43
8.0
  0
INSERT
  5
B5A
330
B53
100
AcDbEntity
  8
0
  6
HIDDEN2
 62
     0
 48
3.0
370
    -2
100
AcDbBlockReference
  2
_Open30
 10
-76.56155548958512
 20
1852.101199955091
 30
0.0
 41
8.0
 42
8.0
 43
8.0
 50
180.0
  0
MTEXT
  5
B5B
330
B53
100
AcDbEntity
  8
0
  6
HIDDEN2
 62
     0
 48
3.0
100
AcDbMText
 10
-116.5217827623124
 20
1859.895234046001
 30
0.0
 40
7.5
 41
0.0
 71
     5
 72
     1
  1
\A1;{\fＭＳ Ｐゴシック|b0|i0|c128|p50;厚さ（ａ）}
 73
     1
 44
1.0
1001
ACAD
1000
MTEXTBEGIN
1070
    73
1070
     1
1070
    44
1040
1.0
1070
    74
1070
     0
1000
MTEXTEND
  0
POINT
  5
B5C
330
B53
100
AcDbEntity
  8
Defpoints
  6
HIDDEN2
 62
     0
 48
3.0
100
AcDbPoint
 10
-76.56155548958512
 20
1749.26434215959
 30
0.0
  0
POINT
  5
B5D
330
B53
100
AcDbEntity
  8
Defpoints
  6
HIDDEN2
 62
     0
 48
3.0
100
AcDbPoint
 10
-53.79155548958489
 20
1749.264342159589
 30
0.0
  0
POINT
  5
B5E
330
B53
100
AcDbEntity
  8
Defpoints
  6
HIDDEN2
 62
     0
 48
3.0
100
AcDbPoint
 10
-53.79155548958486
 20
1852.101199955091
 30
0.0
  0
ENDBLK
  5
B5F
330
B53
100
AcDbEntity
  8
0
100
AcDbBlockEnd
  0
BLOCK
  5
B61
330
B60
100
AcDbEntity
  8
0
100
AcDbBlockBegin
  2
*D21
 70
     1
 10
0.0
 20
0.0
 30
0.0
  3
*D21
  1

  0
LINE
  5
B62
330
B60
100
AcDbEntity
  8
0
  6
HIDDEN2
 62
     0
 48
3.0
370
    -2
100
AcDbLine
 10
-69.63155548958488
 20
1790.533543009059
 30
0.0
 11
-69.63155548958488
 21
1823.101199955092
 31
0.0
  0
LINE
  5
B63
330
B60
100
AcDbEntity
  8
0
  6
HIDDEN2
 62
     0
 48
3.0
370
    -2
100
AcDbLine
 10
-60.72155548958489
 20
1790.533543009059
 30
0.0
 11
-60.72155548958489
 21
1823.101199955092
 31
0.0
  0
LINE
  5
B64
330
B60
100
AcDbEntity
  8
0
  6
HIDDEN2
 62
     0
 48
3.0
370
    -2
100
AcDbLine
 10
-52.72155548958489
 20
1822.101199955093
 30
0.0
 11
-44.72155548958489
 21
1822.101199955093
 31
0.0
  0
LINE
  5
B65
330
B60
100
AcDbEntity
  8
0
  6
HIDDEN2
 62
     0
 48
3.0
370
    -2
100
AcDbLine
 10
-77.63155548958486
 20
1822.101199955093
 30
0.0
 11
-130.1453054895848
 21
1822.101199955093
 31
0.0
  0
LINE
  5
B66
330
B60
100
AcDbEntity
  8
0
  6
HIDDEN2
 62
     0
 48
3.0
370
    -2
100
AcDbLine
 10
-60.72155548958489
 20
1822.101199955093
 30
0.0
 11
-69.63155548958488
 21
1822.101199955093
 31
0.0
  0
INSERT
  5
B67
330
B60
100
AcDbEntity
  8
0
  6
HIDDEN2
 62
     0
 48
3.0
370
    -2
100
AcDbBlockReference
  2
_Open30
 10
-60.72155548958489
 20
1822.101199955093
 30
0.0
 41
8.0
 42
8.0
 43
8.0
 50
180.0
  0
INSERT
  5
B68
330
B60
100
AcDbEntity
  8
0
  6
HIDDEN2
 62
     0
 48
3.0
370
    -2
100
AcDbBlockReference
  2
_Open30
 10
-69.63155548958488
 20
1822.101199955093
 30
0.0
 41
8.0
 42
8.0
 43
8.0
  0
MTEXT
  5
B69
330
B60
100
AcDbEntity
  8
0
  6
HIDDEN2
 62
     0
 48
3.0
100
AcDbMText
 10
-110.0359304895848
 20
1829.895234046001
 30
0.0
 40
7.5
 41
0.0
 71
     5
 72
     1
  1
\A1;{\fＭＳ Ｐゴシック|b0|i0|c128|p50;厚さ（ｂ）}
 73
     1
 44
1.0
1001
ACAD
1000
MTEXTBEGIN
1070
    73
1070
     1
1070
    44
1040
1.0
1070
    74
1070
     0
1000
MTEXTEND
  0
POINT
  5
B6A
330
B60
100
AcDbEntity
  8
Defpoints
  6
HIDDEN2
 62
     0
 48
3.0
100
AcDbPoint
 10
-69.63155548958488
 20
1789.533543009059
 30
0.0
  0
POINT
  5
B6B
330
B60
100
AcDbEntity
  8
Defpoints
  6
HIDDEN2
 62
     0
 48
3.0
100
AcDbPoint
 10
-60.72155548958489
 20
1789.533543009059
 30
0.0
  0
POINT
  5
B6C
330
B60
100
AcDbEntity
  8
Defpoints
  6
HIDDEN2
 62
     0
 48
3.0
100
AcDbPoint
 10
-60.72155548958489
 20
1822.101199955093
 30
0.0
  0
ENDBLK
  5
B6D
330
B60
100
AcDbEntity
  8
0
100
AcDbBlockEnd
  0
BLOCK
  5
C66
330
C5C
100
AcDbEntity
  8
0
100
AcDbBlockBegin
  2
*D23
 70
     1
 10
0.0
 20
0.0
 30
0.0
  3
*D23
  1

  0
LINE
  5
C8F
330
C5C
100
AcDbEntity
  8
0
  6
HIDDEN2
 62
     0
 48
3.0
370
    -2
100
AcDbLine
 10
-86.84669913639371
 20
1786.622814650693
 30
0.0
 11
-86.84669913639371
 21
1866.622814650693
 31
0.0
  0
LINE
  5
C90
330
C5C
100
AcDbEntity
  8
0
  6
HIDDEN2
 62
     0
 48
3.0
370
    -2
100
AcDbLine
 10
-41.3066991363938
 20
1788.602814650692
 30
0.0
 11
-41.30669913639379
 21
1866.622814650693
 31
0.0
  0
LINE
  5
C91
330
C5C
100
AcDbEntity
  8
0
  6
HIDDEN2
 62
     0
 48
3.0
370
    -2
100
AcDbLine
 10
-78.8466991363937
 20
1865.622814650693
 30
0.0
 11
-49.3066991363938
 21
1865.622814650693
 31
0.0
  0
INSERT
  5
C92
330
C5C
100
AcDbEntity
  8
0
  6
HIDDEN2
 62
     0
 48
3.0
370
    -2
100
AcDbBlockReference
  2
_Open30
 10
-86.84669913639371
 20
1865.622814650693
 30
0.0
 41
8.0
 42
8.0
 43
8.0
 50
180.0
  0
INSERT
  5
C93
330
C5C
100
AcDbEntity
  8
0
  6
HIDDEN2
 62
     0
 48
3.0
370
    -2
100
AcDbBlockReference
  2
_Open30
 10
-41.30669913639379
 20
1865.622814650693
 30
0.0
 41
8.0
 42
8.0
 43
8.0
  0
MTEXT
  5
C94
330
C5C
100
AcDbEntity
  8
0
  6
HIDDEN2
 62
     0
 48
3.0
100
AcDbMText
 10
-64.31571678214763
 20
1873.672530559784
 30
0.0
 40
7.5
 41
0.0
 71
     5
 72
     1
  1
\A1;{\fＭＳ Ｐゴシック|b0|i0|c128|p50;カブリ}
 73
     1
 44
1.0
1001
ACAD
1000
MTEXTBEGIN
1070
    73
1070
     1
1070
    44
1040
1.0
1070
    74
1070
     0
1000
MTEXTEND
  0
POINT
  5
C95
330
C5C
100
AcDbEntity
  8
Defpoints
  6
HIDDEN2
 62
     0
 48
3.0
100
AcDbPoint
 10
-86.84669913639371
 20
1785.622814650693
 30
0.0
  0
POINT
  5
C96
330
C5C
100
AcDbEntity
  8
Defpoints
  6
HIDDEN2
 62
     0
 48
3.0
100
AcDbPoint
 10
-41.3066991363938
 20
1787.602814650692
 30
0.0
  0
POINT
  5
C97
330
C5C
100
AcDbEntity
  8
Defpoints
  6
HIDDEN2
 62
     0
 48
3.0
100
AcDbPoint
 10
-41.30669913639379
 20
1865.622814650693
 30
0.0
  0
ENDBLK
  5
C67
330
C5C
100
AcDbEntity
  8
0
100
AcDbBlockEnd
  0
BLOCK
  5
C72
330
C68
100
AcDbEntity
  8
0
100
AcDbBlockBegin
  2
*D24
 70
     1
 10
0.0
 20
0.0
 30
0.0
  3
*D24
  1

  0
LINE
  5
C98
330
C68
100
AcDbEntity
  8
0
  6
HIDDEN2
 62
     0
 48
3.0
370
    -2
100
AcDbLine
 10
-140.2899565570102
 20
1786.365870492569
 30
0.0
 11
-140.2899565570102
 21
1896.622814650692
 31
0.0
  0
LINE
  5
C99
330
C68
100
AcDbEntity
  8
0
  6
HIDDEN2
 62
     0
 48
3.0
370
    -2
100
AcDbLine
 10
-41.3066991363938
 20
1786.622814650692
 30
0.0
 11
-41.30669913639379
 21
1896.622814650692
 31
0.0
  0
LINE
  5
C9A
330
C68
100
AcDbEntity
  8
0
  6
HIDDEN2
 62
     0
 48
3.0
370
    -2
100
AcDbLine
 10
-132.2899565570102
 20
1895.622814650692
 30
0.0
 11
-49.3066991363938
 21
1895.622814650692
 31
0.0
  0
INSERT
  5
C9B
330
C68
100
AcDbEntity
  8
0
  6
HIDDEN2
 62
     0
 48
3.0
370
    -2
100
AcDbBlockReference
  2
_Open30
 10
-140.2899565570102
 20
1895.622814650692
 30
0.0
 41
8.0
 42
8.0
 43
8.0
 50
180.0
  0
INSERT
  5
C9C
330
C68
100
AcDbEntity
  8
0
  6
HIDDEN2
 62
     0
 48
3.0
370
    -2
100
AcDbBlockReference
  2
_Open30
 10
-41.30669913639379
 20
1895.622814650692
 30
0.0
 41
8.0
 42
8.0
 43
8.0
  0
MTEXT
  5
C9D
330
C68
100
AcDbEntity
  8
0
  6
HIDDEN2
 62
     0
 48
3.0
100
AcDbMText
 10
-90.798327846702
 20
1903.480769196147
 30
0.0
 40
7.5
 41
0.0
 71
     5
 72
     1
  1
\A1;{\fＭＳ Ｐゴシック|b0|i0|c128|p50;外径（ｄ）}
 73
     1
 44
1.0
1001
ACAD
1000
MTEXTBEGIN
1070
    73
1070
     1
1070
    44
1040
1.0
1070
    74
1070
     0
1000
MTEXTEND
  0
POINT
  5
C9E
330
C68
100
AcDbEntity
  8
Defpoints
  6
HIDDEN2
 62
     0
 48
3.0
100
AcDbPoint
 10
-140.2899565570102
 20
1785.365870492569
 30
0.0
  0
POINT
  5
C9F
330
C68
100
AcDbEntity
  8
Defpoints
  6
HIDDEN2
 62
     0
 48
3.0
100
AcDbPoint
 10
-41.3066991363938
 20
1785.622814650692
 30
0.0
  0
POINT
  5
CA0
330
C68
100
AcDbEntity
  8
Defpoints
  6
HIDDEN2
 62
     0
 48
3.0
100
AcDbPoint
 10
-41.30669913639379
 20
1895.622814650692
 30
0.0
  0
ENDBLK
  5
C73
330
C68
100
AcDbEntity
  8
0
100
AcDbBlockEnd
  0
BLOCK
  5
C7F
330
C74
100
AcDbEntity
  8
0
100
AcDbBlockBegin
  2
*D25
 70
     1
 10
0.0
 20
0.0
 30
0.0
  3
*D25
  1

  0
LINE
  5
CA1
330
C74
100
AcDbEntity
  8
0
  6
HIDDEN2
 62
     0
 48
3.0
370
    -2
100
AcDbLine
 10
19.19330086360608
 20
1793.78595685519
 30
0.0
 11
19.19330086360609
 21
1896.622814650692
 31
0.0
  0
LINE
  5
CA2
330
C74
100
AcDbEntity
  8
0
  6
HIDDEN2
 62
     0
 48
3.0
370
    -2
100
AcDbLine
 10
41.96330086360632
 20
1793.785956855189
 30
0.0
 11
41.96330086360632
 21
1896.622814650692
 31
0.0
  0
LINE
  5
CA3
330
C74
100
AcDbEntity
  8
0
  6
HIDDEN2
 62
     0
 48
3.0
370
    -2
100
AcDbLine
 10
33.96330086360633
 20
1895.622814650692
 30
0.0
 11
27.19330086360609
 21
1895.622814650692
 31
0.0
  0
LINE
  5
CA4
330
C74
100
AcDbEntity
  8
0
  6
HIDDEN2
 62
     0
 48
3.0
370
    -2
100
AcDbLine
 10
19.19330086360609
 20
1895.622814650692
 30
0.0
 11
-40.72715368184849
 21
1895.622814650692
 31
0.0
  0
INSERT
  5
CA5
330
C74
100
AcDbEntity
  8
0
  6
HIDDEN2
 62
     0
 48
3.0
370
    -2
100
AcDbBlockReference
  2
_Open30
 10
41.96330086360632
 20
1895.622814650692
 30
0.0
 41
8.0
 42
8.0
 43
8.0
  0
INSERT
  5
CA6
330
C74
100
AcDbEntity
  8
0
  6
HIDDEN2
 62
     0
 48
3.0
370
    -2
100
AcDbBlockReference
  2
_Open30
 10
19.19330086360609
 20
1895.622814650692
 30
0.0
 41
8.0
 42
8.0
 43
8.0
 50
180.0
  0
MTEXT
  5
CA7
330
C74
100
AcDbEntity
  8
0
  6
HIDDEN2
 62
     0
 48
3.0
100
AcDbMText
 10
-20.76692640912121
 20
1903.416848741601
 30
0.0
 40
7.5
 41
0.0
 71
     5
 72
     1
  1
\A1;{\fＭＳ Ｐゴシック|b0|i0|c128|p50;厚さ（ａ）}
 73
     1
 44
1.0
1001
ACAD
1000
MTEXTBEGIN
1070
    73
1070
     1
1070
    44
1040
1.0
1070
    74
1070
     0
1000
MTEXTEND
  0
POINT
  5
CA8
330
C74
100
AcDbEntity
  8
Defpoints
  6
HIDDEN2
 62
     0
 48
3.0
100
AcDbPoint
 10
19.19330086360608
 20
1792.78595685519
 30
0.0
  0
POINT
  5
CA9
330
C74
100
AcDbEntity
  8
Defpoints
  6
HIDDEN2
 62
     0
 48
3.0
100
AcDbPoint
 10
41.96330086360632
 20
1792.785956855189
 30
0.0
  0
POINT
  5
CAA
330
C74
100
AcDbEntity
  8
Defpoints
  6
HIDDEN2
 62
     0
 48
3.0
100
AcDbPoint
 10
41.96330086360632
 20
1895.622814650692
 30
0.0
  0
ENDBLK
  5
C80
330
C74
100
AcDbEntity
  8
0
100
AcDbBlockEnd
  0
BLOCK
  5
C8D
330
C81
100
AcDbEntity
  8
0
100
AcDbBlockBegin
  2
*D26
 70
     1
 10
0.0
 20
0.0
 30
0.0
  3
*D26
  1

  0
LINE
  5
CAB
330
C81
100
AcDbEntity
  8
0
  6
HIDDEN2
 62
     0
 48
3.0
370
    -2
100
AcDbLine
 10
26.12330086360632
 20
1834.055157704659
 30
0.0
 11
26.12330086360632
 21
1866.622814650693
 31
0.0
  0
LINE
  5
CAC
330
C81
100
AcDbEntity
  8
0
  6
HIDDEN2
 62
     0
 48
3.0
370
    -2
100
AcDbLine
 10
35.03330086360632
 20
1834.055157704659
 30
0.0
 11
35.03330086360632
 21
1866.622814650693
 31
0.0
  0
LINE
  5
CAD
330
C81
100
AcDbEntity
  8
0
  6
HIDDEN2
 62
     0
 48
3.0
370
    -2
100
AcDbLine
 10
43.03330086360631
 20
1865.622814650693
 30
0.0
 11
51.03330086360632
 21
1865.622814650693
 31
0.0
  0
LINE
  5
CAE
330
C81
100
AcDbEntity
  8
0
  6
HIDDEN2
 62
     0
 48
3.0
370
    -2
100
AcDbLine
 10
18.12330086360632
 20
1865.622814650693
 30
0.0
 11
-34.39044913639359
 21
1865.622814650693
 31
0.0
  0
LINE
  5
CAF
330
C81
100
AcDbEntity
  8
0
  6
HIDDEN2
 62
     0
 48
3.0
370
    -2
100
AcDbLine
 10
35.03330086360632
 20
1865.622814650693
 30
0.0
 11
26.12330086360632
 21
1865.622814650693
 31
0.0
  0
INSERT
  5
CB0
330
C81
100
AcDbEntity
  8
0
  6
HIDDEN2
 62
     0
 48
3.0
370
    -2
100
AcDbBlockReference
  2
_Open30
 10
35.03330086360632
 20
1865.622814650693
 30
0.0
 41
8.0
 42
8.0
 43
8.0
 50
180.0
  0
INSERT
  5
CB1
330
C81
100
AcDbEntity
  8
0
  6
HIDDEN2
 62
     0
 48
3.0
370
    -2
100
AcDbBlockReference
  2
_Open30
 10
26.12330086360632
 20
1865.622814650693
 30
0.0
 41
8.0
 42
8.0
 43
8.0
  0
MTEXT
  5
CB2
330
C81
100
AcDbEntity
  8
0
  6
HIDDEN2
 62
     0
 48
3.0
100
AcDbMText
 10
-14.28107413639358
 20
1873.416848741602
 30
0.0
 40
7.5
 41
0.0
 71
     5
 72
     1
  1
\A1;{\fＭＳ Ｐゴシック|b0|i0|c128|p50;厚さ（ｂ）}
 73
     1
 44
1.0
1001
ACAD
1000
MTEXTBEGIN
1070
    73
1070
     1
1070
    44
1040
1.0
1070
    74
1070
     0
1000
MTEXTEND
  0
POINT
  5
CB3
330
C81
100
AcDbEntity
  8
Defpoints
  6
HIDDEN2
 62
     0
 48
3.0
100
AcDbPoint
 10
26.12330086360632
 20
1833.055157704659
 30
0.0
  0
POINT
  5
CB4
330
C81
100
AcDbEntity
  8
Defpoints
  6
HIDDEN2
 62
     0
 48
3.0
100
AcDbPoint
 10
35.03330086360632
 20
1833.055157704659
 30
0.0
  0
POINT
  5
CB5
330
C81
100
AcDbEntity
  8
Defpoints
  6
HIDDEN2
 62
     0
 48
3.0
100
AcDbPoint
 10
35.03330086360632
 20
1865.622814650693
 30
0.0
  0
ENDBLK
  5
C8E
330
C81
100
AcDbEntity
  8
0
100
AcDbBlockEnd
  0
BLOCK
  5
CE9
330
CE8
100
AcDbEntity
  8
0
100
AcDbBlockBegin
  2
*D27
 70
     1
 10
0.0
 20
0.0
 30
0.0
  3
*D27
  1

  0
LINE
  5
CEA
330
CE8
100
AcDbEntity
  8
0
  6
HIDDEN2
 62
     0
 48
3.0
370
    -2
100
AcDbLine
 10
48.44964451041508
 20
1743.101199955092
 30
0.0
 11
48.44964451041509
 21
1823.101199955095
 31
0.0
  0
LINE
  5
CEB
330
CE8
100
AcDbEntity
  8
0
  6
HIDDEN2
 62
     0
 48
3.0
370
    -2
100
AcDbLine
 10
93.38499188700906
 20
1748.261475576741
 30
0.0
 11
93.38499188700906
 21
1823.101199955095
 31
0.0
  0
LINE
  5
CEC
330
CE8
100
AcDbEntity
  8
0
  6
HIDDEN2
 62
     0
 48
3.0
370
    -2
100
AcDbLine
 10
56.44964451041508
 20
1822.101199955096
 30
0.0
 11
85.38499188700905
 21
1822.101199955096
 31
0.0
  0
INSERT
  5
CED
330
CE8
100
AcDbEntity
  8
0
  6
HIDDEN2
 62
     0
 48
3.0
370
    -2
100
AcDbBlockReference
  2
_Open30
 10
48.44964451041509
 20
1822.101199955096
 30
0.0
 41
8.0
 42
8.0
 43
8.0
 50
180.0
  0
INSERT
  5
CEE
330
CE8
100
AcDbEntity
  8
0
  6
HIDDEN2
 62
     0
 48
3.0
370
    -2
100
AcDbBlockReference
  2
_Open30
 10
93.38499188700906
 20
1822.101199955096
 30
0.0
 41
8.0
 42
8.0
 43
8.0
  0
MTEXT
  5
CEF
330
CE8
100
AcDbEntity
  8
0
  6
HIDDEN2
 62
     0
 48
3.0
370
    35
100
AcDbMText
 10
70.91731819871206
 20
1830.150915864187
 30
0.0
 40
7.5
 41
0.0
 71
     5
 72
     1
  1
\A1;{\fＭＳ Ｐゴシック|b0|i0|c128|p50;カブリ}
 73
     1
 44
1.0
1001
ACAD
1000
MTEXTBEGIN
1070
    73
1070
     1
1070
    44
1040
1.0
1070
    74
1070
     0
1000
MTEXTEND
  0
POINT
  5
CF0
330
CE8
100
AcDbEntity
  8
Defpoints
  6
HIDDEN2
 62
     0
 48
3.0
100
AcDbPoint
 10
48.44964451041508
 20
1742.101199955093
 30
0.0
  0
POINT
  5
CF1
330
CE8
100
AcDbEntity
  8
Defpoints
  6
HIDDEN2
 62
     0
 48
3.0
100
AcDbPoint
 10
93.38499188700906
 20
1747.261475576741
 30
0.0
  0
POINT
  5
CF2
330
CE8
100
AcDbEntity
  8
Defpoints
  6
HIDDEN2
 62
     0
 48
3.0
100
AcDbPoint
 10
93.38499188700906
 20
1822.101199955096
 30
0.0
  0
ENDBLK
  5
CF3
330
CE8
100
AcDbEntity
  8
0
100
AcDbBlockEnd
  0
BLOCK
  5
CF5
330
CF4
100
AcDbEntity
  8
0
100
AcDbBlockBegin
  2
*D28
 70
     1
 10
0.0
 20
0.0
 30
0.0
  3
*D28
  1

  0
LINE
  5
CF6
330
CF4
100
AcDbEntity
  8
0
  6
HIDDEN2
 62
     0
 48
3.0
370
    -2
100
AcDbLine
 10
93.38499188700906
 20
1747.101475576742
 30
0.0
 11
93.38499188700906
 21
1853.101199955094
 31
0.0
  0
LINE
  5
CF7
330
CF4
100
AcDbEntity
  8
0
  6
HIDDEN2
 62
     0
 48
3.0
370
    -2
100
AcDbLine
 10
-6.502397603113667
 20
1747.239416115397
 30
0.0
 11
-6.50239760311366
 21
1853.101199955094
 31
0.0
  0
LINE
  5
CF8
330
CF4
100
AcDbEntity
  8
0
  6
HIDDEN2
 62
     0
 48
3.0
370
    -2
100
AcDbLine
 10
85.38499188700905
 20
1852.101199955096
 30
0.0
 11
1.497602396886337
 21
1852.101199955096
 31
0.0
  0
INSERT
  5
CF9
330
CF4
100
AcDbEntity
  8
0
  6
HIDDEN2
 62
     0
 48
3.0
370
    -2
100
AcDbBlockReference
  2
_Open30
 10
93.38499188700906
 20
1852.101199955096
 30
0.0
 41
8.0
 42
8.0
 43
8.0
  0
INSERT
  5
CFA
330
CF4
100
AcDbEntity
  8
0
  6
HIDDEN2
 62
     0
 48
3.0
370
    -2
100
AcDbBlockReference
  2
_Open30
 10
-6.50239760311366
 20
1852.101199955096
 30
0.0
 41
8.0
 42
8.0
 43
8.0
 50
180.0
  0
MTEXT
  5
CFB
330
CF4
100
AcDbEntity
  8
0
  6
HIDDEN2
 62
     0
 48
3.0
100
AcDbMText
 10
43.44129714194768
 20
1859.95915450055
 30
0.0
 40
7.5
 41
0.0
 71
     5
 72
     1
  1
\A1;{\fＭＳ Ｐゴシック|b0|i0|c128|p50;外径（ｄ）}
 73
     1
 44
1.0
1001
ACAD
1000
MTEXTBEGIN
1070
    73
1070
     1
1070
    44
1040
1.0
1070
    74
1070
     0
1000
MTEXTEND
  0
POINT
  5
CFC
330
CF4
100
AcDbEntity
  8
Defpoints
  6
HIDDEN2
 62
     0
 48
3.0
100
AcDbPoint
 10
93.38499188700906
 20
1746.101475576742
 30
0.0
  0
POINT
  5
CFD
330
CF4
100
AcDbEntity
  8
Defpoints
  6
HIDDEN2
 62
     0
 48
3.0
100
AcDbPoint
 10
-6.502397603113667
 20
1746.239416115397
 30
0.0
  0
POINT
  5
CFE
330
CF4
100
AcDbEntity
  8
Defpoints
  6
HIDDEN2
 62
     0
 48
3.0
100
AcDbPoint
 10
-6.50239760311366
 20
1852.101199955096
 30
0.0
  0
ENDBLK
  5
CFF
330
CF4
100
AcDbEntity
  8
0
100
AcDbBlockEnd
  0
BLOCK
  5
D01
330
D00
100
AcDbEntity
  8
0
100
AcDbBlockBegin
  2
*D29
 70
     1
 10
0.0
 20
0.0
 30
0.0
  3
*D29
  1

  0
LINE
  5
D02
330
D00
100
AcDbEntity
  8
0
  6
HIDDEN2
 62
     0
 48
3.0
370
    -2
100
AcDbLine
 10
161.7904445104147
 20
1788.931016884282
 30
0.0
 11
161.7904445104147
 21
1823.119534934655
 31
0.0
  0
LINE
  5
D03
330
D00
100
AcDbEntity
  8
0
  6
HIDDEN2
 62
     0
 48
3.0
370
    -2
100
AcDbLine
 10
170.1424445104149
 20
1788.931016884282
 30
0.0
 11
170.1424445104149
 21
1823.119534934655
 31
0.0
  0
LINE
  5
D04
330
D00
100
AcDbEntity
  8
0
  6
HIDDEN2
 62
     0
 48
3.0
370
    -2
100
AcDbLine
 10
178.1424445104149
 20
1822.119534934655
 30
0.0
 11
186.1424445104149
 21
1822.119534934655
 31
0.0
  0
LINE
  5
D05
330
D00
100
AcDbEntity
  8
0
  6
HIDDEN2
 62
     0
 48
3.0
370
    -2
100
AcDbLine
 10
153.7904445104147
 20
1822.119534934655
 30
0.0
 11
101.5716945104147
 21
1822.119534934655
 31
0.0
  0
LINE
  5
D06
330
D00
100
AcDbEntity
  8
0
  6
HIDDEN2
 62
     0
 48
3.0
370
    -2
100
AcDbLine
 10
170.1424445104149
 20
1822.119534934655
 30
0.0
 11
161.7904445104147
 21
1822.119534934655
 31
0.0
  0
INSERT
  5
D07
330
D00
100
AcDbEntity
  8
0
  6
HIDDEN2
 62
     0
 48
3.0
370
    -2
100
AcDbBlockReference
  2
_Open30
 10
170.1424445104149
 20
1822.119534934655
 30
0.0
 41
8.0
 42
8.0
 43
8.0
 50
180.0
  0
INSERT
  5
D08
330
D00
100
AcDbEntity
  8
0
  6
HIDDEN2
 62
     0
 48
3.0
370
    -2
100
AcDbBlockReference
  2
_Open30
 10
161.7904445104147
 20
1822.119534934655
 30
0.0
 41
8.0
 42
8.0
 43
8.0
  0
MTEXT
  5
D09
330
D00
100
AcDbEntity
  8
0
  6
HIDDEN2
 62
     0
 48
3.0
100
AcDbMText
 10
121.6810695104147
 20
1829.913569025564
 30
0.0
 40
7.5
 41
0.0
 71
     5
 72
     1
  1
\A1;{\fＭＳ Ｐゴシック|b0|i0|c128|p50;厚さ（ｂ）}
 73
     1
 44
1.0
1001
ACAD
1000
MTEXTBEGIN
1070
    73
1070
     1
1070
    44
1040
1.0
1070
    74
1070
     0
1000
MTEXTEND
  0
POINT
  5
D0A
330
D00
100
AcDbEntity
  8
Defpoints
  6
HIDDEN2
 62
     0
 48
3.0
100
AcDbPoint
 10
161.7904445104147
 20
1787.931016884282
 30
0.0
  0
POINT
  5
D0B
330
D00
100
AcDbEntity
  8
Defpoints
  6
HIDDEN2
 62
     0
 48
3.0
100
AcDbPoint
 10
170.1424445104149
 20
1787.931016884282
 30
0.0
  0
POINT
  5
D0C
330
D00
100
AcDbEntity
  8
Defpoints
  6
HIDDEN2
 62
     0
 48
3.0
100
AcDbPoint
 10
170.1424445104149
 20
1822.119534934655
 30
0.0
  0
ENDBLK
  5
D0D
330
D00
100
AcDbEntity
  8
0
100
AcDbBlockEnd
  0
BLOCK
  5
D0F
330
D0E
100
AcDbEntity
  8
0
100
AcDbBlockBegin
  2
*D30
 70
     1
 10
0.0
 20
0.0
 30
0.0
  3
*D30
  1

  0
LINE
  5
D10
330
D0E
100
AcDbEntity
  8
0
  6
HIDDEN2
 62
     0
 48
3.0
370
    -2
100
AcDbLine
 10
153.4384445104151
 20
1748.947599955074
 30
0.0
 11
153.4384445104151
 21
1853.101199955092
 31
0.0
  0
LINE
  5
D11
330
D0E
100
AcDbEntity
  8
0
  6
HIDDEN2
 62
     0
 48
3.0
370
    -2
100
AcDbLine
 10
178.4944445104148
 20
1748.947599955074
 30
0.0
 11
178.4944445104148
 21
1853.101199955092
 31
0.0
  0
LINE
  5
D12
330
D0E
100
AcDbEntity
  8
0
  6
HIDDEN2
 62
     0
 48
3.0
370
    -2
100
AcDbLine
 10
170.4944445104148
 20
1852.101199955091
 30
0.0
 11
161.4384445104151
 21
1852.101199955091
 31
0.0
  0
LINE
  5
D13
330
D0E
100
AcDbEntity
  8
0
  6
HIDDEN2
 62
     0
 48
3.0
370
    -2
100
AcDbLine
 10
153.4384445104151
 20
1852.101199955091
 30
0.0
 11
93.51798996496052
 21
1852.101199955091
 31
0.0
  0
INSERT
  5
D14
330
D0E
100
AcDbEntity
  8
0
  6
HIDDEN2
 62
     0
 48
3.0
370
    -2
100
AcDbBlockReference
  2
_Open30
 10
178.4944445104148
 20
1852.101199955091
 30
0.0
 41
8.0
 42
8.0
 43
8.0
  0
INSERT
  5
D15
330
D0E
100
AcDbEntity
  8
0
  6
HIDDEN2
 62
     0
 48
3.0
370
    -2
100
AcDbBlockReference
  2
_Open30
 10
153.4384445104151
 20
1852.101199955091
 30
0.0
 41
8.0
 42
8.0
 43
8.0
 50
180.0
  0
MTEXT
  5
D16
330
D0E
100
AcDbEntity
  8
0
  6
HIDDEN2
 62
     0
 48
3.0
100
AcDbMText
 10
113.4782172376878
 20
1859.895234046001
 30
0.0
 40
7.5
 41
0.0
 71
     5
 72
     1
  1
\A1;{\fＭＳ Ｐゴシック|b0|i0|c128|p50;厚さ（ａ）}
 73
     1
 44
1.0
1001
ACAD
1000
MTEXTBEGIN
1070
    73
1070
     1
1070
    44
1040
1.0
1070
    74
1070
     0
1000
MTEXTEND
  0
POINT
  5
D17
330
D0E
100
AcDbEntity
  8
Defpoints
  6
HIDDEN2
 62
     0
 48
3.0
100
AcDbPoint
 10
153.4384445104151
 20
1747.947599955073
 30
0.0
  0
POINT
  5
D18
330
D0E
100
AcDbEntity
  8
Defpoints
  6
HIDDEN2
 62
     0
 48
3.0
100
AcDbPoint
 10
178.4944445104148
 20
1747.947599955073
 30
0.0
  0
POINT
  5
D19
330
D0E
100
AcDbEntity
  8
Defpoints
  6
HIDDEN2
 62
     0
 48
3.0
100
AcDbPoint
 10
178.4944445104148
 20
1852.101199955091
 30
0.0
  0
ENDBLK
  5
D1A
330
D0E
100
AcDbEntity
  8
0
100
AcDbBlockEnd
  0
BLOCK
  5
FE7
330
FDD
100
AcDbEntity
  8
0
100
AcDbBlockBegin
  2
*D32
 70
     1
 10
0.0
 20
0.0
 30
0.0
  3
*D32
  1

  0
LINE
  5
1010
330
FDD
100
AcDbEntity
  8
0
  6
HIDDEN2
 62
     0
 48
3.0
370
    -2
100
AcDbLine
 10
-133.2957917613725
 20
2252.399708155818
 30
0.0
 11
-133.2957917613725
 21
2332.399708155821
 31
0.0
  0
LINE
  5
1011
330
FDD
100
AcDbEntity
  8
0
  6
HIDDEN2
 62
     0
 48
3.0
370
    -2
100
AcDbLine
 10
-88.36044438477857
 20
2257.559983777466
 30
0.0
 11
-88.36044438477857
 21
2332.399708155821
 31
0.0
  0
LINE
  5
1012
330
FDD
100
AcDbEntity
  8
0
  6
HIDDEN2
 62
     0
 48
3.0
370
    -2
100
AcDbLine
 10
-125.2957917613725
 20
2331.399708155821
 30
0.0
 11
-96.36044438477858
 21
2331.399708155821
 31
0.0
  0
INSERT
  5
1013
330
FDD
100
AcDbEntity
  8
0
  6
HIDDEN2
 62
     0
 48
3.0
370
    -2
100
AcDbBlockReference
  2
_Open30
 10
-133.2957917613725
 20
2331.399708155821
 30
0.0
 41
8.0
 42
8.0
 43
8.0
 50
180.0
  0
INSERT
  5
1014
330
FDD
100
AcDbEntity
  8
0
  6
HIDDEN2
 62
     0
 48
3.0
370
    -2
100
AcDbBlockReference
  2
_Open30
 10
-88.36044438477857
 20
2331.399708155821
 30
0.0
 41
8.0
 42
8.0
 43
8.0
  0
MTEXT
  5
1015
330
FDD
100
AcDbEntity
  8
0
  6
HIDDEN2
 62
     0
 48
3.0
370
    35
100
AcDbMText
 10
-110.8281180730755
 20
2339.449424064912
 30
0.0
 40
7.5
 41
0.0
 71
     5
 72
     1
  1
\A1;{\fＭＳ Ｐゴシック|b0|i0|c128|p50;カブリ}
 73
     1
 44
1.0
1001
ACAD
1000
MTEXTBEGIN
1070
    73
1070
     1
1070
    44
1040
1.0
1070
    74
1070
     0
1000
MTEXTEND
  0
POINT
  5
1016
330
FDD
100
AcDbEntity
  8
Defpoints
  6
HIDDEN2
 62
     0
 48
3.0
100
AcDbPoint
 10
-133.2957917613725
 20
2251.399708155819
 30
0.0
  0
POINT
  5
1017
330
FDD
100
AcDbEntity
  8
Defpoints
  6
HIDDEN2
 62
     0
 48
3.0
100
AcDbPoint
 10
-88.36044438477857
 20
2256.559983777466
 30
0.0
  0
POINT
  5
1018
330
FDD
100
AcDbEntity
  8
Defpoints
  6
HIDDEN2
 62
     0
 48
3.0
100
AcDbPoint
 10
-88.36044438477857
 20
2331.399708155821
 30
0.0
  0
ENDBLK
  5
FE8
330
FDD
100
AcDbEntity
  8
0
100
AcDbBlockEnd
  0
BLOCK
  5
FF3
330
FE9
100
AcDbEntity
  8
0
100
AcDbBlockBegin
  2
*D33
 70
     1
 10
0.0
 20
0.0
 30
0.0
  3
*D33
  1

  0
LINE
  5
1019
330
FE9
100
AcDbEntity
  8
0
  6
HIDDEN2
 62
     0
 48
3.0
370
    -2
100
AcDbLine
 10
-88.36044438477857
 20
2256.399983777467
 30
0.0
 11
-88.36044438477857
 21
2362.399708155821
 31
0.0
  0
LINE
  5
101A
330
FE9
100
AcDbEntity
  8
0
  6
HIDDEN2
 62
     0
 48
3.0
370
    -2
100
AcDbLine
 10
-188.2478338749013
 20
2256.537924316122
 30
0.0
 11
-188.2478338749013
 21
2362.399708155821
 31
0.0
  0
LINE
  5
101B
330
FE9
100
AcDbEntity
  8
0
  6
HIDDEN2
 62
     0
 48
3.0
370
    -2
100
AcDbLine
 10
-96.36044438477858
 20
2361.399708155821
 30
0.0
 11
-180.2478338749013
 21
2361.399708155821
 31
0.0
  0
INSERT
  5
101C
330
FE9
100
AcDbEntity
  8
0
  6
HIDDEN2
 62
     0
 48
3.0
370
    -2
100
AcDbBlockReference
  2
_Open30
 10
-88.36044438477857
 20
2361.399708155821
 30
0.0
 41
8.0
 42
8.0
 43
8.0
  0
INSERT
  5
101D
330
FE9
100
AcDbEntity
  8
0
  6
HIDDEN2
 62
     0
 48
3.0
370
    -2
100
AcDbBlockReference
  2
_Open30
 10
-188.2478338749013
 20
2361.399708155821
 30
0.0
 41
8.0
 42
8.0
 43
8.0
 50
180.0
  0
MTEXT
  5
101E
330
FE9
100
AcDbEntity
  8
0
  6
HIDDEN2
 62
     0
 48
3.0
100
AcDbMText
 10
-138.3041391298399
 20
2369.257662701276
 30
0.0
 40
7.5
 41
0.0
 71
     5
 72
     1
  1
\A1;{\fＭＳ Ｐゴシック|b0|i0|c128|p50;外径（ｄ）}
 73
     1
 44
1.0
1001
ACAD
1000
MTEXTBEGIN
1070
    73
1070
     1
1070
    44
1040
1.0
1070
    74
1070
     0
1000
MTEXTEND
  0
POINT
  5
101F
330
FE9
100
AcDbEntity
  8
Defpoints
  6
HIDDEN2
 62
     0
 48
3.0
100
AcDbPoint
 10
-88.36044438477857
 20
2255.399983777467
 30
0.0
  0
POINT
  5
1020
330
FE9
100
AcDbEntity
  8
Defpoints
  6
HIDDEN2
 62
     0
 48
3.0
100
AcDbPoint
 10
-188.2478338749013
 20
2255.537924316122
 30
0.0
  0
POINT
  5
1021
330
FE9
100
AcDbEntity
  8
Defpoints
  6
HIDDEN2
 62
     0
 48
3.0
100
AcDbPoint
 10
-188.2478338749013
 20
2361.399708155821
 30
0.0
  0
ENDBLK
  5
FF4
330
FE9
100
AcDbEntity
  8
0
100
AcDbBlockEnd
  0
BLOCK
  5
1001
330
FF5
100
AcDbEntity
  8
0
100
AcDbBlockBegin
  2
*D34
 70
     1
 10
0.0
 20
0.0
 30
0.0
  3
*D34
  1

  0
LINE
  5
1022
330
FF5
100
AcDbEntity
  8
0
  6
HIDDEN2
 62
     0
 48
3.0
370
    -2
100
AcDbLine
 10
-19.95499176137295
 20
2298.229525085007
 30
0.0
 11
-19.95499176137295
 21
2332.41804313538
 31
0.0
  0
LINE
  5
1023
330
FF5
100
AcDbEntity
  8
0
  6
HIDDEN2
 62
     0
 48
3.0
370
    -2
100
AcDbLine
 10
-11.60299176137272
 20
2298.229525085007
 30
0.0
 11
-11.60299176137272
 21
2332.41804313538
 31
0.0
  0
LINE
  5
1024
330
FF5
100
AcDbEntity
  8
0
  6
HIDDEN2
 62
     0
 48
3.0
370
    -2
100
AcDbLine
 10
-3.602991761372718
 20
2331.41804313538
 30
0.0
 11
4.397008238627281
 21
2331.41804313538
 31
0.0
  0
LINE
  5
1025
330
FF5
100
AcDbEntity
  8
0
  6
HIDDEN2
 62
     0
 48
3.0
370
    -2
100
AcDbLine
 10
-27.95499176137295
 20
2331.41804313538
 30
0.0
 11
-80.17374176137295
 21
2331.41804313538
 31
0.0
  0
LINE
  5
1026
330
FF5
100
AcDbEntity
  8
0
  6
HIDDEN2
 62
     0
 48
3.0
370
    -2
100
AcDbLine
 10
-11.60299176137272
 20
2331.41804313538
 30
0.0
 11
-19.95499176137295
 21
2331.41804313538
 31
0.0
  0
INSERT
  5
1027
330
FF5
100
AcDbEntity
  8
0
  6
HIDDEN2
 62
     0
 48
3.0
370
    -2
100
AcDbBlockReference
  2
_Open30
 10
-11.60299176137272
 20
2331.41804313538
 30
0.0
 41
8.0
 42
8.0
 43
8.0
 50
180.0
  0
INSERT
  5
1028
330
FF5
100
AcDbEntity
  8
0
  6
HIDDEN2
 62
     0
 48
3.0
370
    -2
100
AcDbBlockReference
  2
_Open30
 10
-19.95499176137295
 20
2331.41804313538
 30
0.0
 41
8.0
 42
8.0
 43
8.0
  0
MTEXT
  5
1029
330
FF5
100
AcDbEntity
  8
0
  6
HIDDEN2
 62
     0
 48
3.0
100
AcDbMText
 10
-60.06436676137294
 20
2339.212077226289
 30
0.0
 40
7.5
 41
0.0
 71
     5
 72
     1
  1
\A1;{\fＭＳ Ｐゴシック|b0|i0|c128|p50;厚さ（ｂ）}
 73
     1
 44
1.0
1001
ACAD
1000
MTEXTBEGIN
1070
    73
1070
     1
1070
    44
1040
1.0
1070
    74
1070
     0
1000
MTEXTEND
  0
POINT
  5
102A
330
FF5
100
AcDbEntity
  8
Defpoints
  6
HIDDEN2
 62
     0
 48
3.0
100
AcDbPoint
 10
-19.95499176137295
 20
2297.229525085007
 30
0.0
  0
POINT
  5
102B
330
FF5
100
AcDbEntity
  8
Defpoints
  6
HIDDEN2
 62
     0
 48
3.0
100
AcDbPoint
 10
-11.60299176137272
 20
2297.229525085007
 30
0.0
  0
POINT
  5
102C
330
FF5
100
AcDbEntity
  8
Defpoints
  6
HIDDEN2
 62
     0
 48
3.0
100
AcDbPoint
 10
-11.60299176137272
 20
2331.41804313538
 30
0.0
  0
ENDBLK
  5
1002
330
FF5
100
AcDbEntity
  8
0
100
AcDbBlockEnd
  0
BLOCK
  5
100E
330
1003
100
AcDbEntity
  8
0
100
AcDbBlockBegin
  2
*D35
 70
     1
 10
0.0
 20
0.0
 30
0.0
  3
*D35
  1

  0
LINE
  5
102D
330
1003
100
AcDbEntity
  8
0
  6
HIDDEN2
 62
     0
 48
3.0
370
    -2
100
AcDbLine
 10
-28.30699176137253
 20
2258.246108155798
 30
0.0
 11
-28.30699176137252
 21
2362.399708155817
 31
0.0
  0
LINE
  5
102E
330
1003
100
AcDbEntity
  8
0
  6
HIDDEN2
 62
     0
 48
3.0
370
    -2
100
AcDbLine
 10
-3.25099176137283
 20
2258.246108155798
 30
0.0
 11
-3.250991761372824
 21
2362.399708155817
 31
0.0
  0
LINE
  5
102F
330
1003
100
AcDbEntity
  8
0
  6
HIDDEN2
 62
     0
 48
3.0
370
    -2
100
AcDbLine
 10
-11.25099176137282
 20
2361.399708155818
 30
0.0
 11
-20.30699176137252
 21
2361.399708155818
 31
0.0
  0
LINE
  5
1030
330
1003
100
AcDbEntity
  8
0
  6
HIDDEN2
 62
     0
 48
3.0
370
    -2
100
AcDbLine
 10
-28.30699176137252
 20
2361.399708155818
 30
0.0
 11
-88.22744630682711
 21
2361.399708155818
 31
0.0
  0
INSERT
  5
1031
330
1003
100
AcDbEntity
  8
0
  6
HIDDEN2
 62
     0
 48
3.0
370
    -2
100
AcDbBlockReference
  2
_Open30
 10
-3.250991761372824
 20
2361.399708155818
 30
0.0
 41
8.0
 42
8.0
 43
8.0
  0
INSERT
  5
1032
330
1003
100
AcDbEntity
  8
0
  6
HIDDEN2
 62
     0
 48
3.0
370
    -2
100
AcDbBlockReference
  2
_Open30
 10
-28.30699176137252
 20
2361.399708155818
 30
0.0
 41
8.0
 42
8.0
 43
8.0
 50
180.0
  0
MTEXT
  5
1033
330
1003
100
AcDbEntity
  8
0
  6
HIDDEN2
 62
     0
 48
3.0
100
AcDbMText
 10
-68.26721903409984
 20
2369.193742246726
 30
0.0
 40
7.5
 41
0.0
 71
     5
 72
     1
  1
\A1;{\fＭＳ Ｐゴシック|b0|i0|c128|p50;厚さ（ａ）}
 73
     1
 44
1.0
1001
ACAD
1000
MTEXTBEGIN
1070
    73
1070
     1
1070
    44
1040
1.0
1070
    74
1070
     0
1000
MTEXTEND
  0
POINT
  5
1034
330
1003
100
AcDbEntity
  8
Defpoints
  6
HIDDEN2
 62
     0
 48
3.0
100
AcDbPoint
 10
-28.30699176137253
 20
2257.246108155798
 30
0.0
  0
POINT
  5
1035
330
1003
100
AcDbEntity
  8
Defpoints
  6
HIDDEN2
 62
     0
 48
3.0
100
AcDbPoint
 10
-3.25099176137283
 20
2257.246108155798
 30
0.0
  0
POINT
  5
1036
330
1003
100
AcDbEntity
  8
Defpoints
  6
HIDDEN2
 62
     0
 48
3.0
100
AcDbPoint
 10
-3.250991761372824
 20
2361.399708155818
 30
0.0
  0
ENDBLK
  5
100F
330
1003
100
AcDbEntity
  8
0
100
AcDbBlockEnd
  0
BLOCK
  5
1061
330
1060
100
AcDbEntity
  8
0
100
AcDbBlockBegin
  2
*D36
 70
     1
 10
0.0
 20
0.0
 30
0.0
  3
*D36
  1

  0
LINE
  5
1062
330
1060
100
AcDbEntity
  8
0
  6
HIDDEN2
 62
     0
 48
3.0
370
    -2
100
AcDbLine
 10
278.7384445104152
 20
1743.101199955089
 30
0.0
 11
278.7384445104152
 21
1823.101199955092
 31
0.0
  0
LINE
  5
1063
330
1060
100
AcDbEntity
  8
0
  6
HIDDEN2
 62
     0
 48
3.0
370
    -2
100
AcDbLine
 10
322.6276681880777
 20
1753.308864416512
 30
0.0
 11
322.6276681880777
 21
1823.101199955092
 31
0.0
  0
LINE
  5
1064
330
1060
100
AcDbEntity
  8
0
  6
HIDDEN2
 62
     0
 48
3.0
370
    -2
100
AcDbLine
 10
286.7384445104152
 20
1822.101199955093
 30
0.0
 11
314.6276681880777
 21
1822.101199955093
 31
0.0
  0
INSERT
  5
1065
330
1060
100
AcDbEntity
  8
0
  6
HIDDEN2
 62
     0
 48
3.0
370
    -2
100
AcDbBlockReference
  2
_Open30
 10
278.7384445104152
 20
1822.101199955093
 30
0.0
 41
8.0
 42
8.0
 43
8.0
 50
180.0
  0
INSERT
  5
1066
330
1060
100
AcDbEntity
  8
0
  6
HIDDEN2
 62
     0
 48
3.0
370
    -2
100
AcDbBlockReference
  2
_Open30
 10
322.6276681880777
 20
1822.101199955093
 30
0.0
 41
8.0
 42
8.0
 43
8.0
  0
MTEXT
  5
1067
330
1060
100
AcDbEntity
  8
0
  6
HIDDEN2
 62
     0
 48
3.0
100
AcDbMText
 10
299.4156885016661
 20
1830.150915864183
 30
0.0
 40
7.5
 41
0.0
 71
     5
 72
     1
  1
\A1;{\fＭＳ Ｐゴシック|b0|i0|c128|p50;カブリ}
 73
     1
 44
1.0
1001
ACAD
1000
MTEXTBEGIN
1070
    73
1070
     1
1070
    44
1040
1.0
1070
    74
1070
     0
1000
MTEXTEND
  0
POINT
  5
1068
330
1060
100
AcDbEntity
  8
Defpoints
  6
HIDDEN2
 62
     0
 48
3.0
100
AcDbPoint
 10
278.7384445104152
 20
1742.101199955089
 30
0.0
  0
POINT
  5
1069
330
1060
100
AcDbEntity
  8
Defpoints
  6
HIDDEN2
 62
     0
 48
3.0
100
AcDbPoint
 10
322.6276681880777
 20
1752.308864416512
 30
0.0
  0
POINT
  5
106A
330
1060
100
AcDbEntity
  8
Defpoints
  6
HIDDEN2
 62
     0
 48
3.0
100
AcDbPoint
 10
322.6276681880777
 20
1822.101199955093
 30
0.0
  0
ENDBLK
  5
106B
330
1060
100
AcDbEntity
  8
0
100
AcDbBlockEnd
  0
BLOCK
  5
106D
330
106C
100
AcDbEntity
  8
0
100
AcDbBlockBegin
  2
*D37
 70
     1
 10
0.0
 20
0.0
 30
0.0
  3
*D37
  1

  0
LINE
  5
106E
330
106C
100
AcDbEntity
  8
0
  6
HIDDEN2
 62
     0
 48
3.0
370
    -2
100
AcDbLine
 10
224.2608482314101
 20
1751.294811588749
 30
0.0
 11
224.2608482314101
 21
1852.935280277571
 31
0.0
  0
LINE
  5
106F
330
106C
100
AcDbEntity
  8
0
  6
HIDDEN2
 62
     0
 48
3.0
370
    -2
100
AcDbLine
 10
322.6276681880777
 20
1751.308864416512
 30
0.0
 11
322.6276681880777
 21
1852.935280277571
 31
0.0
  0
LINE
  5
1070
330
106C
100
AcDbEntity
  8
0
  6
HIDDEN2
 62
     0
 48
3.0
370
    -2
100
AcDbLine
 10
232.2608482314101
 20
1851.935280277571
 30
0.0
 11
314.6276681880777
 21
1851.935280277571
 31
0.0
  0
INSERT
  5
1071
330
106C
100
AcDbEntity
  8
0
  6
HIDDEN2
 62
     0
 48
3.0
370
    -2
100
AcDbBlockReference
  2
_Open30
 10
224.2608482314101
 20
1851.935280277571
 30
0.0
 41
8.0
 42
8.0
 43
8.0
 50
180.0
  0
INSERT
  5
1072
330
106C
100
AcDbEntity
  8
0
  6
HIDDEN2
 62
     0
 48
3.0
370
    -2
100
AcDbBlockReference
  2
_Open30
 10
322.6276681880777
 20
1851.935280277571
 30
0.0
 41
8.0
 42
8.0
 43
8.0
  0
MTEXT
  5
1073
330
106C
100
AcDbEntity
  8
0
  6
HIDDEN2
 62
     0
 48
3.0
100
AcDbMText
 10
271.1145765588507
 20
1859.793234823025
 30
0.0
 40
7.5
 41
0.0
 71
     5
 72
     1
  1
\A1;{\fＭＳ Ｐゴシック|b0|i0|c128|p50;外径（ｄ）}
 73
     1
 44
1.0
1001
ACAD
1000
MTEXTBEGIN
1070
    73
1070
     1
1070
    44
1040
1.0
1070
    74
1070
     0
1000
MTEXTEND
  0
POINT
  5
1074
330
106C
100
AcDbEntity
  8
Defpoints
  6
HIDDEN2
 62
     0
 48
3.0
100
AcDbPoint
 10
224.2608482314101
 20
1750.294811588749
 30
0.0
  0
POINT
  5
1075
330
106C
100
AcDbEntity
  8
Defpoints
  6
HIDDEN2
 62
     0
 48
3.0
100
AcDbPoint
 10
322.6276681880777
 20
1750.308864416512
 30
0.0
  0
POINT
  5
1076
330
106C
100
AcDbEntity
  8
Defpoints
  6
HIDDEN2
 62
     0
 48
3.0
100
AcDbPoint
 10
322.6276681880777
 20
1851.935280277571
 30
0.0
  0
ENDBLK
  5
1077
330
106C
100
AcDbEntity
  8
0
100
AcDbBlockEnd
  0
BLOCK
  5
1079
330
1078
100
AcDbEntity
  8
0
100
AcDbBlockBegin
  2
*D38
 70
     1
 10
0.0
 20
0.0
 30
0.0
  3
*D38
  1

  0
LINE
  5
107A
330
1078
100
AcDbEntity
  8
0
  6
HIDDEN2
 62
     0
 48
3.0
370
    -2
100
AcDbLine
 10
383.4384445104151
 20
1752.101197065728
 30
0.0
 11
383.4384445104151
 21
1853.097837939246
 31
0.0
  0
LINE
  5
107B
330
1078
100
AcDbEntity
  8
0
  6
HIDDEN2
 62
     0
 48
3.0
370
    -2
100
AcDbLine
 10
403.4384445104151
 20
1752.101197065728
 30
0.0
 11
403.4384445104151
 21
1853.097837939246
 31
0.0
  0
LINE
  5
107C
330
1078
100
AcDbEntity
  8
0
  6
HIDDEN2
 62
     0
 48
3.0
370
    -2
100
AcDbLine
 10
411.4384445104151
 20
1852.097837939246
 30
0.0
 11
419.4384445104151
 21
1852.097837939246
 31
0.0
  0
LINE
  5
107D
330
1078
100
AcDbEntity
  8
0
  6
HIDDEN2
 62
     0
 48
3.0
370
    -2
100
AcDbLine
 10
375.4384445104151
 20
1852.097837939246
 30
0.0
 11
323.5179899649605
 21
1852.097837939246
 31
0.0
  0
LINE
  5
107E
330
1078
100
AcDbEntity
  8
0
  6
HIDDEN2
 62
     0
 48
3.0
370
    -2
100
AcDbLine
 10
403.4384445104151
 20
1852.097837939246
 30
0.0
 11
383.4384445104151
 21
1852.097837939246
 31
0.0
  0
INSERT
  5
107F
330
1078
100
AcDbEntity
  8
0
  6
HIDDEN2
 62
     0
 48
3.0
370
    -2
100
AcDbBlockReference
  2
_Open30
 10
403.4384445104151
 20
1852.097837939246
 30
0.0
 41
8.0
 42
8.0
 43
8.0
 50
180.0
  0
INSERT
  5
1080
330
1078
100
AcDbEntity
  8
0
  6
HIDDEN2
 62
     0
 48
3.0
370
    -2
100
AcDbBlockReference
  2
_Open30
 10
383.4384445104151
 20
1852.097837939246
 30
0.0
 41
8.0
 42
8.0
 43
8.0
  0
MTEXT
  5
1081
330
1078
100
AcDbEntity
  8
0
  6
HIDDEN2
 62
     0
 48
3.0
100
AcDbMText
 10
343.4782172376878
 20
1859.891872030155
 30
0.0
 40
7.5
 41
0.0
 71
     5
 72
     1
  1
\A1;{\fＭＳ Ｐゴシック|b0|i0|c128|p50;厚さ（ａ）}
 73
     1
 44
1.0
1001
ACAD
1000
MTEXTBEGIN
1070
    73
1070
     1
1070
    44
1040
1.0
1070
    74
1070
     0
1000
MTEXTEND
  0
POINT
  5
1082
330
1078
100
AcDbEntity
  8
Defpoints
  6
HIDDEN2
 62
     0
 48
3.0
100
AcDbPoint
 10
383.4384445104151
 20
1751.101197065728
 30
0.0
  0
POINT
  5
1083
330
1078
100
AcDbEntity
  8
Defpoints
  6
HIDDEN2
 62
     0
 48
3.0
100
AcDbPoint
 10
403.4384445104151
 20
1751.101197065728
 30
0.0
  0
POINT
  5
1084
330
1078
100
AcDbEntity
  8
Defpoints
  6
HIDDEN2
 62
     0
 48
3.0
100
AcDbPoint
 10
403.4384445104151
 20
1852.097837939246
 30
0.0
  0
ENDBLK
  5
1085
330
1078
100
AcDbEntity
  8
0
100
AcDbBlockEnd
  0
BLOCK
  5
1087
330
1086
100
AcDbEntity
  8
0
100
AcDbBlockBegin
  2
*D39
 70
     1
 10
0.0
 20
0.0
 30
0.0
  3
*D39
  1

  0
LINE
  5
1088
330
1086
100
AcDbEntity
  8
0
  6
HIDDEN2
 62
     0
 48
3.0
370
    -2
100
AcDbLine
 10
389.4384445104151
 20
1792.105657942822
 30
0.0
 11
389.4384445104151
 21
1823.101199955092
 31
0.0
  0
LINE
  5
1089
330
1086
100
AcDbEntity
  8
0
  6
HIDDEN2
 62
     0
 48
3.0
370
    -2
100
AcDbLine
 10
397.438444510415
 20
1792.105657942822
 30
0.0
 11
397.438444510415
 21
1823.101199955092
 31
0.0
  0
LINE
  5
108A
330
1086
100
AcDbEntity
  8
0
  6
HIDDEN2
 62
     0
 48
3.0
370
    -2
100
AcDbLine
 10
405.4384445104148
 20
1822.101199955093
 30
0.0
 11
413.4384445104148
 21
1822.101199955093
 31
0.0
  0
LINE
  5
108B
330
1086
100
AcDbEntity
  8
0
  6
HIDDEN2
 62
     0
 48
3.0
370
    -2
100
AcDbLine
 10
381.4384445104151
 20
1822.101199955093
 30
0.0
 11
329.2196945104151
 21
1822.101199955093
 31
0.0
  0
LINE
  5
108C
330
1086
100
AcDbEntity
  8
0
  6
HIDDEN2
 62
     0
 48
3.0
370
    -2
100
AcDbLine
 10
397.438444510415
 20
1822.101199955093
 30
0.0
 11
389.4384445104151
 21
1822.101199955093
 31
0.0
  0
INSERT
  5
108D
330
1086
100
AcDbEntity
  8
0
  6
HIDDEN2
 62
     0
 48
3.0
370
    -2
100
AcDbBlockReference
  2
_Open30
 10
397.438444510415
 20
1822.101199955093
 30
0.0
 41
8.0
 42
8.0
 43
8.0
 50
180.0
  0
INSERT
  5
108E
330
1086
100
AcDbEntity
  8
0
  6
HIDDEN2
 62
     0
 48
3.0
370
    -2
100
AcDbBlockReference
  2
_Open30
 10
389.4384445104151
 20
1822.101199955093
 30
0.0
 41
8.0
 42
8.0
 43
8.0
  0
MTEXT
  5
108F
330
1086
100
AcDbEntity
  8
0
  6
HIDDEN2
 62
     0
 48
3.0
100
AcDbMText
 10
349.3290695104152
 20
1829.895234046001
 30
0.0
 40
7.5
 41
0.0
 71
     5
 72
     1
  1
\A1;{\fＭＳ Ｐゴシック|b0|i0|c128|p50;厚さ（ｂ）}
 73
     1
 44
1.0
1001
ACAD
1000
MTEXTBEGIN
1070
    73
1070
     1
1070
    44
1040
1.0
1070
    74
1070
     0
1000
MTEXTEND
  0
POINT
  5
1090
330
1086
100
AcDbEntity
  8
Defpoints
  6
HIDDEN2
 62
     0
 48
3.0
100
AcDbPoint
 10
389.4384445104151
 20
1791.105657942821
 30
0.0
  0
POINT
  5
1091
330
1086
100
AcDbEntity
  8
Defpoints
  6
HIDDEN2
 62
     0
 48
3.0
100
AcDbPoint
 10
397.438444510415
 20
1791.105657942821
 30
0.0
  0
POINT
  5
1092
330
1086
100
AcDbEntity
  8
Defpoints
  6
HIDDEN2
 62
     0
 48
3.0
100
AcDbPoint
 10
397.438444510415
 20
1822.101199955093
 30
0.0
  0
ENDBLK
  5
1093
330
1086
100
AcDbEntity
  8
0
100
AcDbBlockEnd
  0
BLOCK
  5
129A
330
128E
100
AcDbEntity
  8
0
100
AcDbBlockBegin
  2
*D41
 70
     1
 10
0.0
 20
0.0
 30
0.0
  3
*D41
  1

  0
LINE
  5
12C2
330
128E
100
AcDbEntity
  8
0
  6
HIDDEN2
 62
     0
 48
3.0
370
    -2
100
AcDbLine
 10
-35.22031774484015
 20
2232.141414045642
 30
0.0
 11
-35.22031774484014
 21
2333.138054919159
 31
0.0
  0
LINE
  5
12C3
330
128E
100
AcDbEntity
  8
0
  6
HIDDEN2
 62
     0
 48
3.0
370
    -2
100
AcDbLine
 10
-15.22031774484014
 20
2232.141414045642
 30
0.0
 11
-15.22031774484014
 21
2333.138054919159
 31
0.0
  0
LINE
  5
12C4
330
128E
100
AcDbEntity
  8
0
  6
HIDDEN2
 62
     0
 48
3.0
370
    -2
100
AcDbLine
 10
-7.220317744840139
 20
2332.138054919159
 30
0.0
 11
0.7796822551598606
 21
2332.138054919159
 31
0.0
  0
LINE
  5
12C5
330
128E
100
AcDbEntity
  8
0
  6
HIDDEN2
 62
     0
 48
3.0
370
    -2
100
AcDbLine
 10
-43.22031774484013
 20
2332.138054919159
 30
0.0
 11
-95.1407722902948
 21
2332.138054919159
 31
0.0
  0
LINE
  5
12C6
330
128E
100
AcDbEntity
  8
0
  6
HIDDEN2
 62
     0
 48
3.0
370
    -2
100
AcDbLine
 10
-15.22031774484014
 20
2332.138054919159
 30
0.0
 11
-35.22031774484014
 21
2332.138054919159
 31
0.0
  0
INSERT
  5
12C7
330
128E
100
AcDbEntity
  8
0
  6
HIDDEN2
 62
     0
 48
3.0
370
    -2
100
AcDbBlockReference
  2
_Open30
 10
-15.22031774484014
 20
2332.138054919159
 30
0.0
 41
8.0
 42
8.0
 43
8.0
 50
180.0
  0
INSERT
  5
12C8
330
128E
100
AcDbEntity
  8
0
  6
HIDDEN2
 62
     0
 48
3.0
370
    -2
100
AcDbBlockReference
  2
_Open30
 10
-35.22031774484014
 20
2332.138054919159
 30
0.0
 41
8.0
 42
8.0
 43
8.0
  0
MTEXT
  5
12C9
330
128E
100
AcDbEntity
  8
0
  6
HIDDEN2
 62
     0
 48
3.0
100
AcDbMText
 10
-75.18054501756751
 20
2339.932089010068
 30
0.0
 40
7.5
 41
0.0
 71
     5
 72
     1
  1
\A1;{\fＭＳ Ｐゴシック|b0|i0|c128|p50;厚さ（ａ）}
 73
     1
 44
1.0
1001
ACAD
1000
MTEXTBEGIN
1070
    73
1070
     1
1070
    44
1040
1.0
1070
    74
1070
     0
1000
MTEXTEND
  0
POINT
  5
12CA
330
128E
100
AcDbEntity
  8
Defpoints
  6
HIDDEN2
 62
     0
 48
3.0
100
AcDbPoint
 10
-35.22031774484015
 20
2231.141414045641
 30
0.0
  0
POINT
  5
12CB
330
128E
100
AcDbEntity
  8
Defpoints
  6
HIDDEN2
 62
     0
 48
3.0
100
AcDbPoint
 10
-15.22031774484014
 20
2231.141414045641
 30
0.0
  0
POINT
  5
12CC
330
128E
100
AcDbEntity
  8
Defpoints
  6
HIDDEN2
 62
     0
 48
3.0
100
AcDbPoint
 10
-15.22031774484014
 20
2332.138054919159
 30
0.0
  0
ENDBLK
  5
129B
330
128E
100
AcDbEntity
  8
0
100
AcDbBlockEnd
  0
BLOCK
  5
12A8
330
129C
100
AcDbEntity
  8
0
100
AcDbBlockBegin
  2
*D42
 70
     1
 10
0.0
 20
0.0
 30
0.0
  3
*D42
  1

  0
LINE
  5
12CD
330
129C
100
AcDbEntity
  8
0
  6
HIDDEN2
 62
     0
 48
3.0
370
    -2
100
AcDbLine
 10
-29.22031774484015
 20
2272.145874922734
 30
0.0
 11
-29.22031774484014
 21
2303.141416935007
 31
0.0
  0
LINE
  5
12CE
330
129C
100
AcDbEntity
  8
0
  6
HIDDEN2
 62
     0
 48
3.0
370
    -2
100
AcDbLine
 10
-21.22031774484032
 20
2272.145874922734
 30
0.0
 11
-21.22031774484031
 21
2303.141416935007
 31
0.0
  0
LINE
  5
12CF
330
129C
100
AcDbEntity
  8
0
  6
HIDDEN2
 62
     0
 48
3.0
370
    -2
100
AcDbLine
 10
-13.22031774484031
 20
2302.141416935006
 30
0.0
 11
-5.220317744840311
 21
2302.141416935006
 31
0.0
  0
LINE
  5
12D0
330
129C
100
AcDbEntity
  8
0
  6
HIDDEN2
 62
     0
 48
3.0
370
    -2
100
AcDbLine
 10
-37.22031774484015
 20
2302.141416935006
 30
0.0
 11
-89.43906774484014
 21
2302.141416935006
 31
0.0
  0
LINE
  5
12D1
330
129C
100
AcDbEntity
  8
0
  6
HIDDEN2
 62
     0
 48
3.0
370
    -2
100
AcDbLine
 10
-21.22031774484031
 20
2302.141416935006
 30
0.0
 11
-29.22031774484014
 21
2302.141416935006
 31
0.0
  0
INSERT
  5
12D2
330
129C
100
AcDbEntity
  8
0
  6
HIDDEN2
 62
     0
 48
3.0
370
    -2
100
AcDbBlockReference
  2
_Open30
 10
-21.22031774484031
 20
2302.141416935006
 30
0.0
 41
8.0
 42
8.0
 43
8.0
 50
180.0
  0
INSERT
  5
12D3
330
129C
100
AcDbEntity
  8
0
  6
HIDDEN2
 62
     0
 48
3.0
370
    -2
100
AcDbBlockReference
  2
_Open30
 10
-29.22031774484014
 20
2302.141416935006
 30
0.0
 41
8.0
 42
8.0
 43
8.0
  0
MTEXT
  5
12D4
330
129C
100
AcDbEntity
  8
0
  6
HIDDEN2
 62
     0
 48
3.0
100
AcDbMText
 10
-69.32969274484015
 20
2309.935451025916
 30
0.0
 40
7.5
 41
0.0
 71
     5
 72
     1
  1
\A1;{\fＭＳ Ｐゴシック|b0|i0|c128|p50;厚さ（ｂ）}
 73
     1
 44
1.0
1001
ACAD
1000
MTEXTBEGIN
1070
    73
1070
     1
1070
    44
1040
1.0
1070
    74
1070
     0
1000
MTEXTEND
  0
POINT
  5
12D5
330
129C
100
AcDbEntity
  8
Defpoints
  6
HIDDEN2
 62
     0
 48
3.0
100
AcDbPoint
 10
-29.22031774484015
 20
2271.145874922734
 30
0.0
  0
POINT
  5
12D6
330
129C
100
AcDbEntity
  8
Defpoints
  6
HIDDEN2
 62
     0
 48
3.0
100
AcDbPoint
 10
-21.22031774484032
 20
2271.145874922734
 30
0.0
  0
POINT
  5
12D7
330
129C
100
AcDbEntity
  8
Defpoints
  6
HIDDEN2
 62
     0
 48
3.0
100
AcDbPoint
 10
-21.22031774484031
 20
2302.141416935006
 30
0.0
  0
ENDBLK
  5
12A9
330
129C
100
AcDbEntity
  8
0
100
AcDbBlockEnd
  0
BLOCK
  5
12B4
330
12AA
100
AcDbEntity
  8
0
100
AcDbBlockBegin
  2
*D43
 70
     1
 10
0.0
 20
0.0
 30
0.0
  3
*D43
  1

  0
LINE
  5
12D8
330
12AA
100
AcDbEntity
  8
0
  6
HIDDEN2
 62
     0
 48
3.0
370
    -2
100
AcDbLine
 10
-139.9203177448401
 20
2223.141416935003
 30
0.0
 11
-139.9203177448401
 21
2303.141416935007
 31
0.0
  0
LINE
  5
12D9
330
12AA
100
AcDbEntity
  8
0
  6
HIDDEN2
 62
     0
 48
3.0
370
    -2
100
AcDbLine
 10
-96.03109406717761
 20
2233.349081396426
 30
0.0
 11
-96.03109406717761
 21
2303.141416935007
 31
0.0
  0
LINE
  5
12DA
330
12AA
100
AcDbEntity
  8
0
  6
HIDDEN2
 62
     0
 48
3.0
370
    -2
100
AcDbLine
 10
-131.92031774484
 20
2302.141416935006
 30
0.0
 11
-104.0310940671776
 21
2302.141416935006
 31
0.0
  0
INSERT
  5
12DB
330
12AA
100
AcDbEntity
  8
0
  6
HIDDEN2
 62
     0
 48
3.0
370
    -2
100
AcDbBlockReference
  2
_Open30
 10
-139.9203177448401
 20
2302.141416935006
 30
0.0
 41
8.0
 42
8.0
 43
8.0
 50
180.0
  0
INSERT
  5
12DC
330
12AA
100
AcDbEntity
  8
0
  6
HIDDEN2
 62
     0
 48
3.0
370
    -2
100
AcDbBlockReference
  2
_Open30
 10
-96.03109406717761
 20
2302.141416935006
 30
0.0
 41
8.0
 42
8.0
 43
8.0
  0
MTEXT
  5
12DD
330
12AA
100
AcDbEntity
  8
0
  6
HIDDEN2
 62
     0
 48
3.0
100
AcDbMText
 10
-119.2430737535891
 20
2310.191132844098
 30
0.0
 40
7.5
 41
0.0
 71
     5
 72
     1
  1
\A1;{\fＭＳ Ｐゴシック|b0|i0|c128|p50;カブリ}
 73
     1
 44
1.0
1001
ACAD
1000
MTEXTBEGIN
1070
    73
1070
     1
1070
    44
1040
1.0
1070
    74
1070
     0
1000
MTEXTEND
  0
POINT
  5
12DE
330
12AA
100
AcDbEntity
  8
Defpoints
  6
HIDDEN2
 62
     0
 48
3.0
100
AcDbPoint
 10
-139.9203177448401
 20
2222.141416935002
 30
0.0
  0
POINT
  5
12DF
330
12AA
100
AcDbEntity
  8
Defpoints
  6
HIDDEN2
 62
     0
 48
3.0
100
AcDbPoint
 10
-96.03109406717761
 20
2232.349081396426
 30
0.0
  0
POINT
  5
12E0
330
12AA
100
AcDbEntity
  8
Defpoints
  6
HIDDEN2
 62
     0
 48
3.0
100
AcDbPoint
 10
-96.03109406717761
 20
2302.141416935006
 30
0.0
  0
ENDBLK
  5
12B5
330
12AA
100
AcDbEntity
  8
0
100
AcDbBlockEnd
  0
BLOCK
  5
12C0
330
12B6
100
AcDbEntity
  8
0
100
AcDbBlockBegin
  2
*D44
 70
     1
 10
0.0
 20
0.0
 30
0.0
  3
*D44
  1

  0
LINE
  5
12E1
330
12B6
100
AcDbEntity
  8
0
  6
HIDDEN2
 62
     0
 48
3.0
370
    -2
100
AcDbLine
 10
-194.3979140238452
 20
2231.335028568662
 30
0.0
 11
-194.3979140238452
 21
2332.975497257484
 31
0.0
  0
LINE
  5
12E2
330
12B6
100
AcDbEntity
  8
0
  6
HIDDEN2
 62
     0
 48
3.0
370
    -2
100
AcDbLine
 10
-96.03109406717761
 20
2231.349081396425
 30
0.0
 11
-96.03109406717761
 21
2332.975497257484
 31
0.0
  0
LINE
  5
12E3
330
12B6
100
AcDbEntity
  8
0
  6
HIDDEN2
 62
     0
 48
3.0
370
    -2
100
AcDbLine
 10
-186.3979140238452
 20
2331.975497257484
 30
0.0
 11
-104.0310940671776
 21
2331.975497257484
 31
0.0
  0
INSERT
  5
12E4
330
12B6
100
AcDbEntity
  8
0
  6
HIDDEN2
 62
     0
 48
3.0
370
    -2
100
AcDbBlockReference
  2
_Open30
 10
-194.3979140238452
 20
2331.975497257484
 30
0.0
 41
8.0
 42
8.0
 43
8.0
 50
180.0
  0
INSERT
  5
12E5
330
12B6
100
AcDbEntity
  8
0
  6
HIDDEN2
 62
     0
 48
3.0
370
    -2
100
AcDbBlockReference
  2
_Open30
 10
-96.03109406717761
 20
2331.975497257484
 30
0.0
 41
8.0
 42
8.0
 43
8.0
  0
MTEXT
  5
12E6
330
12B6
100
AcDbEntity
  8
0
  6
HIDDEN2
 62
     0
 48
3.0
100
AcDbMText
 10
-147.5441856964046
 20
2339.833451802939
 30
0.0
 40
7.5
 41
0.0
 71
     5
 72
     1
  1
\A1;{\fＭＳ Ｐゴシック|b0|i0|c128|p50;外径（ｄ）}
 73
     1
 44
1.0
1001
ACAD
1000
MTEXTBEGIN
1070
    73
1070
     1
1070
    44
1040
1.0
1070
    74
1070
     0
1000
MTEXTEND
  0
POINT
  5
12E7
330
12B6
100
AcDbEntity
  8
Defpoints
  6
HIDDEN2
 62
     0
 48
3.0
100
AcDbPoint
 10
-194.3979140238452
 20
2230.335028568662
 30
0.0
  0
POINT
  5
12E8
330
12B6
100
AcDbEntity
  8
Defpoints
  6
HIDDEN2
 62
     0
 48
3.0
100
AcDbPoint
 10
-96.03109406717761
 20
2230.349081396425
 30
0.0
  0
POINT
  5
12E9
330
12B6
100
AcDbEntity
  8
Defpoints
  6
HIDDEN2
 62
     0
 48
3.0
100
AcDbPoint
 10
-96.03109406717761
 20
2331.975497257484
 30
0.0
  0
ENDBLK
  5
12C1
330
12B6
100
AcDbEntity
  8
0
100
AcDbBlockEnd
  0
BLOCK
  5
1314
330
1313
100
AcDbEntity
  8
0
100
AcDbBlockBegin
  2
*D45
 70
     1
 10
0.0
 20
0.0
 30
0.0
  3
*D45
  1

  0
LINE
  5
1315
330
1313
100
AcDbEntity
  8
0
  6
HIDDEN2
 62
     0
 48
3.0
370
    -2
100
AcDbLine
 10
-236.0678237260986
 20
1501.259191341884
 30
0.0
 11
-236.0678237260986
 21
1603.101199955093
 31
0.0
  0
LINE
  5
1316
330
1313
100
AcDbEntity
  8
0
  6
HIDDEN2
 62
     0
 48
3.0
370
    -2
100
AcDbLine
 10
-137.0552872530715
 20
1501.259191341884
 30
0.0
 11
-137.0552872530715
 21
1603.101199955093
 31
0.0
  0
LINE
  5
1317
330
1313
100
AcDbEntity
  8
0
  6
HIDDEN2
 62
     0
 48
3.0
370
    -2
100
AcDbLine
 10
-228.0678237260986
 20
1602.101199955091
 30
0.0
 11
-145.0552872530715
 21
1602.101199955091
 31
0.0
  0
INSERT
  5
1318
330
1313
100
AcDbEntity
  8
0
  6
HIDDEN2
 62
     0
 48
3.0
370
    -2
100
AcDbBlockReference
  2
_Open30
 10
-236.0678237260986
 20
1602.101199955091
 30
0.0
 41
8.0
 42
8.0
 43
8.0
 50
180.0
  0
INSERT
  5
1319
330
1313
100
AcDbEntity
  8
0
  6
HIDDEN2
 62
     0
 48
3.0
370
    -2
100
AcDbBlockReference
  2
_Open30
 10
-137.0552872530715
 20
1602.101199955091
 30
0.0
 41
8.0
 42
8.0
 43
8.0
  0
MTEXT
  5
131A
330
1313
100
AcDbEntity
  8
0
  6
HIDDEN2
 62
     0
 48
3.0
100
AcDbMText
 10
-186.561555489585
 20
1610.28301813691
 30
0.0
 40
8.0
 41
0.0
 71
     5
 72
     1
  1
\A1;{\fＭＳ Ｐゴシック|b0|i0|c128|p50;外径（ｄ）}
 73
     1
 44
1.0
1001
ACAD
1000
MTEXTBEGIN
1070
    73
1070
     1
1070
    44
1040
1.0
1070
    74
1070
     0
1000
MTEXTEND
  0
POINT
  5
131B
330
1313
100
AcDbEntity
  8
Defpoints
  6
HIDDEN2
 62
     0
 48
3.0
100
AcDbPoint
 10
-236.0678237260986
 20
1500.259191341885
 30
0.0
  0
POINT
  5
131C
330
1313
100
AcDbEntity
  8
Defpoints
  6
HIDDEN2
 62
     0
 48
3.0
100
AcDbPoint
 10
-137.0552872530715
 20
1500.259191341885
 30
0.0
  0
POINT
  5
131D
330
1313
100
AcDbEntity
  8
Defpoints
  6
HIDDEN2
 62
     0
 48
3.0
100
AcDbPoint
 10
-137.0552872530715
 20
1602.101199955091
 30
0.0
  0
ENDBLK
  5
131E
330
1313
100
AcDbEntity
  8
0
100
AcDbBlockEnd
  0
BLOCK
  5
1320
330
131F
100
AcDbEntity
  8
0
100
AcDbBlockBegin
  2
*D46
 70
     1
 10
0.0
 20
0.0
 30
0.0
  3
*D46
  1

  0
LINE
  5
1321
330
131F
100
AcDbEntity
  8
0
  6
HIDDEN2
 62
     0
 48
3.0
370
    -2
100
AcDbLine
 10
-176.4365554895849
 20
1493.101199955092
 30
0.0
 11
-176.4365554895849
 21
1573.101199955092
 31
0.0
  0
LINE
  5
1322
330
131F
100
AcDbEntity
  8
0
  6
HIDDEN2
 62
     0
 48
3.0
370
    -2
100
AcDbLine
 10
-137.0552872530715
 20
1501.259191341884
 30
0.0
 11
-137.0552872530715
 21
1573.101199955092
 31
0.0
  0
LINE
  5
1323
330
131F
100
AcDbEntity
  8
0
  6
HIDDEN2
 62
     0
 48
3.0
370
    -2
100
AcDbLine
 10
-168.4365554895849
 20
1572.101199955092
 30
0.0
 11
-145.0552872530715
 21
1572.101199955092
 31
0.0
  0
INSERT
  5
1324
330
131F
100
AcDbEntity
  8
0
  6
HIDDEN2
 62
     0
 48
3.0
370
    -2
100
AcDbBlockReference
  2
_Open30
 10
-176.4365554895849
 20
1572.101199955092
 30
0.0
 41
8.0
 42
8.0
 43
8.0
 50
180.0
  0
INSERT
  5
1325
330
131F
100
AcDbEntity
  8
0
  6
HIDDEN2
 62
     0
 48
3.0
370
    -2
100
AcDbBlockReference
  2
_Open30
 10
-137.0552872530715
 20
1572.101199955092
 30
0.0
 41
8.0
 42
8.0
 43
8.0
  0
MTEXT
  5
1326
330
131F
100
AcDbEntity
  8
0
  6
HIDDEN2
 62
     0
 48
3.0
100
AcDbMText
 10
-156.7459213713282
 20
1587.154230258123
 30
0.0
 40
8.0
 41
0.0
 71
     5
 72
     1
  1
\A1;\P{\fＭＳ Ｐゴシック|b0|i0|c128|p50;カブリ}
 73
     1
 44
1.0
1001
ACAD
1000
MTEXTBEGIN
1070
    73
1070
     1
1070
    44
1040
1.0
1070
    74
1070
     0
1000
MTEXTEND
  0
POINT
  5
1327
330
131F
100
AcDbEntity
  8
Defpoints
  6
HIDDEN2
 62
     0
 48
3.0
100
AcDbPoint
 10
-176.4365554895849
 20
1492.101199955092
 30
0.0
  0
POINT
  5
1328
330
131F
100
AcDbEntity
  8
Defpoints
  6
HIDDEN2
 62
     0
 48
3.0
100
AcDbPoint
 10
-137.0552872530715
 20
1500.259191341885
 30
0.0
  0
POINT
  5
1329
330
131F
100
AcDbEntity
  8
Defpoints
  6
HIDDEN2
 62
     0
 48
3.0
100
AcDbPoint
 10
-137.0552872530715
 20
1572.101199955092
 30
0.0
  0
ENDBLK
  5
132A
330
131F
100
AcDbEntity
  8
0
100
AcDbBlockEnd
  0
BLOCK
  5
132C
330
132B
100
AcDbEntity
  8
0
100
AcDbBlockBegin
  2
*D47
 70
     1
 10
0.0
 20
0.0
 30
0.0
  3
*D47
  1

  0
LINE
  5
132D
330
132B
100
AcDbEntity
  8
0
  6
HIDDEN2
 62
     0
 48
3.0
370
    -2
100
AcDbLine
 10
-76.56155548958494
 20
1510.516199955092
 30
0.0
 11
-76.56155548958494
 21
1603.101199955093
 31
0.0
  0
LINE
  5
132E
330
132B
100
AcDbEntity
  8
0
  6
HIDDEN2
 62
     0
 48
3.0
370
    -2
100
AcDbLine
 10
-47.40155548958513
 20
1510.516199955092
 30
0.0
 11
-47.40155548958511
 21
1603.101199955093
 31
0.0
  0
LINE
  5
132F
330
132B
100
AcDbEntity
  8
0
  6
HIDDEN2
 62
     0
 48
3.0
370
    -2
100
AcDbLine
 10
-55.40155548958511
 20
1602.101199955091
 30
0.0
 11
-68.56155548958494
 21
1602.101199955091
 31
0.0
  0
LINE
  5
1330
330
132B
100
AcDbEntity
  8
0
  6
HIDDEN2
 62
     0
 48
3.0
370
    -2
100
AcDbLine
 10
-76.56155548958494
 20
1602.101199955091
 30
0.0
 11
-127.7835914186526
 21
1602.101199955091
 31
0.0
  0
INSERT
  5
1331
330
132B
100
AcDbEntity
  8
0
  6
HIDDEN2
 62
     0
 48
3.0
370
    -2
100
AcDbBlockReference
  2
_Open30
 10
-47.40155548958511
 20
1602.101199955091
 30
0.0
 41
8.0
 42
8.0
 43
8.0
  0
INSERT
  5
1332
330
132B
100
AcDbEntity
  8
0
  6
HIDDEN2
 62
     0
 48
3.0
370
    -2
100
AcDbBlockReference
  2
_Open30
 10
-76.56155548958494
 20
1602.101199955091
 30
0.0
 41
8.0
 42
8.0
 43
8.0
 50
180.0
  0
MTEXT
  5
1333
330
132B
100
AcDbEntity
  8
0
  6
HIDDEN2
 62
     0
 48
3.0
100
AcDbMText
 10
-106.6926823277435
 20
1610.214836318729
 30
0.0
 40
8.0
 41
0.0
 71
     5
 72
     1
  1
\A1;{\fＭＳ Ｐゴシック|b0|i0|c128|p50;厚さ（ａ）}
 73
     1
 44
1.0
1001
ACAD
1000
MTEXTBEGIN
1070
    73
1070
     1
1070
    44
1040
1.0
1070
    74
1070
     0
1000
MTEXTEND
  0
POINT
  5
1334
330
132B
100
AcDbEntity
  8
Defpoints
  6
HIDDEN2
 62
     0
 48
3.0
100
AcDbPoint
 10
-76.56155548958494
 20
1509.516199955092
 30
0.0
  0
POINT
  5
1335
330
132B
100
AcDbEntity
  8
Defpoints
  6
HIDDEN2
 62
     0
 48
3.0
100
AcDbPoint
 10
-47.40155548958513
 20
1509.516199955092
 30
0.0
  0
POINT
  5
1336
330
132B
100
AcDbEntity
  8
Defpoints
  6
HIDDEN2
 62
     0
 48
3.0
100
AcDbPoint
 10
-47.40155548958511
 20
1602.101199955091
 30
0.0
  0
ENDBLK
  5
1337
330
132B
100
AcDbEntity
  8
0
100
AcDbBlockEnd
  0
BLOCK
  5
1339
330
1338
100
AcDbEntity
  8
0
100
AcDbBlockBegin
  2
*D48
 70
     1
 10
0.0
 20
0.0
 30
0.0
  3
*D48
  1

  0
LINE
  5
133A
330
1338
100
AcDbEntity
  8
0
  6
HIDDEN2
 62
     0
 48
3.0
370
    -2
100
AcDbLine
 10
-70.08155548958486
 20
1543.321199955092
 30
0.0
 11
-70.08155548958486
 21
1573.101199955092
 31
0.0
  0
LINE
  5
133B
330
1338
100
AcDbEntity
  8
0
  6
HIDDEN2
 62
     0
 48
3.0
370
    -2
100
AcDbLine
 10
-53.88155548958494
 20
1543.321199955092
 30
0.0
 11
-53.88155548958494
 21
1573.101199955092
 31
0.0
  0
LINE
  5
133C
330
1338
100
AcDbEntity
  8
0
  6
HIDDEN2
 62
     0
 48
3.0
370
    -2
100
AcDbLine
 10
-45.88155548958495
 20
1572.101199955092
 30
0.0
 11
-37.88155548958496
 21
1572.101199955092
 31
0.0
  0
LINE
  5
133D
330
1338
100
AcDbEntity
  8
0
  6
HIDDEN2
 62
     0
 48
3.0
370
    -2
100
AcDbLine
 10
-78.08155548958485
 20
1572.101199955092
 30
0.0
 11
-131.4409304895848
 21
1572.101199955092
 31
0.0
  0
LINE
  5
133E
330
1338
100
AcDbEntity
  8
0
  6
HIDDEN2
 62
     0
 48
3.0
370
    -2
100
AcDbLine
 10
-53.88155548958494
 20
1572.101199955092
 30
0.0
 11
-70.08155548958486
 21
1572.101199955092
 31
0.0
  0
INSERT
  5
133F
330
1338
100
AcDbEntity
  8
0
  6
HIDDEN2
 62
     0
 48
3.0
370
    -2
100
AcDbBlockReference
  2
_Open30
 10
-53.88155548958494
 20
1572.101199955092
 30
0.0
 41
8.0
 42
8.0
 43
8.0
 50
180.0
  0
INSERT
  5
1340
330
1338
100
AcDbEntity
  8
0
  6
HIDDEN2
 62
     0
 48
3.0
370
    -2
100
AcDbBlockReference
  2
_Open30
 10
-70.08155548958486
 20
1572.101199955092
 30
0.0
 41
8.0
 42
8.0
 43
8.0
  0
MTEXT
  5
1341
330
1338
100
AcDbEntity
  8
0
  6
HIDDEN2
 62
     0
 48
3.0
100
AcDbMText
 10
-110.1909304895848
 20
1580.214836318729
 30
0.0
 40
8.0
 41
0.0
 71
     5
 72
     1
  1
\A1;{\fＭＳ Ｐゴシック|b0|i0|c128|p50;厚さ（ｂ）}
 73
     1
 44
1.0
1001
ACAD
1000
MTEXTBEGIN
1070
    73
1070
     1
1070
    44
1040
1.0
1070
    74
1070
     0
1000
MTEXTEND
  0
POINT
  5
1342
330
1338
100
AcDbEntity
  8
Defpoints
  6
HIDDEN2
 62
     0
 48
3.0
100
AcDbPoint
 10
-70.08155548958486
 20
1542.321199955092
 30
0.0
  0
POINT
  5
1343
330
1338
100
AcDbEntity
  8
Defpoints
  6
HIDDEN2
 62
     0
 48
3.0
100
AcDbPoint
 10
-53.88155548958494
 20
1542.321199955092
 30
0.0
  0
POINT
  5
1344
330
1338
100
AcDbEntity
  8
Defpoints
  6
HIDDEN2
 62
     0
 48
3.0
100
AcDbPoint
 10
-53.88155548958494
 20
1572.101199955092
 30
0.0
  0
ENDBLK
  5
1345
330
1338
100
AcDbEntity
  8
0
100
AcDbBlockEnd
  0
BLOCK
  5
143C
330
1432
100
AcDbEntity
  8
0
100
AcDbBlockBegin
  2
*D50
 70
     1
 10
0.0
 20
0.0
 30
0.0
  3
*D50
  1

  0
LINE
  5
1465
330
1432
100
AcDbEntity
  8
0
  6
HIDDEN2
 62
     0
 48
3.0
370
    -2
100
AcDbLine
 10
194.2276914279769
 20
2237.100501807459
 30
0.0
 11
194.2276914279769
 21
2338.942510420666
 31
0.0
  0
LINE
  5
1466
330
1432
100
AcDbEntity
  8
0
  6
HIDDEN2
 62
     0
 48
3.0
370
    -2
100
AcDbLine
 10
293.240227901004
 20
2237.100501807459
 30
0.0
 11
293.240227901004
 21
2338.942510420666
 31
0.0
  0
LINE
  5
1467
330
1432
100
AcDbEntity
  8
0
  6
HIDDEN2
 62
     0
 48
3.0
370
    -2
100
AcDbLine
 10
202.2276914279769
 20
2337.942510420666
 30
0.0
 11
285.240227901004
 21
2337.942510420666
 31
0.0
  0
INSERT
  5
1468
330
1432
100
AcDbEntity
  8
0
  6
HIDDEN2
 62
     0
 48
3.0
370
    -2
100
AcDbBlockReference
  2
_Open30
 10
194.2276914279769
 20
2337.942510420666
 30
0.0
 41
8.0
 42
8.0
 43
8.0
 50
180.0
  0
INSERT
  5
1469
330
1432
100
AcDbEntity
  8
0
  6
HIDDEN2
 62
     0
 48
3.0
370
    -2
100
AcDbBlockReference
  2
_Open30
 10
293.240227901004
 20
2337.942510420666
 30
0.0
 41
8.0
 42
8.0
 43
8.0
  0
MTEXT
  5
146A
330
1432
100
AcDbEntity
  8
0
  6
HIDDEN2
 62
     0
 48
3.0
100
AcDbMText
 10
243.7339596644904
 20
2346.124328602484
 30
0.0
 40
8.0
 41
0.0
 71
     5
 72
     1
  1
\A1;{\fＭＳ Ｐゴシック|b0|i0|c128|p50;外径（ｄ）}
 73
     1
 44
1.0
1001
ACAD
1000
MTEXTBEGIN
1070
    73
1070
     1
1070
    44
1040
1.0
1070
    74
1070
     0
1000
MTEXTEND
  0
POINT
  5
146B
330
1432
100
AcDbEntity
  8
Defpoints
  6
HIDDEN2
 62
     0
 48
3.0
100
AcDbPoint
 10
194.2276914279769
 20
2236.100501807459
 30
0.0
  0
POINT
  5
146C
330
1432
100
AcDbEntity
  8
Defpoints
  6
HIDDEN2
 62
     0
 48
3.0
100
AcDbPoint
 10
293.240227901004
 20
2236.100501807459
 30
0.0
  0
POINT
  5
146D
330
1432
100
AcDbEntity
  8
Defpoints
  6
HIDDEN2
 62
     0
 48
3.0
100
AcDbPoint
 10
293.240227901004
 20
2337.942510420666
 30
0.0
  0
ENDBLK
  5
143D
330
1432
100
AcDbEntity
  8
0
100
AcDbBlockEnd
  0
BLOCK
  5
1448
330
143E
100
AcDbEntity
  8
0
100
AcDbBlockBegin
  2
*D51
 70
     1
 10
0.0
 20
0.0
 30
0.0
  3
*D51
  1

  0
LINE
  5
146E
330
143E
100
AcDbEntity
  8
0
  6
HIDDEN2
 62
     0
 48
3.0
370
    -2
100
AcDbLine
 10
253.8589596644905
 20
2228.942510420666
 30
0.0
 11
253.8589596644905
 21
2308.942510420666
 31
0.0
  0
LINE
  5
146F
330
143E
100
AcDbEntity
  8
0
  6
HIDDEN2
 62
     0
 48
3.0
370
    -2
100
AcDbLine
 10
293.240227901004
 20
2237.100501807459
 30
0.0
 11
293.240227901004
 21
2308.942510420666
 31
0.0
  0
LINE
  5
1470
330
143E
100
AcDbEntity
  8
0
  6
HIDDEN2
 62
     0
 48
3.0
370
    -2
100
AcDbLine
 10
261.8589596644905
 20
2307.942510420666
 30
0.0
 11
285.240227901004
 21
2307.942510420666
 31
0.0
  0
INSERT
  5
1471
330
143E
100
AcDbEntity
  8
0
  6
HIDDEN2
 62
     0
 48
3.0
370
    -2
100
AcDbBlockReference
  2
_Open30
 10
253.8589596644905
 20
2307.942510420666
 30
0.0
 41
8.0
 42
8.0
 43
8.0
 50
180.0
  0
INSERT
  5
1472
330
143E
100
AcDbEntity
  8
0
  6
HIDDEN2
 62
     0
 48
3.0
370
    -2
100
AcDbBlockReference
  2
_Open30
 10
293.240227901004
 20
2307.942510420666
 30
0.0
 41
8.0
 42
8.0
 43
8.0
  0
MTEXT
  5
1473
330
143E
100
AcDbEntity
  8
0
  6
HIDDEN2
 62
     0
 48
3.0
100
AcDbMText
 10
273.5495937827472
 20
2322.995540723696
 30
0.0
 40
8.0
 41
0.0
 71
     5
 72
     1
  1
\A1;\P{\fＭＳ Ｐゴシック|b0|i0|c128|p50;カブリ}
 73
     1
 44
1.0
1001
ACAD
1000
MTEXTBEGIN
1070
    73
1070
     1
1070
    44
1040
1.0
1070
    74
1070
     0
1000
MTEXTEND
  0
POINT
  5
1474
330
143E
100
AcDbEntity
  8
Defpoints
  6
HIDDEN2
 62
     0
 48
3.0
100
AcDbPoint
 10
253.8589596644905
 20
2227.942510420666
 30
0.0
  0
POINT
  5
1475
330
143E
100
AcDbEntity
  8
Defpoints
  6
HIDDEN2
 62
     0
 48
3.0
100
AcDbPoint
 10
293.240227901004
 20
2236.100501807459
 30
0.0
  0
POINT
  5
1476
330
143E
100
AcDbEntity
  8
Defpoints
  6
HIDDEN2
 62
     0
 48
3.0
100
AcDbPoint
 10
293.240227901004
 20
2307.942510420666
 30
0.0
  0
ENDBLK
  5
1449
330
143E
100
AcDbEntity
  8
0
100
AcDbBlockEnd
  0
BLOCK
  5
1455
330
144A
100
AcDbEntity
  8
0
100
AcDbBlockBegin
  2
*D52
 70
     1
 10
0.0
 20
0.0
 30
0.0
  3
*D52
  1

  0
LINE
  5
1477
330
144A
100
AcDbEntity
  8
0
  6
HIDDEN2
 62
     0
 48
3.0
370
    -2
100
AcDbLine
 10
353.7339596644905
 20
2246.357510420666
 30
0.0
 11
353.7339596644905
 21
2338.942510420666
 31
0.0
  0
LINE
  5
1478
330
144A
100
AcDbEntity
  8
0
  6
HIDDEN2
 62
     0
 48
3.0
370
    -2
100
AcDbLine
 10
382.8939596644904
 20
2246.357510420666
 30
0.0
 11
382.8939596644904
 21
2338.942510420666
 31
0.0
  0
LINE
  5
1479
330
144A
100
AcDbEntity
  8
0
  6
HIDDEN2
 62
     0
 48
3.0
370
    -2
100
AcDbLine
 10
374.8939596644904
 20
2337.942510420666
 30
0.0
 11
361.7339596644905
 21
2337.942510420666
 31
0.0
  0
LINE
  5
147A
330
144A
100
AcDbEntity
  8
0
  6
HIDDEN2
 62
     0
 48
3.0
370
    -2
100
AcDbLine
 10
353.7339596644905
 20
2337.942510420666
 30
0.0
 11
302.5119237354228
 21
2337.942510420666
 31
0.0
  0
INSERT
  5
147B
330
144A
100
AcDbEntity
  8
0
  6
HIDDEN2
 62
     0
 48
3.0
370
    -2
100
AcDbBlockReference
  2
_Open30
 10
382.8939596644904
 20
2337.942510420666
 30
0.0
 41
8.0
 42
8.0
 43
8.0
  0
INSERT
  5
147C
330
144A
100
AcDbEntity
  8
0
  6
HIDDEN2
 62
     0
 48
3.0
370
    -2
100
AcDbBlockReference
  2
_Open30
 10
353.7339596644905
 20
2337.942510420666
 30
0.0
 41
8.0
 42
8.0
 43
8.0
 50
180.0
  0
MTEXT
  5
147D
330
144A
100
AcDbEntity
  8
0
  6
HIDDEN2
 62
     0
 48
3.0
100
AcDbMText
 10
323.602832826332
 20
2346.056146784302
 30
0.0
 40
8.0
 41
0.0
 71
     5
 72
     1
  1
\A1;{\fＭＳ Ｐゴシック|b0|i0|c128|p50;厚さ（ａ）}
 73
     1
 44
1.0
1001
ACAD
1000
MTEXTBEGIN
1070
    73
1070
     1
1070
    44
1040
1.0
1070
    74
1070
     0
1000
MTEXTEND
  0
POINT
  5
147E
330
144A
100
AcDbEntity
  8
Defpoints
  6
HIDDEN2
 62
     0
 48
3.0
100
AcDbPoint
 10
353.7339596644905
 20
2245.357510420666
 30
0.0
  0
POINT
  5
147F
330
144A
100
AcDbEntity
  8
Defpoints
  6
HIDDEN2
 62
     0
 48
3.0
100
AcDbPoint
 10
382.8939596644904
 20
2245.357510420666
 30
0.0
  0
POINT
  5
1480
330
144A
100
AcDbEntity
  8
Defpoints
  6
HIDDEN2
 62
     0
 48
3.0
100
AcDbPoint
 10
382.8939596644904
 20
2337.942510420666
 30
0.0
  0
ENDBLK
  5
1456
330
144A
100
AcDbEntity
  8
0
100
AcDbBlockEnd
  0
BLOCK
  5
1463
330
1457
100
AcDbEntity
  8
0
100
AcDbBlockBegin
  2
*D53
 70
     1
 10
0.0
 20
0.0
 30
0.0
  3
*D53
  1

  0
LINE
  5
1481
330
1457
100
AcDbEntity
  8
0
  6
HIDDEN2
 62
     0
 48
3.0
370
    -2
100
AcDbLine
 10
360.2139596644907
 20
2279.162510420666
 30
0.0
 11
360.2139596644907
 21
2308.942510420666
 31
0.0
  0
LINE
  5
1482
330
1457
100
AcDbEntity
  8
0
  6
HIDDEN2
 62
     0
 48
3.0
370
    -2
100
AcDbLine
 10
376.4139596644906
 20
2279.162510420666
 30
0.0
 11
376.4139596644906
 21
2308.942510420666
 31
0.0
  0
LINE
  5
1483
330
1457
100
AcDbEntity
  8
0
  6
HIDDEN2
 62
     0
 48
3.0
370
    -2
100
AcDbLine
 10
384.4139596644906
 20
2307.942510420666
 30
0.0
 11
392.4139596644906
 21
2307.942510420666
 31
0.0
  0
LINE
  5
1484
330
1457
100
AcDbEntity
  8
0
  6
HIDDEN2
 62
     0
 48
3.0
370
    -2
100
AcDbLine
 10
352.2139596644906
 20
2307.942510420666
 30
0.0
 11
298.8545846644907
 21
2307.942510420666
 31
0.0
  0
LINE
  5
1485
330
1457
100
AcDbEntity
  8
0
  6
HIDDEN2
 62
     0
 48
3.0
370
    -2
100
AcDbLine
 10
376.4139596644906
 20
2307.942510420666
 30
0.0
 11
360.2139596644907
 21
2307.942510420666
 31
0.0
  0
INSERT
  5
1486
330
1457
100
AcDbEntity
  8
0
  6
HIDDEN2
 62
     0
 48
3.0
370
    -2
100
AcDbBlockReference
  2
_Open30
 10
376.4139596644906
 20
2307.942510420666
 30
0.0
 41
8.0
 42
8.0
 43
8.0
 50
180.0
  0
INSERT
  5
1487
330
1457
100
AcDbEntity
  8
0
  6
HIDDEN2
 62
     0
 48
3.0
370
    -2
100
AcDbBlockReference
  2
_Open30
 10
360.2139596644907
 20
2307.942510420666
 30
0.0
 41
8.0
 42
8.0
 43
8.0
  0
MTEXT
  5
1488
330
1457
100
AcDbEntity
  8
0
  6
HIDDEN2
 62
     0
 48
3.0
100
AcDbMText
 10
320.1045846644907
 20
2316.056146784302
 30
0.0
 40
8.0
 41
0.0
 71
     5
 72
     1
  1
\A1;{\fＭＳ Ｐゴシック|b0|i0|c128|p50;厚さ（ｂ）}
 73
     1
 44
1.0
1001
ACAD
1000
MTEXTBEGIN
1070
    73
1070
     1
1070
    44
1040
1.0
1070
    74
1070
     0
1000
MTEXTEND
  0
POINT
  5
1489
330
1457
100
AcDbEntity
  8
Defpoints
  6
HIDDEN2
 62
     0
 48
3.0
100
AcDbPoint
 10
360.2139596644907
 20
2278.162510420665
 30
0.0
  0
POINT
  5
148A
330
1457
100
AcDbEntity
  8
Defpoints
  6
HIDDEN2
 62
     0
 48
3.0
100
AcDbPoint
 10
376.4139596644906
 20
2278.162510420665
 30
0.0
  0
POINT
  5
148B
330
1457
100
AcDbEntity
  8
Defpoints
  6
HIDDEN2
 62
     0
 48
3.0
100
AcDbPoint
 10
376.4139596644906
 20
2307.942510420666
 30
0.0
  0
ENDBLK
  5
1464
330
1457
100
AcDbEntity
  8
0
100
AcDbBlockEnd
  0
BLOCK
  5
14B6
330
14B5
100
AcDbEntity
  8
0
100
AcDbBlockBegin
  2
*D54
 70
     1
 10
0.0
 20
0.0
 30
0.0
  3
*D54
  1

  0
LINE
  5
14B7
330
14B5
100
AcDbEntity
  8
0
  6
HIDDEN2
 62
     0
 48
3.0
370
    -2
100
AcDbLine
 10
223.5864445104151
 20
1493.101199955092
 30
0.0
 11
223.5864445104151
 21
1603.101199955092
 31
0.0
  0
LINE
  5
14B8
330
14B5
100
AcDbEntity
  8
0
  6
HIDDEN2
 62
     0
 48
3.0
370
    -2
100
AcDbLine
 10
323.2904445104152
 20
1493.101199955092
 30
0.0
 11
323.2904445104152
 21
1603.101199955092
 31
0.0
  0
LINE
  5
14B9
330
14B5
100
AcDbEntity
  8
0
  6
HIDDEN2
 62
     0
 48
3.0
370
    -2
100
AcDbLine
 10
231.5864445104151
 20
1602.101199955091
 30
0.0
 11
315.2904445104152
 21
1602.101199955091
 31
0.0
  0
INSERT
  5
14BA
330
14B5
100
AcDbEntity
  8
0
  6
HIDDEN2
 62
     0
 48
3.0
370
    -2
100
AcDbBlockReference
  2
_Open30
 10
223.5864445104151
 20
1602.101199955091
 30
0.0
 41
8.0
 42
8.0
 43
8.0
 50
180.0
  0
INSERT
  5
14BB
330
14B5
100
AcDbEntity
  8
0
  6
HIDDEN2
 62
     0
 48
3.0
370
    -2
100
AcDbBlockReference
  2
_Open30
 10
323.2904445104152
 20
1602.101199955091
 30
0.0
 41
8.0
 42
8.0
 43
8.0
  0
MTEXT
  5
14BC
330
14B5
100
AcDbEntity
  8
0
  6
HIDDEN2
 62
     0
 48
3.0
100
AcDbMText
 10
273.4384445104151
 20
1610.28301813691
 30
0.0
 40
8.0
 41
0.0
 71
     5
 72
     1
  1
\A1;{\fＭＳ Ｐゴシック|b0|i0|c128|p50;外径（ｄ）}
 73
     1
 44
1.0
1001
ACAD
1000
MTEXTBEGIN
1070
    73
1070
     1
1070
    44
1040
1.0
1070
    74
1070
     0
1000
MTEXTEND
  0
POINT
  5
14BD
330
14B5
100
AcDbEntity
  8
Defpoints
  6
HIDDEN2
 62
     0
 48
3.0
100
AcDbPoint
 10
223.5864445104151
 20
1492.101199955092
 30
0.0
  0
POINT
  5
14BE
330
14B5
100
AcDbEntity
  8
Defpoints
  6
HIDDEN2
 62
     0
 48
3.0
100
AcDbPoint
 10
323.2904445104152
 20
1492.101199955092
 30
0.0
  0
POINT
  5
14BF
330
14B5
100
AcDbEntity
  8
Defpoints
  6
HIDDEN2
 62
     0
 48
3.0
100
AcDbPoint
 10
323.2904445104152
 20
1602.101199955091
 30
0.0
  0
ENDBLK
  5
14C0
330
14B5
100
AcDbEntity
  8
0
100
AcDbBlockEnd
  0
BLOCK
  5
14C2
330
14C1
100
AcDbEntity
  8
0
100
AcDbBlockBegin
  2
*D55
 70
     1
 10
0.0
 20
0.0
 30
0.0
  3
*D55
  1

  0
LINE
  5
14C3
330
14C1
100
AcDbEntity
  8
0
  6
HIDDEN2
 62
     0
 48
3.0
370
    -2
100
AcDbLine
 10
383.4384445104151
 20
1542.953199955092
 30
0.0
 11
383.4384445104151
 21
1602.809844561993
 31
0.0
  0
LINE
  5
14C4
330
14C1
100
AcDbEntity
  8
0
  6
HIDDEN2
 62
     0
 48
3.0
370
    -2
100
AcDbLine
 10
414.3384445104151
 20
1542.953199955092
 30
0.0
 11
414.3384445104151
 21
1602.809844561993
 31
0.0
  0
LINE
  5
14C5
330
14C1
100
AcDbEntity
  8
0
  6
HIDDEN2
 62
     0
 48
3.0
370
    -2
100
AcDbLine
 10
406.3384445104149
 20
1601.809844561993
 30
0.0
 11
391.4384445104151
 21
1601.809844561993
 31
0.0
  0
LINE
  5
14C6
330
14C1
100
AcDbEntity
  8
0
  6
HIDDEN2
 62
     0
 48
3.0
370
    -2
100
AcDbLine
 10
383.4384445104151
 20
1601.809844561993
 30
0.0
 11
332.3873081467787
 21
1601.809844561993
 31
0.0
  0
INSERT
  5
14C7
330
14C1
100
AcDbEntity
  8
0
  6
HIDDEN2
 62
     0
 48
3.0
370
    -2
100
AcDbBlockReference
  2
_Open30
 10
414.3384445104151
 20
1601.809844561993
 30
0.0
 41
8.0
 42
8.0
 43
8.0
  0
INSERT
  5
14C8
330
14C1
100
AcDbEntity
  8
0
  6
HIDDEN2
 62
     0
 48
3.0
370
    -2
100
AcDbBlockReference
  2
_Open30
 10
383.4384445104151
 20
1601.809844561993
 30
0.0
 41
8.0
 42
8.0
 43
8.0
 50
180.0
  0
MTEXT
  5
14C9
330
14C1
100
AcDbEntity
  8
0
  6
HIDDEN2
 62
     0
 48
3.0
100
AcDbMText
 10
353.4782172376878
 20
1609.923480925629
 30
0.0
 40
8.0
 41
0.0
 71
     5
 72
     1
  1
\A1;{\fＭＳ Ｐゴシック|b0|i0|c128|p50;厚さ（ａ）}
 73
     1
 44
1.0
1001
ACAD
1000
MTEXTBEGIN
1070
    73
1070
     1
1070
    44
1040
1.0
1070
    74
1070
     0
1000
MTEXTEND
  0
POINT
  5
14CA
330
14C1
100
AcDbEntity
  8
Defpoints
  6
HIDDEN2
 62
     0
 48
3.0
100
AcDbPoint
 10
383.4384445104151
 20
1541.953199955092
 30
0.0
  0
POINT
  5
14CB
330
14C1
100
AcDbEntity
  8
Defpoints
  6
HIDDEN2
 62
     0
 48
3.0
100
AcDbPoint
 10
414.3384445104151
 20
1541.953199955092
 30
0.0
  0
POINT
  5
14CC
330
14C1
100
AcDbEntity
  8
Defpoints
  6
HIDDEN2
 62
     0
 48
3.0
100
AcDbPoint
 10
414.3384445104151
 20
1601.809844561993
 30
0.0
  0
ENDBLK
  5
14CD
330
14C1
100
AcDbEntity
  8
0
100
AcDbBlockEnd
  0
BLOCK
  5
14CF
330
14CE
100
AcDbEntity
  8
0
100
AcDbBlockBegin
  2
*D56
 70
     1
 10
0.0
 20
0.0
 30
0.0
  3
*D56
  1

  0
LINE
  5
14D0
330
14CE
100
AcDbEntity
  8
0
  6
HIDDEN2
 62
     0
 48
3.0
370
    -2
100
AcDbLine
 10
290.9484445104153
 20
1493.101199955092
 30
0.0
 11
290.9484445104153
 21
1573.101199955092
 31
0.0
  0
LINE
  5
14D1
330
14CE
100
AcDbEntity
  8
0
  6
HIDDEN2
 62
     0
 48
3.0
370
    -2
100
AcDbLine
 10
323.2904445104153
 20
1493.101199955092
 30
0.0
 11
323.2904445104153
 21
1573.101199955092
 31
0.0
  0
LINE
  5
14D2
330
14CE
100
AcDbEntity
  8
0
  6
HIDDEN2
 62
     0
 48
3.0
370
    -2
100
AcDbLine
 10
298.9484445104153
 20
1572.101199955092
 30
0.0
 11
315.2904445104153
 21
1572.101199955092
 31
0.0
  0
LINE
  5
14D3
330
14CE
100
AcDbEntity
  8
0
  6
HIDDEN2
 62
     0
 48
3.0
370
    -2
100
AcDbLine
 10
323.2904445104153
 20
1572.101199955092
 30
0.0
 11
364.017717237688
 21
1572.101199955092
 31
0.0
  0
INSERT
  5
14D4
330
14CE
100
AcDbEntity
  8
0
  6
HIDDEN2
 62
     0
 48
3.0
370
    -2
100
AcDbBlockReference
  2
_Open30
 10
290.9484445104153
 20
1572.101199955092
 30
0.0
 41
8.0
 42
8.0
 43
8.0
 50
180.0
  0
INSERT
  5
14D5
330
14CE
100
AcDbEntity
  8
0
  6
HIDDEN2
 62
     0
 48
3.0
370
    -2
100
AcDbBlockReference
  2
_Open30
 10
323.2904445104153
 20
1572.101199955092
 30
0.0
 41
8.0
 42
8.0
 43
8.0
  0
MTEXT
  5
14D6
330
14CE
100
AcDbEntity
  8
0
  6
HIDDEN2
 62
     0
 48
3.0
100
AcDbMText
 10
347.6540808740517
 20
1580.487563591456
 30
0.0
 40
8.0
 41
0.0
 71
     5
 72
     1
  1
\A1;{\fＭＳ Ｐゴシック|b0|i0|c128|p50;カブリ}
 73
     1
 44
1.0
1001
ACAD
1000
MTEXTBEGIN
1070
    73
1070
     1
1070
    44
1040
1.0
1070
    74
1070
     0
1000
MTEXTEND
  0
POINT
  5
14D7
330
14CE
100
AcDbEntity
  8
Defpoints
  6
HIDDEN2
 62
     0
 48
3.0
100
AcDbPoint
 10
290.9484445104153
 20
1492.101199955092
 30
0.0
  0
POINT
  5
14D8
330
14CE
100
AcDbEntity
  8
Defpoints
  6
HIDDEN2
 62
     0
 48
3.0
100
AcDbPoint
 10
323.2904445104153
 20
1492.101199955092
 30
0.0
  0
POINT
  5
14D9
330
14CE
100
AcDbEntity
  8
Defpoints
  6
HIDDEN2
 62
     0
 48
3.0
100
AcDbPoint
 10
323.2904445104153
 20
1572.101199955092
 30
0.0
  0
ENDBLK
  5
14DA
330
14CE
100
AcDbEntity
  8
0
100
AcDbBlockEnd
  0
BLOCK
  5
15CB
330
15C1
100
AcDbEntity
  8
0
100
AcDbBlockBegin
  2
*D58
 70
     1
 10
0.0
 20
0.0
 30
0.0
  3
*D58
  1

  0
LINE
  5
15E4
330
15C1
100
AcDbEntity
  8
0
  6
HIDDEN2
 62
     0
 48
3.0
370
    -2
100
AcDbLine
 10
189.0305193234901
 20
2240.457836417337
 30
0.0
 11
189.0305193234901
 21
2350.457836417337
 31
0.0
  0
LINE
  5
15E5
330
15C1
100
AcDbEntity
  8
0
  6
HIDDEN2
 62
     0
 48
3.0
370
    -2
100
AcDbLine
 10
288.7345193234902
 20
2240.457836417337
 30
0.0
 11
288.7345193234902
 21
2350.457836417337
 31
0.0
  0
LINE
  5
15E6
330
15C1
100
AcDbEntity
  8
0
  6
HIDDEN2
 62
     0
 48
3.0
370
    -2
100
AcDbLine
 10
197.0305193234901
 20
2349.457836417337
 30
0.0
 11
280.7345193234902
 21
2349.457836417337
 31
0.0
  0
INSERT
  5
15E7
330
15C1
100
AcDbEntity
  8
0
  6
HIDDEN2
 62
     0
 48
3.0
370
    -2
100
AcDbBlockReference
  2
_Open30
 10
189.0305193234901
 20
2349.457836417337
 30
0.0
 41
8.0
 42
8.0
 43
8.0
 50
180.0
  0
INSERT
  5
15E8
330
15C1
100
AcDbEntity
  8
0
  6
HIDDEN2
 62
     0
 48
3.0
370
    -2
100
AcDbBlockReference
  2
_Open30
 10
288.7345193234902
 20
2349.457836417337
 30
0.0
 41
8.0
 42
8.0
 43
8.0
  0
MTEXT
  5
15E9
330
15C1
100
AcDbEntity
  8
0
  6
HIDDEN2
 62
     0
 48
3.0
100
AcDbMText
 10
238.8825193234902
 20
2357.639654599155
 30
0.0
 40
8.0
 41
0.0
 71
     5
 72
     1
  1
\A1;{\fＭＳ Ｐゴシック|b0|i0|c128|p50;外径（ｄ）}
 73
     1
 44
1.0
1001
ACAD
1000
MTEXTBEGIN
1070
    73
1070
     1
1070
    44
1040
1.0
1070
    74
1070
     0
1000
MTEXTEND
  0
POINT
  5
15EA
330
15C1
100
AcDbEntity
  8
Defpoints
  6
HIDDEN2
 62
     0
 48
3.0
100
AcDbPoint
 10
189.0305193234901
 20
2239.457836417336
 30
0.0
  0
POINT
  5
15EB
330
15C1
100
AcDbEntity
  8
Defpoints
  6
HIDDEN2
 62
     0
 48
3.0
100
AcDbPoint
 10
288.7345193234902
 20
2239.457836417336
 30
0.0
  0
POINT
  5
15EC
330
15C1
100
AcDbEntity
  8
Defpoints
  6
HIDDEN2
 62
     0
 48
3.0
100
AcDbPoint
 10
288.7345193234902
 20
2349.457836417337
 30
0.0
  0
ENDBLK
  5
15CC
330
15C1
100
AcDbEntity
  8
0
100
AcDbBlockEnd
  0
BLOCK
  5
15D8
330
15CD
100
AcDbEntity
  8
0
100
AcDbBlockBegin
  2
*D59
 70
     1
 10
0.0
 20
0.0
 30
0.0
  3
*D59
  1

  0
LINE
  5
15ED
330
15CD
100
AcDbEntity
  8
0
  6
HIDDEN2
 62
     0
 48
3.0
370
    -2
100
AcDbLine
 10
348.8825193234902
 20
2290.309836417337
 30
0.0
 11
348.8825193234902
 21
2350.166481024238
 31
0.0
  0
LINE
  5
15EE
330
15CD
100
AcDbEntity
  8
0
  6
HIDDEN2
 62
     0
 48
3.0
370
    -2
100
AcDbLine
 10
379.7825193234901
 20
2290.309836417337
 30
0.0
 11
379.7825193234901
 21
2350.166481024238
 31
0.0
  0
LINE
  5
15EF
330
15CD
100
AcDbEntity
  8
0
  6
HIDDEN2
 62
     0
 48
3.0
370
    -2
100
AcDbLine
 10
371.7825193234901
 20
2349.166481024238
 30
0.0
 11
356.8825193234902
 21
2349.166481024238
 31
0.0
  0
LINE
  5
15F0
330
15CD
100
AcDbEntity
  8
0
  6
HIDDEN2
 62
     0
 48
3.0
370
    -2
100
AcDbLine
 10
348.8825193234902
 20
2349.166481024238
 30
0.0
 11
297.8313829598538
 21
2349.166481024238
 31
0.0
  0
INSERT
  5
15F1
330
15CD
100
AcDbEntity
  8
0
  6
HIDDEN2
 62
     0
 48
3.0
370
    -2
100
AcDbBlockReference
  2
_Open30
 10
379.7825193234901
 20
2349.166481024238
 30
0.0
 41
8.0
 42
8.0
 43
8.0
  0
INSERT
  5
15F2
330
15CD
100
AcDbEntity
  8
0
  6
HIDDEN2
 62
     0
 48
3.0
370
    -2
100
AcDbBlockReference
  2
_Open30
 10
348.8825193234902
 20
2349.166481024238
 30
0.0
 41
8.0
 42
8.0
 43
8.0
 50
180.0
  0
MTEXT
  5
15F3
330
15CD
100
AcDbEntity
  8
0
  6
HIDDEN2
 62
     0
 48
3.0
100
AcDbMText
 10
318.9222920507628
 20
2357.280117387874
 30
0.0
 40
8.0
 41
0.0
 71
     5
 72
     1
  1
\A1;{\fＭＳ Ｐゴシック|b0|i0|c128|p50;厚さ（ａ）}
 73
     1
 44
1.0
1001
ACAD
1000
MTEXTBEGIN
1070
    73
1070
     1
1070
    44
1040
1.0
1070
    74
1070
     0
1000
MTEXTEND
  0
POINT
  5
15F4
330
15CD
100
AcDbEntity
  8
Defpoints
  6
HIDDEN2
 62
     0
 48
3.0
100
AcDbPoint
 10
348.8825193234902
 20
2289.309836417336
 30
0.0
  0
POINT
  5
15F5
330
15CD
100
AcDbEntity
  8
Defpoints
  6
HIDDEN2
 62
     0
 48
3.0
100
AcDbPoint
 10
379.7825193234901
 20
2289.309836417336
 30
0.0
  0
POINT
  5
15F6
330
15CD
100
AcDbEntity
  8
Defpoints
  6
HIDDEN2
 62
     0
 48
3.0
100
AcDbPoint
 10
379.7825193234901
 20
2349.166481024238
 30
0.0
  0
ENDBLK
  5
15D9
330
15CD
100
AcDbEntity
  8
0
100
AcDbBlockEnd
  0
BLOCK
  5
15E2
330
15DA
100
AcDbEntity
  8
0
100
AcDbBlockBegin
  2
*D60
 70
     1
 10
0.0
 20
0.0
 30
0.0
  3
*D60
  1

  0
LINE
  5
15F7
330
15DA
100
AcDbEntity
  8
0
  6
HIDDEN2
 62
     0
 48
3.0
370
    -2
100
AcDbLine
 10
256.3925193234903
 20
2240.457836417337
 30
0.0
 11
256.3925193234903
 21
2320.457836417337
 31
0.0
  0
LINE
  5
15F8
330
15DA
100
AcDbEntity
  8
0
  6
HIDDEN2
 62
     0
 48
3.0
370
    -2
100
AcDbLine
 10
288.7345193234903
 20
2240.457836417337
 30
0.0
 11
288.7345193234903
 21
2320.457836417337
 31
0.0
  0
LINE
  5
15F9
330
15DA
100
AcDbEntity
  8
0
  6
HIDDEN2
 62
     0
 48
3.0
370
    -2
100
AcDbLine
 10
256.3925193234903
 20
2319.457836417337
 30
0.0
 11
288.7345193234903
 21
2319.457836417337
 31
0.0
  0
MTEXT
  5
15FA
330
15DA
100
AcDbEntity
  8
0
  6
HIDDEN2
 62
     0
 48
3.0
100
AcDbMText
 10
272.5635193234903
 20
2327.8442000537
 30
0.0
 40
8.0
 41
0.0
 71
     5
 72
     1
  1
\A1;{\fＭＳ Ｐゴシック|b0|i0|c128|p50;カブリ}
 73
     1
 44
1.0
1001
ACAD
1000
MTEXTBEGIN
1070
    73
1070
     1
1070
    44
1040
1.0
1070
    74
1070
     0
1000
MTEXTEND
  0
POINT
  5
15FB
330
15DA
100
AcDbEntity
  8
Defpoints
  6
HIDDEN2
 62
     0
 48
3.0
100
AcDbPoint
 10
256.3925193234903
 20
2239.457836417336
 30
0.0
  0
POINT
  5
15FC
330
15DA
100
AcDbEntity
  8
Defpoints
  6
HIDDEN2
 62
     0
 48
3.0
100
AcDbPoint
 10
288.7345193234903
 20
2239.457836417336
 30
0.0
  0
POINT
  5
15FD
330
15DA
100
AcDbEntity
  8
Defpoints
  6
HIDDEN2
 62
     0
 48
3.0
100
AcDbPoint
 10
288.7345193234903
 20
2319.457836417337
 30
0.0
  0
ENDBLK
  5
15E3
330
15DA
100
AcDbEntity
  8
0
100
AcDbBlockEnd
  0
ENDSEC
  0
SECTION
  2
ENTITIES
  0
ARC
  5
1551
330
1F
100
AcDbEntity
  8
Object
100
AcDbCircle
 10
238.8825193234902
 20
2239.457836417336
 30
0.0
 40
48.20399999999999
100
AcDbArc
 50
91.95892547816134
 51
106.0410745218425
  0
ARC
  5
1552
330
1F
100
AcDbEntity
  8
Object
100
AcDbCircle
 10
238.8825193234902
 20
2239.457836417336
 30
0.0
 40
42.22999999999999
100
AcDbArc
 50
93.49581363238945
 51
131.504186367613
  0
ARC
  5
1553
330
1F
100
AcDbEntity
  8
Object
100
AcDbCircle
 10
238.8825193234902
 20
2239.457836417336
 30
0.0
 40
19.57
100
AcDbArc
 50
292.4391568233296
 51
307.5608431766769
  0
ARC
  5
1554
330
1F
100
AcDbEntity
  8
Object
100
AcDbCircle
 10
238.8825193234901
 20
2239.457836417336
 30
0.0
 40
26.265
100
AcDbArc
 50
95.62627094610391
 51
129.3737290538938
  0
ARC
  5
1555
330
1F
100
AcDbEntity
  8
Object
100
AcDbCircle
 10
238.8825193234901
 20
2287.661836417337
 30
0.0
 40
1.647999999999994
100
AcDbArc
 50
359.0205372609326
 51
180.9794627390675
  0
ARC
  5
1556
330
1F
100
AcDbEntity
  8
Object
100
AcDbCircle
 10
223.9866641266401
 20
2285.302564728829
 30
0.0
 40
1.647999999999994
100
AcDbArc
 50
17.02053726092254
 51
198.9794627390777
  0
ARC
  5
1557
330
1F
100
AcDbEntity
  8
Object
100
AcDbCircle
 10
210.5489190219836
 20
2278.455691614187
 30
0.0
 40
1.647999999999994
100
AcDbArc
 50
35.02053726091163
 51
216.9794627390761
  0
ARC
  5
1558
330
1F
100
AcDbEntity
  8
Object
100
AcDbCircle
 10
199.88466412664
 20
2267.791436718844
 30
0.0
 40
1.647999999999994
100
AcDbArc
 50
53.02053726091284
 51
234.9794627390835
  0
ARC
  5
1559
330
1F
100
AcDbEntity
  8
Object
100
AcDbCircle
 10
193.0377910119986
 20
2254.353691614187
 30
0.0
 40
1.647999999999994
100
AcDbArc
 50
71.02053726092176
 51
252.9794627390776
  0
ARC
  5
155A
330
1F
100
AcDbEntity
  8
Object
100
AcDbCircle
 10
190.6785193234901
 20
2239.457836417336
 30
0.0
 40
1.647999999999994
100
AcDbArc
 50
89.02053726091628
 51
270.9794627390837
  0
ARC
  5
155B
330
1F
100
AcDbEntity
  8
Object
100
AcDbCircle
 10
193.0377910119987
 20
2224.561981220487
 30
0.0
 40
1.647999999999994
100
AcDbArc
 50
107.0205372609224
 51
288.9794627390783
  0
ARC
  5
155C
330
1F
100
AcDbEntity
  8
Object
100
AcDbCircle
 10
199.8846641266403
 20
2211.124236115831
 30
0.0
 40
1.647999999999994
100
AcDbArc
 50
125.0205372609191
 51
306.9794627390897
  0
ARC
  5
155D
330
1F
100
AcDbEntity
  8
Object
100
AcDbCircle
 10
277.8803745203402
 20
2211.124236115831
 30
0.0
 40
1.647999999999994
100
AcDbArc
 50
233.0205372609116
 51
54.97946273908357
  0
ARC
  5
155E
330
1F
100
AcDbEntity
  8
Object
100
AcDbCircle
 10
284.7272476349817
 20
2224.561981220487
 30
0.0
 40
1.647999999999994
100
AcDbArc
 50
251.0205372609218
 51
72.97946273907759
  0
ARC
  5
155F
330
1F
100
AcDbEntity
  8
Object
100
AcDbCircle
 10
287.0865193234902
 20
2239.457836417336
 30
0.0
 40
1.647999999999994
100
AcDbArc
 50
269.0205372609162
 51
90.97946273908048
  0
ARC
  5
1560
330
1F
100
AcDbEntity
  8
Object
100
AcDbCircle
 10
284.7272476349817
 20
2254.353691614187
 30
0.0
 40
1.647999999999994
100
AcDbArc
 50
287.0205372609224
 51
108.9794627390782
  0
ARC
  5
1561
330
1F
100
AcDbEntity
  8
Object
100
AcDbCircle
 10
277.8803745203401
 20
2267.791436718844
 30
0.0
 40
1.647999999999994
100
AcDbArc
 50
305.0205372609191
 51
126.9794627390897
  0
ARC
  5
1562
330
1F
100
AcDbEntity
  8
Object
100
AcDbCircle
 10
267.2161196249965
 20
2278.455691614187
 30
0.0
 40
1.647999999999994
100
AcDbArc
 50
323.0205372609239
 51
144.9794627390883
  0
ARC
  5
1563
330
1F
100
AcDbEntity
  8
Object
100
AcDbCircle
 10
253.7783745203402
 20
2285.302564728829
 30
0.0
 40
1.647999999999994
100
AcDbArc
 50
341.0205372609222
 51
162.9794627390774
  0
LINE
  5
1564
330
1F
100
AcDbEntity
  8
Object
100
AcDbLine
 10
241.4575193234901
 20
2281.609257211897
 30
0.0
 11
241.4575193234902
 21
2265.596306150664
 31
0.0
  0
LINE
  5
1565
330
1F
100
AcDbEntity
  8
Object
100
AcDbLine
 10
236.30751932349
 20
2281.609257211897
 30
0.0
 11
236.3075193234902
 21
2265.596306150664
 31
0.0
  0
LINE
  5
1566
330
1F
100
AcDbEntity
  8
Object
100
AcDbLine
 10
210.8977638045651
 20
2271.084191859373
 30
0.0
 11
222.2206300867713
 21
2259.761325577167
 31
0.0
  0
LINE
  5
1567
330
1F
100
AcDbEntity
  8
Object
100
AcDbLine
 10
207.2561638814542
 20
2267.442591936263
 30
0.0
 11
218.5790301636606
 21
2256.119725654055
 31
0.0
  0
LINE
  5
1568
330
1F
100
AcDbEntity
  8
Object
100
AcDbLine
 10
259.1777540163082
 20
2256.129779128474
 30
0.0
 11
270.4950111405162
 21
2267.458251791371
 31
0.0
  0
ARC
  5
1569
330
1F
100
AcDbEntity
  8
Object
100
AcDbCircle
 10
238.8825193234902
 20
2239.457836417336
 30
0.0
 40
42.22999999999999
100
AcDbArc
 50
138.4958136323956
 51
191.5041863676053
  0
ARC
  5
156A
330
1F
100
AcDbEntity
  8
Object
100
AcDbCircle
 10
238.8825193234901
 20
2239.457836417336
 30
0.0
 40
26.265
100
AcDbArc
 50
140.6262709461141
 51
189.3737290538951
  0
LINE
  5
156B
330
1F
100
AcDbEntity
  8
Object
100
AcDbLine
 10
255.5343509989115
 20
2259.769575064076
 30
0.0
 11
266.8516081231195
 21
2271.098047726973
 31
0.0
  0
ARC
  5
156C
330
1F
100
AcDbEntity
  8
Object
100
AcDbCircle
 10
238.8825193234901
 20
2239.457836417336
 30
0.0
 40
26.265
100
AcDbArc
 50
50.65464728836216
 51
84.37372905389285
  0
ARC
  5
156D
330
1F
100
AcDbEntity
  8
Object
100
AcDbCircle
 10
238.8825193234902
 20
2239.457836417336
 30
0.0
 40
42.22999999999999
100
AcDbArc
 50
48.52418997464543
 51
86.50418636761056
  0
LINE
  5
156E
330
1F
100
AcDbEntity
  8
Object
100
AcDbLine
 10
264.7968013397238
 20
2235.179961643211
 30
0.0
 11
280.264124324872
 21
2231.035504940269
 31
0.0
  0
LINE
  5
156F
330
1F
100
AcDbEntity
  8
Object
100
AcDbLine
 10
262.9623974956921
 20
2230.3398163427
 30
0.0
 11
278.9312062425941
 21
2226.060986934879
 31
0.0
  0
ARC
  5
1570
330
1F
100
AcDbEntity
  8
Object
100
AcDbCircle
 10
238.8825193234901
 20
2239.457836417336
 30
0.0
 40
26.265
100
AcDbArc
 50
350.6262709461048
 51
39.4021053961584
  0
ARC
  5
1571
330
1F
100
AcDbEntity
  8
Object
100
AcDbCircle
 10
238.8825193234902
 20
2239.457836417336
 30
0.0
 40
42.22999999999999
100
AcDbArc
 50
348.4958136323947
 51
41.53256270986924
  0
LINE
  5
1572
330
1F
100
AcDbEntity
  8
Object
100
AcDbLine
 10
212.9682373072566
 20
2235.179961643211
 30
0.0
 11
197.5009143221083
 21
2231.035504940269
 31
0.0
  0
LINE
  5
1573
330
1F
100
AcDbEntity
  8
Object
100
AcDbLine
 10
214.3011553895346
 20
2230.205443637822
 30
0.0
 11
198.8338324043863
 21
2226.060986934879
 31
0.0
  0
ARC
  5
1574
330
1F
100
AcDbEntity
  8
Object
100
AcDbCircle
 10
238.8825193234902
 20
2239.457836417336
 30
0.0
 40
42.22999999999999
100
AcDbArc
 50
198.4958136323836
 51
222.9839841825294
  0
LINE
  5
1575
330
1F
100
AcDbEntity
  8
Object
100
AcDbLine
 10
240.9425193234902
 20
2256.846237723956
 30
0.0
 11
240.9425193234903
 21
2258.919113353859
 31
0.0
  0
LINE
  5
1576
330
1F
100
AcDbEntity
  8
Object
100
AcDbLine
 10
236.8225193234902
 20
2256.846237723956
 30
0.0
 11
236.8225193234902
 21
2258.919113353859
 31
0.0
  0
ARC
  5
1577
330
1F
100
AcDbEntity
  8
Object
100
AcDbCircle
 10
238.8825193234902
 20
2239.457836417336
 30
0.0
 40
17.51
100
AcDbArc
 50
83.24367296941277
 51
96.75632703058722
  0
LINE
  5
1578
330
1F
100
AcDbEntity
  8
Object
100
AcDbLine
 10
225.1304228763432
 20
2250.296652925996
 30
0.0
 11
223.6646784618819
 21
2251.762397340457
 31
0.0
  0
LINE
  5
1579
330
1F
100
AcDbEntity
  8
Object
100
AcDbLine
 10
228.0437028148318
 20
2253.209932864484
 30
0.0
 11
226.5779584003705
 21
2254.675677278945
 31
0.0
  0
ARC
  5
157A
330
1F
100
AcDbEntity
  8
Object
100
AcDbCircle
 10
238.8825193234901
 20
2239.457836417336
 30
0.0
 40
17.51
100
AcDbArc
 50
128.2436729694086
 51
141.7563270306026
  0
LINE
  5
157B
330
1F
100
AcDbEntity
  8
Object
100
AcDbLine
 10
249.7213358321487
 20
2253.209932864484
 30
0.0
 11
251.1870802466099
 21
2254.675677278945
 31
0.0
  0
LINE
  5
157C
330
1F
100
AcDbEntity
  8
Object
100
AcDbLine
 10
252.6346157706372
 20
2250.296652925995
 30
0.0
 11
254.1003601850985
 21
2251.762397340457
 31
0.0
  0
ARC
  5
157D
330
1F
100
AcDbEntity
  8
Object
100
AcDbCircle
 10
238.8825193234901
 20
2239.457836417336
 30
0.0
 40
17.51
100
AcDbArc
 50
38.24367296939733
 51
51.75632703059136
  0
ARC
  5
157E
330
1F
100
AcDbEntity
  8
Object
100
AcDbCircle
 10
238.8825193234902
 20
2239.457836417336
 30
0.0
 40
17.50999999999991
100
AcDbArc
 50
338.2436729694195
 51
351.7563270305829
  0
LINE
  5
157F
330
1F
100
AcDbEntity
  8
Object
100
AcDbLine
 10
256.2115924563424
 20
2236.947194197454
 30
0.0
 11
258.2138365619517
 21
2236.410694506306
 31
0.0
  0
LINE
  5
1580
330
1F
100
AcDbEntity
  8
Object
100
AcDbLine
 10
255.1452579905199
 20
2232.967579793144
 30
0.0
 11
257.1475020961293
 21
2232.431080101996
 31
0.0
  0
ARC
  5
1581
330
1F
100
AcDbEntity
  8
Object
100
AcDbCircle
 10
238.88251932349
 20
2239.457836417336
 30
0.0
 40
17.50999999999991
100
AcDbArc
 50
188.2436729694171
 51
201.7563270305805
  0
LINE
  5
1582
330
1F
100
AcDbEntity
  8
Object
100
AcDbLine
 10
221.5534461906379
 20
2236.947194197454
 30
0.0
 11
219.5512020850286
 21
2236.410694506306
 31
0.0
  0
LINE
  5
1583
330
1F
100
AcDbEntity
  8
Object
100
AcDbLine
 10
222.6197806564604
 20
2232.967579793143
 30
0.0
 11
220.6175365508509
 21
2232.431080101995
 31
0.0
  0
LINE
  5
1584
330
1F
100
AcDbEntity
  8
Object
100
AcDbLine
 10
246.3524301326915
 20
2221.369571367793
 30
0.0
 11
260.2910039087453
 21
2197.227253402621
 31
0.0
  0
LINE
  5
1585
330
1F
100
AcDbEntity
  8
Object
100
AcDbLine
 10
250.8124609621814
 20
2223.944571367793
 30
0.0
 11
262.1882451355147
 21
2204.241135203642
 31
0.0
  0
ARC
  5
1586
330
1F
100
AcDbEntity
  8
Object
100
AcDbCircle
 10
238.8825193234901
 20
2239.457836417336
 30
0.0
 40
17.51000000000003
100
AcDbArc
 50
293.2436729694105
 51
306.7563270305933
  0
LINE
  5
1587
330
1F
100
AcDbEntity
  8
Object
100
AcDbLine
 10
249.3607323085953
 20
2225.429039154608
 30
0.0
 11
250.3971701235471
 21
2223.633876200225
 31
0.0
  0
LINE
  5
1588
330
1F
100
AcDbEntity
  8
Object
100
AcDbLine
 10
245.7927076450034
 20
2223.369039154608
 30
0.0
 11
246.8291454599552
 21
2221.573876200225
 31
0.0
  0
LINE
  5
1589
330
1F
100
AcDbEntity
  8
Object
100
AcDbLine
 10
231.9723310019771
 20
2223.369039154608
 30
0.0
 11
230.9358931870252
 21
2221.573876200225
 31
0.0
  0
LINE
  5
158A
330
1F
100
AcDbEntity
  8
Object
100
AcDbLine
 10
228.4043063383851
 20
2225.429039154608
 30
0.0
 11
227.3678685234334
 21
2223.633876200225
 31
0.0
  0
ARC
  5
158B
330
1F
100
AcDbEntity
  8
Object
100
AcDbCircle
 10
238.8825193234902
 20
2239.457836417336
 30
0.0
 40
48.20399999999999
100
AcDbArc
 50
302.8836241215866
 51
322.041074521829
  0
ARC
  5
158C
330
1F
100
AcDbEntity
  8
Object
100
AcDbCircle
 10
262.5210193234902
 20
2198.51475340262
 30
0.0
 40
2.574999999999964
100
AcDbArc
 50
210.0000000000005
 51
10.34861565866521
  0
ARC
  5
158D
330
1F
100
AcDbEntity
  8
Object
100
AcDbCircle
 10
238.8825193234902
 20
2239.457836417336
 30
0.0
 40
42.22999999999999
100
AcDbArc
 50
303.4958136323857
 51
309.3566989272629
  0
ARC
  5
158E
330
1F
100
AcDbEntity
  8
Object
100
AcDbCircle
 10
238.8825193234902
 20
2239.457836417336
 30
0.0
 40
19.57
100
AcDbArc
 50
337.4391568233404
 51
202.5608431766597
  0
LINE
  5
158F
330
1F
100
AcDbEntity
  8
Object
100
AcDbLine
 10
265.6625193234902
 20
2206.805049399994
 30
0.0
 11
256.9548787879677
 21
2231.94952612895
 31
0.0
  0
LINE
  5
1590
330
1F
100
AcDbEntity
  8
Object
100
AcDbLine
 10
269.7756355850942
 20
2210.665680061012
 30
0.0
 11
262.9623974956921
 21
2230.3398163427
 31
0.0
  0
ARC
  5
1591
330
1F
100
AcDbEntity
  8
Object
100
AcDbCircle
 10
238.8825193234902
 20
2239.457836417336
 30
0.0
 40
42.22999999999999
100
AcDbArc
 50
317.0160158174706
 51
341.5041863676163
  0
LINE
  5
1592
330
1F
100
AcDbEntity
  8
Object
100
AcDbLine
 10
226.9525776847991
 20
2223.944571367793
 30
0.0
 11
215.5767935114656
 21
2204.241135203642
 31
0.0
  0
LINE
  5
1593
330
1F
100
AcDbEntity
  8
Object
100
AcDbLine
 10
231.4126085142889
 20
2221.369571367793
 30
0.0
 11
217.4740347382351
 21
2197.227253402621
 31
0.0
  0
ARC
  5
1594
330
1F
100
AcDbEntity
  8
Object
100
AcDbCircle
 10
238.8825193234902
 20
2239.457836417336
 30
0.0
 40
19.57
100
AcDbArc
 50
232.4391568233231
 51
247.5608431766704
  0
LINE
  5
1595
330
1F
100
AcDbEntity
  8
Object
100
AcDbLine
 10
231.9723310019771
 20
2223.369039154608
 30
0.0
 11
230.9358931870252
 21
2221.573876200225
 31
0.0
  0
LINE
  5
1596
330
1F
100
AcDbEntity
  8
Object
100
AcDbLine
 10
228.4043063383851
 20
2225.429039154608
 30
0.0
 11
227.3678685234334
 21
2223.633876200225
 31
0.0
  0
ARC
  5
1597
330
1F
100
AcDbEntity
  8
Object
100
AcDbCircle
 10
238.8825193234903
 20
2239.457836417336
 30
0.0
 40
17.51000000000003
100
AcDbArc
 50
233.2436729694068
 51
246.7563270305895
  0
ARC
  5
1598
330
1F
100
AcDbEntity
  8
Object
100
AcDbCircle
 10
215.2440193234901
 20
2198.51475340262
 30
0.0
 40
2.574999999999964
100
AcDbArc
 50
169.6513843413348
 51
329.9999999999995
  0
ARC
  5
1599
330
1F
100
AcDbEntity
  8
Object
100
AcDbCircle
 10
238.8825193234902
 20
2239.457836417336
 30
0.0
 40
42.22999999999999
100
AcDbArc
 50
230.6433010727358
 51
236.5041863676144
  0
LINE
  5
159A
330
1F
100
AcDbEntity
  8
Object
100
AcDbLine
 10
212.1025193234902
 20
2206.805049399994
 30
0.0
 11
220.8101598590127
 21
2231.94952612895
 31
0.0
  0
LINE
  5
159B
330
1F
100
AcDbEntity
  8
Object
100
AcDbLine
 10
207.9894030618861
 20
2210.665680061012
 30
0.0
 11
214.8026411512883
 21
2230.3398163427
 31
0.0
  0
ARC
  5
159C
330
1F
100
AcDbEntity
  8
Object
100
AcDbCircle
 10
238.8825193234902
 20
2239.457836417336
 30
0.0
 40
48.20399999999999
100
AcDbArc
 50
181.9589254781481
 51
196.0410745218447
  0
ARC
  5
159D
330
1F
100
AcDbEntity
  8
Object
100
AcDbCircle
 10
238.8825193234902
 20
2239.457836417336
 30
0.0
 40
48.20399999999999
100
AcDbArc
 50
199.9589254781523
 51
214.0410745218326
  0
ARC
  5
159E
330
1F
100
AcDbEntity
  8
Object
100
AcDbCircle
 10
238.8825193234902
 20
2239.457836417336
 30
0.0
 40
48.20399999999999
100
AcDbArc
 50
217.9589254781709
 51
237.1163758784135
  0
ARC
  5
159F
330
1F
100
AcDbEntity
  8
Object
100
AcDbCircle
 10
238.8825193234902
 20
2239.457836417336
 30
0.0
 40
48.20399999999999
100
AcDbArc
 50
1.958925478148103
 51
16.04107452184473
  0
ARC
  5
15A0
330
1F
100
AcDbEntity
  8
Object
100
AcDbCircle
 10
238.8825193234902
 20
2239.457836417336
 30
0.0
 40
48.20399999999999
100
AcDbArc
 50
343.9589254781552
 51
358.0410745218519
  0
ARC
  5
15A1
330
1F
100
AcDbEntity
  8
Object
100
AcDbCircle
 10
238.8825193234902
 20
2239.457836417336
 30
0.0
 40
48.20399999999999
100
AcDbArc
 50
325.9589254781674
 51
340.0410745218477
  0
ARC
  5
15A2
330
1F
100
AcDbEntity
  8
Object
100
AcDbCircle
 10
238.8825193234902
 20
2239.457836417336
 30
0.0
 40
48.20399999999999
100
AcDbArc
 50
19.9589254781523
 51
34.04107452183261
  0
ARC
  5
15A3
330
1F
100
AcDbEntity
  8
Object
100
AcDbCircle
 10
238.8825193234902
 20
2239.457836417336
 30
0.0
 40
48.20399999999999
100
AcDbArc
 50
73.95892547815748
 51
88.04107452183867
  0
ARC
  5
15A4
330
1F
100
AcDbEntity
  8
Object
100
AcDbCircle
 10
238.8825193234902
 20
2239.457836417336
 30
0.0
 40
48.20399999999999
100
AcDbArc
 50
55.95892547817111
 51
70.04107452183935
  0
ARC
  5
15A5
330
1F
100
AcDbEntity
  8
Object
100
AcDbCircle
 10
238.8825193234902
 20
2239.457836417336
 30
0.0
 40
48.20399999999999
100
AcDbArc
 50
37.95892547817093
 51
52.04107452184178
  0
ARC
  5
15A6
330
1F
100
AcDbEntity
  8
Object
100
AcDbCircle
 10
238.8825193234902
 20
2239.457836417336
 30
0.0
 40
48.20399999999999
100
AcDbArc
 50
163.9589254781552
 51
178.0410745218258
  0
ARC
  5
15A7
330
1F
100
AcDbEntity
  8
Object
100
AcDbCircle
 10
238.8825193234902
 20
2239.457836417336
 30
0.0
 40
48.20399999999999
100
AcDbArc
 50
145.9589254781674
 51
160.0410745218477
  0
ARC
  5
15A8
330
1F
100
AcDbEntity
  8
Object
100
AcDbCircle
 10
238.8825193234902
 20
2239.457836417336
 30
0.0
 40
48.20399999999999
100
AcDbArc
 50
127.9589254781582
 51
142.0410745218291
  0
ARC
  5
15A9
330
1F
100
AcDbEntity
  8
Object
100
AcDbCircle
 10
238.8825193234902
 20
2239.457836417336
 30
0.0
 40
48.20399999999999
100
AcDbArc
 50
109.9589254781606
 51
124.0410745218289
  0
LINE
  5
15AA
330
1F
100
AcDbEntity
  8
Object
100
AcDbLine
 10
348.8825193234902
 20
2289.309836417336
 30
0.0
 11
348.8825193234902
 21
2195.93975340262
 31
0.0
  0
LINE
  5
15AB
330
1F
100
AcDbEntity
  8
Object
100
AcDbLine
 10
379.7825193234901
 20
2289.309836417336
 30
0.0
 11
379.7825193234901
 21
2195.93975340262
 31
0.0
  0
LINE
  5
15AC
330
1F
100
AcDbEntity
  8
Object
100
AcDbLine
 10
348.8825193234902
 20
2289.309836417336
 30
0.0
 11
379.7825193234901
 21
2289.309836417336
 31
0.0
  0
LINE
  5
15AD
330
1F
100
AcDbEntity
  8
Object
100
AcDbLine
 10
348.8825193234902
 20
2287.633665477166
 30
0.0
 11
379.7825193234901
 21
2287.633665477166
 31
0.0
  0
LINE
  5
15AE
330
1F
100
AcDbEntity
  8
Object
100
AcDbLine
 10
348.8825193234902
 20
2286.950564728829
 30
0.0
 11
379.7825193234901
 21
2286.950564728829
 31
0.0
  0
LINE
  5
15AF
330
1F
100
AcDbEntity
  8
Object
100
AcDbLine
 10
348.8825193234902
 20
2284.766586975582
 30
0.0
 11
379.7825193234901
 21
2284.766586975582
 31
0.0
  0
LINE
  5
15B0
330
1F
100
AcDbEntity
  8
Object
100
AcDbLine
 10
348.8825193234902
 20
2280.103691614186
 30
0.0
 11
379.7825193234901
 21
2280.103691614186
 31
0.0
  0
LINE
  5
15B1
330
1F
100
AcDbEntity
  8
Object
100
AcDbLine
 10
348.8825193234902
 20
2277.464372284729
 30
0.0
 11
379.7825193234901
 21
2277.464372284729
 31
0.0
  0
LINE
  5
15B2
330
1F
100
AcDbEntity
  8
Object
100
AcDbLine
 10
348.8825193234902
 20
2269.439436718843
 30
0.0
 11
379.7825193234901
 21
2269.439436718844
 31
0.0
  0
LINE
  5
15B3
330
1F
100
AcDbEntity
  8
Object
100
AcDbLine
 10
348.8825193234902
 20
2266.44181305607
 30
0.0
 11
379.7825193234901
 21
2266.44181305607
 31
0.0
  0
LINE
  5
15B4
330
1F
100
AcDbEntity
  8
Object
100
AcDbLine
 10
348.8825193234902
 20
2255.912098444261
 30
0.0
 11
379.7825193234901
 21
2255.912098444261
 31
0.0
  0
LINE
  5
15B5
330
1F
100
AcDbEntity
  8
Object
100
AcDbLine
 10
348.8825193234902
 20
2252.777874185592
 30
0.0
 11
379.7825193234901
 21
2252.777874185592
 31
0.0
  0
LINE
  5
15B6
330
1F
100
AcDbEntity
  8
Object
100
AcDbLine
 10
348.8825193234902
 20
2241.105595622479
 30
0.0
 11
379.7825193234901
 21
2241.105595622479
 31
0.0
  0
LINE
  5
15B7
330
1F
100
AcDbEntity
  8
Object
100
AcDbLine
 10
348.8825193234902
 20
2237.810077212195
 30
0.0
 11
379.7825193234901
 21
2237.810077212195
 31
0.0
  0
LINE
  5
15B8
330
1F
100
AcDbEntity
  8
Object
100
AcDbLine
 10
348.8825193234902
 20
2226.137798649083
 30
0.0
 11
379.7825193234901
 21
2226.137798649083
 31
0.0
  0
LINE
  5
15B9
330
1F
100
AcDbEntity
  8
Object
100
AcDbLine
 10
348.8825193234902
 20
2222.913981220487
 30
0.0
 11
379.7825193234901
 21
2222.913981220487
 31
0.0
  0
LINE
  5
15BA
330
1F
100
AcDbEntity
  8
Object
100
AcDbLine
 10
348.8825193234902
 20
2212.473859778604
 30
0.0
 11
379.7825193234901
 21
2212.473859778604
 31
0.0
  0
LINE
  5
15BB
330
1F
100
AcDbEntity
  8
Object
100
AcDbLine
 10
348.8825193234902
 20
2209.476236115831
 30
0.0
 11
379.7825193234901
 21
2209.476236115831
 31
0.0
  0
LINE
  5
15BC
330
1F
100
AcDbEntity
  8
Object
100
AcDbLine
 10
348.8825193234902
 20
2198.977318627059
 30
0.0
 11
379.7825193234901
 21
2198.977318627059
 31
0.0
  0
LINE
  5
15BD
330
1F
100
AcDbEntity
  8
Object
100
AcDbLine
 10
348.8825193234899
 20
2195.93975340262
 30
0.0
 11
379.7825193234901
 21
2195.93975340262
 31
0.0
  0
DIMENSION
  5
15BE
330
1F
100
AcDbEntity
  8
0
  6
HIDDEN2
 48
3.0
100
AcDbDimension
  2
*D58
 10
288.7345193234902
 20
2349.457836417337
 30
0.0
 11
238.8825193234902
 21
2357.639654599155
 31
0.0
 70
    32
  1
{\fＭＳ Ｐゴシック|b0|i0|c128|p50;外径（ｄ）}
 71
     5
 42
99.7040000000001
  3
JIS
100
AcDbAlignedDimension
 13
189.0305193234901
 23
2239.457836417336
 33
0.0
 14
288.7345193234902
 24
2239.457836417336
 34
0.0
100
AcDbRotatedDimension
1001
ACAD
1000
DSTYLE
1002
{
1070
   343
1005
33F
1070
   342
1005
0
1070
   173
1070
     1
1070
   344
1005
33F
1070
    41
1040
8.0
1070
   147
1040
3.0
1070
   140
1040
8.0
1002
}
  0
DIMENSION
  5
15BF
330
1F
100
AcDbEntity
  8
0
  6
HIDDEN2
 48
3.0
100
AcDbDimension
  2
*D59
 10
379.7825193234901
 20
2349.166481024238
 30
0.0
 11
318.9222920507628
 21
2349.166481024238
 31
0.0
 70
   160
  1
{\fＭＳ Ｐゴシック|b0|i0|c128|p50;厚さ（ａ）}
 71
     5
 42
30.89999999999998
  3
JIS
100
AcDbAlignedDimension
 13
348.8825193234902
 23
2289.309836417336
 33
0.0
 14
379.7825193234901
 24
2289.309836417336
 34
0.0
100
AcDbRotatedDimension
1001
ACAD
1000
DSTYLE
1002
{
1070
   343
1005
33F
1070
   342
1005
0
1070
   173
1070
     1
1070
   344
1005
33F
1070
    41
1040
8.0
1070
   147
1040
3.0
1070
   140
1040
8.0
1002
}
  0
DIMENSION
  5
15C0
330
1F
100
AcDbEntity
  8
0
  6
HIDDEN2
 48
3.0
100
AcDbDimension
  2
*D60
 10
288.7345193234903
 20
2319.457836417337
 30
0.0
 11
272.5635193234903
 21
2327.8442000537
 31
0.0
 70
    32
  1
{\fＭＳ Ｐゴシック|b0|i0|c128|p50;カブリ}
 71
     5
 42
32.34199999999999
  3
JIS
100
AcDbAlignedDimension
 13
256.3925193234903
 23
2239.457836417336
 33
0.0
 14
288.7345193234903
 24
2239.457836417336
 34
0.0
 50
180.0
100
AcDbRotatedDimension
1001
ACAD
1000
DSTYLE
1002
{
1070
   343
1005
33F
1070
   342
1005
0
1070
   173
1070
     1
1070
   344
1005
33F
1070
    41
1040
8.0
1070
   147
1040
3.0
1070
   140
1040
8.0
1002
}
  0
VIEWPORT
  5
B16
102
{ACAD_XDICTIONARY
360
161E
102
}
330
B15
100
AcDbEntity
 67
     1
  8
0
100
AcDbViewport
 10
147.4939394462071
 20
103.1371479134919
 30
0.0
 40
573.4014252133511
 41
324.4180032591445
 68
     1
 69
     1
 12
147.4939394462071
 22
103.1371479134919
 13
0.0
 23
0.0
 14
10.0
 24
10.0
 15
10.0
 25
10.0
 16
0.0
 26
0.0
 36
1.0
 17
0.0
 27
0.0
 37
0.0
 42
50.0
 43
0.0
 44
0.0
 45
324.4180032591445
 50
0.0
 51
0.0
 72
  1000
 90
   557152
  1

281
     0
 71
     1
 74
     0
110
0.0
120
0.0
130
0.0
111
1.0
121
0.0
131
0.0
112
0.0
122
1.0
132
0.0
 79
     0
146
0.0
  0
LWPOLYLINE
  5
B17
102
{ACAD_REACTORS
330
B18
102
}
330
B15
100
AcDbEntity
 67
     1
  8
Viewport
100
AcDbPolyline
 90
        8
 70
     1
 43
0.0
 10
12.5
 20
202.0
 10
284.5
 20
202.0
 10
284.4978723404242
 20
34.0
 10
167.4978723404242
 20
34.0
 10
167.4978723404242
 20
7.0
 10
129.5
 20
7.0
 10
12.5
 20
7.0
 10
12.5
 20
31.0
  0
VIEWPORT
  5
B18
102
{ACAD_XDICTIONARY
360
1620
102
}
330
B15
100
AcDbEntity
 67
     1
  8
Viewport
100
AcDbViewport
 10
148.5
 20
104.5
 30
0.0
 40
272.0000000000001
 41
195.0
 68
     2
 69
     2
 12
284.820235064728
 22
2269.602664314058
 13
0.0
 23
0.0
 14
10.0
 24
10.0
 15
10.0
 25
10.0
 16
0.0
 26
0.0
 36
1.0
 17
0.0
 27
0.0
 37
0.0
 42
50.0
 43
0.0
 44
0.0
 45
390.0000005963816
 50
0.0
 51
0.0
 72
   100
 90
    98368
340
B17
  1

281
     0
 71
     1
 74
     0
110
0.0
120
0.0
130
0.0
111
1.0
121
0.0
131
0.0
112
0.0
122
1.0
132
0.0
 79
     0
146
0.0
  0
MTEXT
  5
B19
330
B15
100
AcDbEntity
 67
     1
  8
Object
370
    -3
100
AcDbMText
 10
228.2928583521302
 20
22.75
 30
0.0
 40
5.0
 41
77.0
 71
     5
 72
     5
  1
円形型　特厚
 73
     1
 44
1.0
1001
AcDbBlockRepETag
1070
     1
1071
       68
1005
B19
1001
ACAD
1000
MTEXTBEGIN
1070
    73
1070
     1
1070
    44
1040
1.0
1070
    74
1070
     0
1000
MTEXTEND
  0
LINE
  5
B1A
330
B15
100
AcDbEntity
 67
     1
  8
0
100
AcDbLine
 10
12.5
 20
7.0
 30
0.0
 11
12.5
 21
202.0
 31
0.0
1001
AcDbBlockRepETag
1070
     1
1071
        2
1005
B1A
  0
LINE
  5
B1B
330
B15
100
AcDbEntity
 67
     1
  8
0
100
AcDbLine
 10
25.0
 20
0.0
 30
0.0
 11
0.0
 21
0.0
 31
0.0
1001
AcDbBlockRepETag
1070
     1
1071
        3
1005
B1B
  0
LINE
  5
B1C
330
B15
100
AcDbEntity
 67
     1
  8
0
100
AcDbLine
 10
0.0
 20
0.0
 30
0.0
 11
0.0
 21
10.0
 31
0.0
1001
AcDbBlockRepETag
1070
     1
1071
        4
1005
B1C
  0
LINE
  5
B1D
330
B15
100
AcDbEntity
 67
     1
  8
0
100
AcDbLine
 10
148.5
 20
6.0
 30
0.0
 11
148.5
 21
5.0
 31
0.0
1001
AcDbBlockRepETag
1070
     1
1071
       20
1005
B1D
  0
LINE
  5
B1E
330
B15
100
AcDbEntity
 67
     1
  8
0
100
AcDbLine
 10
0.0
 20
210.0
 30
0.0
 11
25.0
 21
210.0
 31
0.0
1001
AcDbBlockRepETag
1070
     1
1071
       23
1005
B1E
  0
LINE
  5
B1F
330
B15
100
AcDbEntity
 67
     1
  8
0
100
AcDbLine
 10
0.0
 20
200.0
 30
0.0
 11
0.0
 21
210.0
 31
0.0
1001
AcDbBlockRepETag
1070
     1
1071
       24
1005
B1F
  0
LINE
  5
B20
330
B15
100
AcDbEntity
 67
     1
  8
0
100
AcDbLine
 10
284.5
 20
202.0
 30
0.0
 11
284.5
 21
7.0
 31
0.0
1001
AcDbBlockRepETag
1070
     1
1071
       36
1005
B20
  0
LINE
  5
B21
330
B15
100
AcDbEntity
 67
     1
  8
0
100
AcDbLine
 10
297.0
 20
10.0
 30
0.0
 11
297.0
 21
0.0
 31
0.0
1001
AcDbBlockRepETag
1070
     1
1071
       40
1005
B21
  0
LINE
  5
B22
330
B15
100
AcDbEntity
 67
     1
  8
0
100
AcDbLine
 10
297.0
 20
210.0
 30
0.0
 11
297.0
 21
200.0
 31
0.0
1001
AcDbBlockRepETag
1070
     1
1071
       54
1005
B22
  0
LINE
  5
B23
330
B15
100
AcDbEntity
 67
     1
  8
0
100
AcDbLine
 10
272.0
 20
210.0
 30
0.0
 11
297.0
 21
210.0
 31
0.0
1001
AcDbBlockRepETag
1070
     1
1071
       55
1005
B23
  0
LINE
  5
B24
330
B15
100
AcDbEntity
 67
     1
  8
0
100
AcDbLine
 10
272.0
 20
0.0
 30
0.0
 11
297.0
 21
0.0
 31
0.0
1001
AcDbBlockRepETag
1070
     1
1071
       56
1005
B24
  0
LINE
  5
B25
330
B15
100
AcDbEntity
 67
     1
  8
0
100
AcDbLine
 10
284.5
 20
7.0
 30
0.0
 11
12.5
 21
7.0
 31
0.0
1001
AcDbBlockRepETag
1070
     1
1071
       57
1005
0
  0
LINE
  5
B26
330
B15
100
AcDbEntity
 67
     1
  8
0
100
AcDbLine
 10
12.5
 20
202.0
 30
0.0
 11
284.5
 21
202.0
 31
0.0
1001
AcDbBlockRepETag
1070
     1
1071
       58
1005
0
  0
LINE
  5
B27
330
B15
100
AcDbEntity
 67
     1
  8
0
 62
     0
380
     1
100
AcDbLine
 10
284.5
 20
7.0
 30
0.0
 11
284.5
 21
43.0
 31
0.0
1001
AcDbBlockRepETag
1070
     1
1071
       49
1005
B27
  0
LINE
  5
B28
330
B15
100
AcDbEntity
 67
     1
  8
0
100
AcDbLine
 10
284.4978723404242
 20
16.0
 30
0.0
 11
167.4978723404242
 21
16.0
 31
0.0
1001
AcDbBlockRepETag
1070
     1
1071
      166
1005
B28
  0
LINE
  5
B29
330
B15
100
AcDbEntity
 67
     1
  8
0
100
AcDbLine
 10
218.4978723404242
 20
7.0
 30
0.0
 11
218.4978723404242
 21
16.0
 31
0.0
1001
AcDbBlockRepETag
1070
     1
1071
      167
1005
B29
  0
LINE
  5
B2A
330
B15
100
AcDbEntity
 67
     1
  8
0
100
AcDbLine
 10
284.4978723404242
 20
34.0
 30
0.0
 11
167.4978723404242
 21
34.0
 31
0.0
1001
AcDbBlockRepETag
1070
     1
1071
      169
1005
B2A
  0
MTEXT
  5
B2B
330
B15
100
AcDbEntity
 67
     1
  8
0
100
AcDbMText
 10
192.9978723404242
 20
11.5
 30
0.0
 40
4.0
 41
51.0
 71
     5
 72
     5
  1
富国石油株式会社
 73
     1
 44
1.0
1001
AcDbBlockRepETag
1070
     1
1071
      171
1005
B2B
1001
ACAD
1000
MTEXTBEGIN
1070
    73
1070
     1
1070
    44
1040
1.0
1070
    74
1070
     0
1000
MTEXTEND
  0
LINE
  5
B2C
330
B15
100
AcDbEntity
 67
     1
  8
0
  6
HIDDEN2
 48
0.5
100
AcDbLine
 10
284.4978723404242
 20
29.5
 30
0.0
 11
167.4978723404242
 21
29.5
 31
0.0
1001
AcDbBlockRepETag
1070
     1
1071
      180
1005
B2C
  0
ENDSEC
  0
SECTION
  2
OBJECTS
  0
DICTIONARY
  5
C
330
0
100
AcDbDictionary
281
     1
  3
ACAD_COLOR
350
14D
  3
ACAD_GROUP
350
D
  3
ACAD_LAYOUT
350
1A
  3
ACAD_MATERIAL
350
14C
  3
ACAD_MLINESTYLE
350
17
  3
ACAD_PLOTSETTINGS
350
19
  3
ACAD_PLOTSTYLENAME
350
E
  3
ACAD_TABLESTYLE
350
17B
  3
ACAD_VISUALSTYLE
350
1D3
  3
AcDbVariableDictionary
350
148
  3
DWGPROPS
350
15FE
  0
DICTIONARY
  5
18A
330
2
100
AcDbDictionary
280
     1
281
     1
  3
ACAD_LAYERFILTERS
360
463
  3
ACAD_LAYERSTATES
360
18B
  3
ACLYDICTIONARY
360
462
  0
DICTIONARY
  5
B2D
330
B15
100
AcDbDictionary
280
     1
281
     1
  3
ACAD_SORTENTS
360
B2F
  0
DICTIONARY
  5
28E
330
AB
100
AcDbDictionary
280
     1
281
     1
  0
DICTIONARY
  5
4E8
330
4E7
100
AcDbDictionary
280
     1
281
     1
  3
ACAD_SORTENTS
360
6DE
  0
DICTIONARY
  5
930
330
6ED
100
AcDbDictionary
280
     1
281
     1
  3
ACAD_SORTENTS
360
931
  0
DICTIONARY
  5
160D
330
316
100
AcDbDictionary
280
     1
281
     1
  3
ACAD_MTEXT_RT
360
160E
  0
DICTIONARY
  5
1611
330
539
100
AcDbDictionary
280
     1
281
     1
  3
ACAD_MTEXT_RT
360
1612
  0
DICTIONARY
  5
161B
330
9C6
100
AcDbDictionary
280
     1
281
     1
  3
ACAD_MTEXT_RT
360
161C
  0
DICTIONARY
  5
161E
330
B16
100
AcDbDictionary
280
     1
281
     1
  3
ACAD_XREC_ROUNDTRIP
360
161F
  0
DICTIONARY
  5
1620
330
B18
100
AcDbDictionary
280
     1
281
     1
  3
ACAD_XREC_ROUNDTRIP
360
1621
  0
DICTIONARY
  5
14D
102
{ACAD_REACTORS
330
C
102
}
330
C
100
AcDbDictionary
281
     1
  0
DICTIONARY
  5
D
102
{ACAD_REACTORS
330
C
102
}
330
C
100
AcDbDictionary
281
     1
  0
DICTIONARY
  5
1A
102
{ACAD_REACTORS
330
C
102
}
330
C
100
AcDbDictionary
281
     1
  3
A4横
350
B12
  3
Model
350
22
  0
DICTIONARY
  5
14C
102
{ACAD_REACTORS
330
C
102
}
330
C
100
AcDbDictionary
281
     1
  3
ByBlock
350
1D1
  3
ByLayer
350
1D0
  3
Global
350
1D2
  0
DICTIONARY
  5
17
102
{ACAD_REACTORS
330
C
102
}
330
C
100
AcDbDictionary
281
     1
  3
Standard
350
18
  0
DICTIONARY
  5
19
102
{ACAD_REACTORS
330
C
102
}
330
C
100
AcDbDictionary
281
     1
  3
JIS A4 title block (portrait) - no output device
350
11F
  0
ACDBDICTIONARYWDFLT
  5
E
102
{ACAD_REACTORS
330
C
102
}
330
C
100
AcDbDictionary
281
     1
  3
Normal
350
F
100
AcDbDictionaryWithDefault
340
F
  0
DICTIONARY
  5
17B
102
{ACAD_REACTORS
330
C
102
}
330
C
100
AcDbDictionary
281
     1
  3
Standard
350
17C
  0
DICTIONARY
  5
1D3
102
{ACAD_REACTORS
330
C
102
}
330
C
100
AcDbDictionary
281
     1
  3
2dWireframe
350
1D9
  3
3D Hidden
350
1DB
  3
3dWireframe
350
1DA
  3
Basic
350
1D8
  3
Brighten
350
1DF
  3
ColorChange
350
1E3
  3
Conceptual
350
1DC
  3
Dim
350
1DE
  3
Facepattern
350
1E2
  3
Flat
350
1D4
  3
FlatWithEdges
350
1D5
  3
Gouraud
350
1D6
  3
GouraudWithEdges
350
1D7
  3
Linepattern
350
1E1
  3
Realistic
350
1DD
  3
Thicken
350
1E0
  0
DICTIONARY
  5
148
102
{ACAD_REACTORS
330
C
102
}
330
C
100
AcDbDictionary
281
     1
  3
CTABLESTYLE
350
190
  3
DIMASSOC
350
14A
  3
HIDETEXT
350
149
  3
INDEXCTL
350
CC1
  3
PSOLHEIGHT
350
CC3
  3
PSOLWIDTH
350
CC2
  3
SORTENTS
350
CC0
  0
XRECORD
  5
15FE
102
{ACAD_REACTORS
330
C
102
}
330
C
100
AcDbXrecord
280
     1
  1
DWGPROPS COOKIE
  2

  3

  4

  6

  7

  8
k-uehara
  9

300
=
301
=
302
=
303
=
304
=
305
=
306
=
307
=
308
=
309
=
 40
0.0613149537037037
 41
2454379.577641921
 42
2454936.593997709
  1

 90
        0
  0
DICTIONARY
  5
463
102
{ACAD_REACTORS
330
18A
102
}
330
18A
100
AcDbDictionary
281
     1
  0
DICTIONARY
  5
18B
102
{ACAD_REACTORS
330
18A
102
}
330
18A
100
AcDbDictionary
281
     1
  3
ACAD_VIEWS_元図１
350
6AC
  0
DICTIONARY
  5
462
102
{ACAD_REACTORS
330
18A
102
}
330
18A
100
AcDbDictionary
281
     1
1001
ACAD
1000
<All
  0
SORTENTSTABLE
  5
B2F
102
{ACAD_REACTORS
330
B2D
102
}
330
B2D
100
AcDbSortentsTable
330
B15
  0
SORTENTSTABLE
  5
6DE
102
{ACAD_REACTORS
330
4E8
102
}
330
4E8
100
AcDbSortentsTable
330
4E7
  0
SORTENTSTABLE
  5
931
102
{ACAD_REACTORS
330
930
102
}
330
930
100
AcDbSortentsTable
330
6ED
  0
XRECORD
  5
160E
102
{ACAD_REACTORS
330
160D
102
}
330
160D
100
AcDbXrecord
280
     1
 40
476.0
  1
検^J図
  0
XRECORD
  5
1612
102
{ACAD_REACTORS
330
1611
102
}
330
1611
100
AcDbXrecord
280
     1
 40
476.0
  1
検^J図
  0
XRECORD
  5
161C
102
{ACAD_REACTORS
330
161B
102
}
330
161B
100
AcDbXrecord
280
     1
 40
476.0
  1
検^J図
  0
XRECORD
  5
161F
102
{ACAD_REACTORS
330
161E
102
}
330
161E
100
AcDbXrecord
280
     1
102
SHADEPLOT
 70
     0
  0
XRECORD
  5
1621
102
{ACAD_REACTORS
330
1620
102
}
330
1620
100
AcDbXrecord
280
     1
102
SHADEPLOT
 70
     0
  0
LAYOUT
  5
B12
102
{ACAD_XDICTIONARY
360
B13
102
}
102
{ACAD_REACTORS
330
1A
102
}
330
1A
100
AcDbPlotSettings
  1

  2
Canon iR C3200 LIPS
  4
A4
  6

 40
5.873749732971191
 41
5.873747825622558
 42
5.873748779296875
 43
5.873748779296875
 44
209.9733276367187
 45
296.9259948730469
 46
-5.893494129188383
 47
-5.919814586649977
 48
0.0
 49
0.0
140
0.0
141
0.0
142
1.0
143
1.0
 70
   692
 72
     1
 73
     1
 74
     1
  7
monochrome.ctb
 75
    16
147
1.0
148
0.0090630292066862
149
0.0064082024693448
100
AcDbLayout
  1
A4横
 70
     1
 71
     1
 10
0.037002778146416
 20
0.0133361937478469
 11
296.9629976511933
 21
209.9866638304666
 12
0.0
 22
0.0
 32
0.0
 14
0.0
 24
0.0
 34
0.0
 15
297.0
 25
210.0
 35
0.0
146
0.0
 13
0.0
 23
0.0
 33
0.0
 16
1.0
 26
0.0
 36
0.0
 17
0.0
 27
1.0
 37
0.0
 76
     0
330
B15
331
B16
1001
ACAD_PSEXT
1000
Canon iR C3200 LIPS
1000
Canon iR C3200 LIPS
1000
IP_128.1.1.200
1000

1070
     0
  0
LAYOUT
  5
22
102
{ACAD_XDICTIONARY
360
15FF
102
}
102
{ACAD_REACTORS
330
1A
102
}
330
1A
100
AcDbPlotSettings
  1

  2
none_device
  4
ISO_A4_(210.00_x_297.00_MM)
  6

 40
7.5
 41
20.0
 42
7.5
 43
20.0
 44
210.0
 45
297.0
 46
0.0
 47
73.36421725239617
 48
0.0
 49
0.0
140
0.0
141
0.0
142
1.0
143
2.869813509774058
 70
 11956
 72
     1
 73
     0
 74
     0
  7

 75
     0
147
0.3484546980471668
148
1.967705816488886
149
9.729414201041008
100
AcDbLayout
  1
Model
 70
     1
 71
     0
 10
0.0
 20
0.0
 11
12.0
 21
9.0
 12
0.0
 22
0.0
 32
0.0
 14
0.0
 24
0.0
 34
0.0
 15
0.0
 25
0.0
 35
0.0
146
0.0
 13
0.0
 23
0.0
 33
0.0
 16
1.0
 26
0.0
 36
0.0
 17
0.0
 27
1.0
 37
0.0
 76
     0
330
1F
331
1B5
1001
ACAD_PSEXT
1000
None
1000
None
1000
Not applicable
1000
The layout will not be plotted unless a new plotter configuration name is selected.
1070
     0
  0
MATERIAL
  5
1D1
102
{ACAD_XDICTIONARY
360
1609
102
}
102
{ACAD_REACTORS
330
14C
102
}
330
14C
100
AcDbMaterial
  1
ByBlock
  0
MATERIAL
  5
1D0
102
{ACAD_XDICTIONARY
360
1607
102
}
102
{ACAD_REACTORS
330
14C
102
}
330
14C
100
AcDbMaterial
  1
ByLayer
  0
MATERIAL
  5
1D2
102
{ACAD_XDICTIONARY
360
160B
102
}
102
{ACAD_REACTORS
330
14C
102
}
330
14C
100
AcDbMaterial
  1
Global
  0
MLINESTYLE
  5
18
102
{ACAD_REACTORS
330
17
102
}
330
17
100
AcDbMlineStyle
  2
STANDARD
 70
     0
  3

 62
   256
 51
90.0
 52
90.0
 71
     2
 49
0.5
 62
   256
  6
BYLAYER
 49
-0.5
 62
   256
  6
BYLAYER
  0
PLOTSETTINGS
  5
11F
102
{ACAD_XDICTIONARY
360
1603
102
}
102
{ACAD_REACTORS
330
19
102
}
330
19
100
AcDbPlotSettings
  1
JIS A4 title block (portrait) - no output device
  2
None
  4
ISO_A4_(210.00_x_297.00_MM)
  6

 40
7.549999999999998
 41
20.05
 42
7.549999999999998
 43
20.05
 44
210.0
 45
297.0
 46
-7.559999999999998
 47
-20.06
 48
0.0
 49
0.0
140
0.0
141
0.0
142
1.0
143
1.0
 70
   692
 72
     1
 73
     0
 74
     1
  7

 75
    16
147
1.0
148
0.0128164049386896
149
0.0090630292066862
  0
ACDBPLACEHOLDER
  5
F
102
{ACAD_REACTORS
330
E
102
}
330
E
  0
TABLESTYLE
  5
17C
102
{ACAD_XDICTIONARY
360
1605
102
}
102
{ACAD_REACTORS
330
17B
102
}
330
17B
100
AcDbTableStyle
  3
Standard
 70
     0
 71
     0
 40
1.5
 41
1.5
280
     0
281
     0
  7
Standard
140
4.5
170
     2
 62
     0
 63
     7
283
     0
274
    -2
284
     1
 64
     0
275
    -2
285
     1
 65
     0
276
    -2
286
     1
 66
     0
277
    -2
287
     1
 67
     0
278
    -2
288
     1
 68
     0
279
    -2
289
     1
 69
     0
  7
Standard
140
6.0
170
     5
 62
     0
 63
     7
283
     0
274
    -2
284
     1
 64
     0
275
    -2
285
     1
 65
     0
276
    -2
286
     1
 66
     0
277
    -2
287
     1
 67
     0
278
    -2
288
     1
 68
     0
279
    -2
289
     1
 69
     0
  7
Standard
140
4.5
170
     5
 62
     0
 63
     7
283
     0
274
    -2
284
     1
 64
     0
275
    -2
285
     1
 65
     0
276
    -2
286
     1
 66
     0
277
    -2
287
     1
 67
     0
278
    -2
288
     1
 68
     0
279
    -2
289
     1
 69
     0
  0
VISUALSTYLE
  5
1D9
102
{ACAD_REACTORS
330
1D3
102
}
330
1D3
100
AcDbVisualStyle
  2
2dWireframe
 70
     4
 71
     0
 72
     2
 73
     1
 90
        0
 40
-0.6
 41
-30.0
 62
     5
 63
     7
 74
     1
 91
        4
 64
     7
 65
   257
 75
     1
175
     1
 42
1.0
 92
        0
 66
   257
 43
1.0
 76
     1
 77
     6
 78
     2
 67
     7
 79
     5
170
     0
171
     0
290
     0
174
     0
 93
        1
 44
0.0
173
     0
291
     0
 45
0.0
1001
ACAD
1000
AcDbSavedByObjectVersion
1070
     0
  0
VISUALSTYLE
  5
1DB
102
{ACAD_REACTORS
330
1D3
102
}
330
1D3
100
AcDbVisualStyle
  2
3D Hidden
 70
     6
 71
     1
 72
     2
 73
     2
 90
        0
 40
-0.6
 41
-30.0
 62
     5
 63
     7
 74
     2
 91
        2
 64
     7
 65
   257
 75
     2
175
     1
 42
40.0
 92
        0
 66
   257
 43
1.0
 76
     1
 77
     6
 78
     2
 67
     7
 79
     3
170
     0
171
     0
290
     0
174
     0
 93
        1
 44
0.0
173
     0
291
     0
 45
0.0
1001
ACAD
1000
AcDbSavedByObjectVersion
1070
     0
  0
VISUALSTYLE
  5
1DA
102
{ACAD_REACTORS
330
1D3
102
}
330
1D3
100
AcDbVisualStyle
  2
3dWireframe
 70
     5
 71
     0
 72
     2
 73
     1
 90
        0
 40
-0.6
 41
-30.0
 62
     5
 63
     7
 74
     1
 91
        4
 64
     7
 65
   257
 75
     1
175
     1
 42
1.0
 92
        0
 66
   257
 43
1.0
 76
     1
 77
     6
 78
     2
 67
     7
 79
     5
170
     0
171
     0
290
     0
174
     0
 93
        1
 44
0.0
173
     0
291
     0
 45
0.0
1001
ACAD
1000
AcDbSavedByObjectVersion
1070
     0
  0
VISUALSTYLE
  5
1D8
102
{ACAD_REACTORS
330
1D3
102
}
330
1D3
100
AcDbVisualStyle
  2
Basic
 70
     7
 71
     1
 72
     0
 73
     1
 90
        0
 40
-0.6
 41
-30.0
 62
     5
 63
     7
 74
     0
 91
        4
 64
     7
 65
   257
 75
     1
175
     1
 42
1.0
 92
        8
 66
     7
 43
1.0
 76
     1
 77
     6
 78
     2
 67
     7
 79
     5
170
     0
171
     0
290
     0
174
     0
 93
        1
 44
0.0
173
     0
291
     1
 45
0.0
1001
ACAD
1000
AcDbSavedByObjectVersion
1070
     0
  0
VISUALSTYLE
  5
1DF
102
{ACAD_REACTORS
330
1D3
102
}
330
1D3
100
AcDbVisualStyle
  2
Brighten
 70
    12
 71
     2
 72
     2
 73
     1
 90
        0
 40
-0.6
 41
-30.0
 62
     5
 63
     7
 74
     1
 91
        4
 64
     7
 65
   257
 75
     1
175
     1
 42
1.0
 92
        8
 66
     7
 43
1.0
 76
     1
 77
     6
 78
     2
 67
     7
 79
     5
170
     0
171
     0
290
     0
174
     0
 93
        1
 44
50.0
173
     0
291
     1
 45
0.0
1001
ACAD
1000
AcDbSavedByObjectVersion
1070
     0
  0
VISUALSTYLE
  5
1E3
102
{ACAD_REACTORS
330
1D3
102
}
330
1D3
100
AcDbVisualStyle
  2
ColorChange
 70
    16
 71
     2
 72
     2
 73
     3
 90
        0
 40
-0.6
 41
-30.0
 62
     5
 63
     8
 74
     1
 91
        4
 64
     7
 65
   257
 75
     1
175
     1
 42
1.0
 92
        8
 66
     8
 43
1.0
 76
     1
 77
     6
 78
     2
 67
     7
 79
     5
170
     0
171
     0
290
     0
174
     0
 93
        1
 44
0.0
173
     0
291
     1
 45
0.0
1001
ACAD
1000
AcDbSavedByObjectVersion
1070
     0
  0
VISUALSTYLE
  5
1DC
102
{ACAD_REACTORS
330
1D3
102
}
330
1D3
100
AcDbVisualStyle
  2
Conceptual
 70
     9
 71
     3
 72
     2
 73
     1
 90
        0
 40
-0.6
 41
-30.0
 62
     5
 63
     7
 74
     2
 91
        2
 64
     7
 65
   257
 75
     1
175
     1
 42
40.0
 92
        8
 66
     7
 43
1.0
 76
     1
 77
     6
 78
     2
 67
     7
 79
     3
170
     0
171
     0
290
     0
174
     0
 93
        1
 44
0.0
173
     0
291
     0
 45
0.0
1001
ACAD
1000
AcDbSavedByObjectVersion
1070
     0
  0
VISUALSTYLE
  5
1DE
102
{ACAD_REACTORS
330
1D3
102
}
330
1D3
100
AcDbVisualStyle
  2
Dim
 70
    11
 71
     2
 72
     2
 73
     1
 90
        0
 40
-0.6
 41
-30.0
 62
     5
 63
     7
 74
     1
 91
        4
 64
     7
 65
   257
 75
     1
175
     1
 42
1.0
 92
        8
 66
     7
 43
1.0
 76
     1
 77
     6
 78
     2
 67
     7
 79
     5
170
     0
171
     0
290
     0
174
     0
 93
        1
 44
-50.0
173
     0
291
     1
 45
0.0
1001
ACAD
1000
AcDbSavedByObjectVersion
1070
     0
  0
VISUALSTYLE
  5
1E2
102
{ACAD_REACTORS
330
1D3
102
}
330
1D3
100
AcDbVisualStyle
  2
Facepattern
 70
    15
 71
     2
 72
     2
 73
     1
 90
        0
 40
-0.6
 41
-30.0
 62
     5
 63
     7
 74
     1
 91
        4
 64
     7
 65
   257
 75
     1
175
     1
 42
1.0
 92
        8
 66
     7
 43
1.0
 76
     1
 77
     6
 78
     2
 67
     7
 79
     5
170
     0
171
     0
290
     0
174
     0
 93
        1
 44
0.0
173
     0
291
     1
 45
0.0
1001
ACAD
1000
AcDbSavedByObjectVersion
1070
     0
  0
VISUALSTYLE
  5
1D4
102
{ACAD_REACTORS
330
1D3
102
}
330
1D3
100
AcDbVisualStyle
  2
Flat
 70
     0
 71
     2
 72
     1
 73
     1
 90
        2
 40
-0.6
 41
30.0
 62
     5
 63
     7
 74
     0
 91
        4
 64
     7
 65
   257
 75
     1
175
     1
 42
1.0
 92
        8
 66
     7
 43
1.0
 76
     1
 77
     6
 78
     2
 67
     7
 79
     5
170
     0
171
     0
290
     0
174
     0
 93
       13
 44
0.0
173
     0
291
     1
 45
0.0
1001
ACAD
1000
AcDbSavedByObjectVersion
1070
     0
  0
VISUALSTYLE
  5
1D5
102
{ACAD_REACTORS
330
1D3
102
}
330
1D3
100
AcDbVisualStyle
  2
FlatWithEdges
 70
     1
 71
     2
 72
     1
 73
     1
 90
        2
 40
-0.6
 41
30.0
 62
     5
 63
     7
 74
     1
 91
        4
 64
     7
 65
   257
 75
     1
175
     1
 42
1.0
 92
        0
 66
   257
 43
1.0
 76
     1
 77
     6
 78
     2
 67
     7
 79
     5
170
     0
171
     0
290
     0
174
     0
 93
       13
 44
0.0
173
     0
291
     1
 45
0.0
1001
ACAD
1000
AcDbSavedByObjectVersion
1070
     0
  0
VISUALSTYLE
  5
1D6
102
{ACAD_REACTORS
330
1D3
102
}
330
1D3
100
AcDbVisualStyle
  2
Gouraud
 70
     2
 71
     2
 72
     2
 73
     1
 90
        2
 40
-0.6
 41
30.0
 62
     5
 63
     7
 74
     0
 91
        4
 64
     7
 65
   257
 75
     1
175
     1
 42
1.0
 92
        0
 66
     7
 43
1.0
 76
     1
 77
     6
 78
     2
 67
     7
 79
     5
170
     0
171
     0
290
     0
174
     0
 93
       13
 44
0.0
173
     0
291
     1
 45
0.0
1001
ACAD
1000
AcDbSavedByObjectVersion
1070
     0
  0
VISUALSTYLE
  5
1D7
102
{ACAD_REACTORS
330
1D3
102
}
330
1D3
100
AcDbVisualStyle
  2
GouraudWithEdges
 70
     3
 71
     2
 72
     2
 73
     1
 90
        2
 40
-0.6
 41
30.0
 62
     5
 63
     7
 74
     1
 91
        4
 64
     7
 65
   257
 75
     1
175
     1
 42
1.0
 92
        0
 66
   257
 43
1.0
 76
     1
 77
     6
 78
     2
 67
     7
 79
     5
170
     0
171
     0
290
     0
174
     0
 93
       13
 44
0.0
173
     0
291
     1
 45
0.0
1001
ACAD
1000
AcDbSavedByObjectVersion
1070
     0
  0
VISUALSTYLE
  5
1E1
102
{ACAD_REACTORS
330
1D3
102
}
330
1D3
100
AcDbVisualStyle
  2
Linepattern
 70
    14
 71
     2
 72
     2
 73
     1
 90
        0
 40
-0.6
 41
-30.0
 62
     5
 63
     7
 74
     1
 91
        4
 64
     7
 65
   257
 75
     7
175
     7
 42
1.0
 92
        8
 66
     7
 43
1.0
 76
     1
 77
     6
 78
     2
 67
     7
 79
     5
170
     0
171
     0
290
     0
174
     0
 93
        1
 44
0.0
173
     0
291
     1
 45
0.0
1001
ACAD
1000
AcDbSavedByObjectVersion
1070
     0
  0
VISUALSTYLE
  5
1DD
102
{ACAD_REACTORS
330
1D3
102
}
330
1D3
100
AcDbVisualStyle
  2
Realistic
 70
     8
 71
     2
 72
     2
 73
     1
 90
        0
 40
-0.6
 41
-30.0
 62
     5
 63
     7
 74
     1
 91
        0
 64
     7
 65
   257
 75
     1
175
     1
 42
1.0
 92
        8
 66
     8
 43
1.0
 76
     1
 77
     6
 78
     2
 67
     7
 79
     5
170
     0
171
     0
290
     0
174
     0
 93
       13
 44
0.0
173
     0
291
     0
 45
0.0
1001
ACAD
1000
AcDbSavedByObjectVersion
1070
     0
  0
VISUALSTYLE
  5
1E0
102
{ACAD_REACTORS
330
1D3
102
}
330
1D3
100
AcDbVisualStyle
  2
Thicken
 70
    13
 71
     2
 72
     2
 73
     1
 90
        0
 40
-0.6
 41
-30.0
 62
     5
 63
     7
 74
     1
 91
        4
 64
     7
 65
   257
 75
     1
175
     1
 42
1.0
 92
       12
 66
     7
 43
1.0
 76
     1
 77
     6
 78
     2
 67
     7
 79
     5
170
     0
171
     0
290
     0
174
     0
 93
        1
 44
0.0
173
     0
291
     1
 45
0.0
1001
ACAD
1000
AcDbSavedByObjectVersion
1070
     0
  0
DICTIONARYVAR
  5
190
102
{ACAD_REACTORS
330
148
102
}
330
148
100
DictionaryVariables
280
     0
  1
STANDARD
  0
DICTIONARYVAR
  5
14A
102
{ACAD_REACTORS
330
148
102
}
330
148
100
DictionaryVariables
280
     0
  1
2
  0
DICTIONARYVAR
  5
149
102
{ACAD_REACTORS
330
148
102
}
330
148
100
DictionaryVariables
280
     0
  1
1
  0
DICTIONARYVAR
  5
CC1
102
{ACAD_REACTORS
330
148
102
}
330
148
100
DictionaryVariables
280
     0
  1
0
  0
DICTIONARYVAR
  5
CC3
102
{ACAD_REACTORS
330
148
102
}
330
148
100
DictionaryVariables
280
     0
  1
80.000000
  0
DICTIONARYVAR
  5
CC2
102
{ACAD_REACTORS
330
148
102
}
330
148
100
DictionaryVariables
280
     0
  1
5.000000
  0
DICTIONARYVAR
  5
CC0
102
{ACAD_REACTORS
330
148
102
}
330
148
100
DictionaryVariables
280
     0
  1
127
  0
XRECORD
  5
6AC
102
{ACAD_REACTORS
330
18B
102
}
330
18B
100
AcDbXrecord
280
     1
 91
    33280
301

290
     0
302
Viewport
330
4CB
 90
        8
 62
     8
370
    25
331
16
  1
色_8
330
0
 90
        8
 62
     8
370
    18
331
16
  1
色_8
330
4CA
 90
        8
 62
     2
370
    18
331
16
  1
色_2
330
0
 90
        8
 62
     3
370
    -3
331
16
  1
色_3
330
0
 90
        8
 62
     3
370
    -3
331
16
  1
色_3
330
4C9
 90
        8
 62
     5
370
    18
331
4C4
  1
色_5
330
4C8
 90
        8
 62
     8
370
    50
331
16
  1
色_8
330
4C7
 90
        8
 62
     1
370
    18
331
4C3
  1
色_1
330
4C6
 90
        8
 62
     5
370
    18
331
291
  1
色_5
330
3DC
 90
        8
 62
     4
370
    -3
331
16
  1
色_4
330
345
 90
        0
 62
     6
370
    18
331
16
  1
色_6
330
4C5
 90
        8
 62
     3
370
    18
331
16
  1
色_3
330
3DB
 90
        0
 62
     7
370
    -3
331
16
  1
色_7
330
0
 90
        8
 62
     4
370
    -3
331
16
  1
色_4
330
0
 90
        8
 62
     5
370
    40
331
16
  1
色_5
330
12D
 90
        8
 62
     7
370
    -3
331
16
  1
色_7
330
12C
 90
        8
 62
     7
370
    -3
331
16
  1
色_7
330
E4
 90
        8
 62
     7
370
    25
331
16
  1
色_7
330
10
 90
        8
 62
     7
370
    -3
331
16
  1
色_7
  0
DICTIONARY
  5
B13
330
B12
100
AcDbDictionary
280
     1
281
     1
  3
ACAD_XREC_ROUNDTRIP
360
161D
  3
ADSK_XREC_LAYOUTTHUMBNAIL
360
B14
  0
DICTIONARY
  5
15FF
330
22
100
AcDbDictionary
280
     1
281
     1
  3
ACAD_XREC_ROUNDTRIP
360
1600
  0
DICTIONARY
  5
1609
330
1D1
100
AcDbDictionary
280
     1
281
     1
  3
ACAD_XREC_ROUNDTRIP
360
160A
  0
DICTIONARY
  5
1607
330
1D0
100
AcDbDictionary
280
     1
281
     1
  3
ACAD_XREC_ROUNDTRIP
360
1608
  0
DICTIONARY
  5
160B
330
1D2
100
AcDbDictionary
280
     1
281
     1
  3
ACAD_XREC_ROUNDTRIP
360
160C
  0
DICTIONARY
  5
1603
330
11F
100
AcDbDictionary
280
     1
281
     1
  3
ACAD_XREC_ROUNDTRIP
360
1604
  0
DICTIONARY
  5
1605
330
17C
100
AcDbDictionary
280
     1
281
     1
  3
ACAD_XREC_ROUNDTRIP
360
1606
  0
XRECORD
  5
161D
102
{ACAD_REACTORS
330
B13
102
}
330
B13
100
AcDbXrecord
280
     1
102
SHADEPLOT
 70
     0
102
SHADEPLOTRESLEVEL
 70
     2
102
SHADEPLOTCUSTOMDPI
 70
   300
  0
XRECORD
  5
B14
102
{ACAD_REACTORS
330
B13
102
}
330
B13
100
AcDbXrecord
280
     1
310
28000000B40000007F00000001000800000000004C59000000000000000000000001000000000000FFFFFF0000000000FFFFFF000000000000000000000000000000000000000000000000000000000000000000330000006600000099000000CC000000FF00000000330000333300006633000099330000CC330000FF3300
310
0000660000336600006666000099660000CC660000FF66000000990000339900006699000099990000CC990000FF99000000CC000033CC000066CC000099CC0000CCCC0000FFCC000000FF000033FF000066FF000099FF0000CCFF0000FFFF000000003300330033006600330099003300CC003300FF003300003333003333
310
33006633330099333300CC333300FF33330000663300336633006666330099663300CC663300FF66330000993300339933006699330099993300CC993300FF99330000CC330033CC330066CC330099CC3300CCCC3300FFCC330000FF330033FF330066FF330099FF3300CCFF3300FFFF330000006600330066006600660099
310
006600CC006600FF00660000336600333366006633660099336600CC336600FF33660000666600336666006666660099666600CC666600FF66660000996600339966006699660099996600CC996600FF99660000CC660033CC660066CC660099CC6600CCCC6600FFCC660000FF660033FF660066FF660099FF6600CCFF6600
310
FFFF660000009900330099006600990099009900CC009900FF00990000339900333399006633990099339900CC339900FF33990000669900336699006666990099669900CC669900FF66990000999900339999006699990099999900CC999900FF99990000CC990033CC990066CC990099CC9900CCCC9900FFCC990000FF99
310
0033FF990066FF990099FF9900CCFF9900FFFF99000000CC003300CC006600CC009900CC00CC00CC00FF00CC000033CC003333CC006633CC009933CC00CC33CC00FF33CC000066CC003366CC006666CC009966CC00CC66CC00FF66CC000099CC003399CC006699CC009999CC00CC99CC00FF99CC0000CCCC0033CCCC0066CC
310
CC0099CCCC00CCCCCC00FFCCCC0000FFCC0033FFCC0066FFCC0099FFCC00CCFFCC00FFFFCC000000FF003300FF006600FF009900FF00CC00FF00FF00FF000033FF003333FF006633FF009933FF00CC33FF00FF33FF000066FF003366FF006666FF009966FF00CC66FF00FF66FF000099FF003399FF006699FF009999FF00CC
310
99FF00FF99FF0000CCFF0033CCFF0066CCFF0099CCFF00CCCCFF00FFCCFF0000FFFF0033FFFF0066FFFF0099FFFF00CCFFFF00FFFFFF00000000000D0D0D001A1A1A00282828003535350043434300505050005D5D5D006B6B6B00787878008686860093939300A1A1A100AEAEAE00BBBBBB00C9C9C900D6D6D600E4E4E400
310
F1F1F100FFFFFF0000000000000000000000000000000000000000000000000000000000000000000000000000000000E2E2E2E2E2E2E2E2E2E2E2E2E2E2E2E2E2E2E2E2E2E2E2E2E2E2E2E2E2E2E2E2E2E2E2E2E2E2E2E2E2E2E2E2E2E2E2E2E2E2E2E2E2E2E2E2E2E2E2E2E2E2E2E2E2E2E2E2E2E2E2E2E2E2E2E2E2E2E2
310
E2E2E2E2E2E2E2E2E2E2E2E2E2E2E2E2E2E2E2E2E2E2E2E2E2E2E2E2E2E2E2E2E2E2E2E2E2E2E2E2E2E2E2E2E2E2E2E2E2E2E2E2E2E2E2E2E2E2E2E2E2E2E2E2E2E2E2E2E2E2E2E2E2E2E2E2E2E2E2E2E2E2E2E2E2E2E2E2E2E2E2E2E2E2E2E2E2E2E2E2EFE2F5F5F5F5F5F5F5F5F5F5F5F5F5F5F5F5F5F5F5F5F5F5F5F5F5
310
F5F5F5F5F5F5F5F5F5F5F5F5F5F5F5F5F5F5F5F5F5F5F5F5F5F5F5F5F5F5F5F5F5F5F5F5F5F5F5F5F5F5F5F5F5F5F5F5F5F5F5F5F5F5F5F5F5F5F5F5F5F5F5F5F5F5F5F5F5F5F5F5F5F5F5F5F5F5F5F5F5F5F5F5F5F5F5F5F5F5F5F5F5F5F5F5F5F5F5F5F5F5F5F5F5F5F5F5F5F5F5F5F5F5F5F5F5F5F5F5F5F5F5F5F5F5F5
310
F5F5F5F5F5F5F5F5F5F5F5F5F5F5F5F5F5F5F5F5F5F5F5F5E2E2EFE2F5F5F5F5F5F5F5F5F5F5F5F5F5F5F5F5F5F5F5F5F5F5F5F5F5F5F5F5F5F5F5F5F5F5F5F5F5F5F5F5F5F5F5F5F5F5F5F5F5F5F5F5F5F5F5F5F5F5F5F5F5F5F5F5F5F5F5F5F5F5F5F5F5F5F5F5F5F5F5F5F5F5F5F5F5F5F5F5F5F5F5F5F5F5F5F5F5F5F5
310
F5F5F5F5F5F5F5F5F5F5F5F5F5F5F5F5F5F5F5F5F5F5F5F5F5F5F5F5F5F5F5F5F5F5F5F5F5F5F5F5F5F5F5F5F5F5F5F5F5F5F5F5F5F5F5F5F5F5F5F5F5F5F5F5F5F5F5F5F5F5F5F5F5F5F5F5F5E2E2EFE2F5F5F5F5F5F5F5F5F5F5F5F5F5F5F5F5F5F5F5F5F5F5F5F5F5F5F5F5F5F5F5F5F5F5F5F5F5F5F5F5F5F5F5F5F5F5
310
F5F5F5F5F5F5F5F5F5F5F5F5F5F5F5F5F5F5F5F5F5F5F5F5F5F5F5F5F5F5F5F5F5F5F5F5F5F5F5F5F5E2F5F5F5F5F5F5F5F5F5F5F5F5F5F5F5F5F5F5F5F5F5F5F5F5F5F5F5F5F5F5F5F5F5F5F5F5F5F5F5F5F5F5F5F5F5F5F5F5F5F5F5F5F5F5F5F5F5F5F5F5F5F5F5F5F5F5F5F5F5F5F5F5F5F5F5F5F5F5F5F5F5F5F5F5F5
310
F5F5F5E2E2EFE2F5F5E2E2E2E2E2E2E2E2E2E2E2E2E2E2E2E2E2E2E2E2E2E2E2E2E2E2E2E2E2E2E2E2E2E2E2E2E2E2E2E2E2E2E2E2E2E2E2E2E2E2E2E2E2E2E2E2E2E2E2E2E2E2E2E2E2E2E2E2E2E2E2E2E2E2E2E2E2E2E2E2E2E2E2E2E2E2E2E2E2E2E2E2E2E2E2E2E2E2E2E2E2E2E2E2E2E2E2E2E2E2E2E2E2E2E2E2E2E2
310
E2E2E2E2E2E2E2E2E2E2E2E2E2E2E2E2E2E2E2E2E2E2E2E2E2E2E2E2E2E2E2E2E2E2E2E2E2E2E2E2E2E2E2E2E2E2E2E2E2E2E2E2E2E2F5F5E2E2EFE2F5F5E2F5F5F5E2F5F5F5F5F5F5F5F5F5F5F5F5F5F5F5F5F5F5F5F5F5F5F5F5F5F5F5F5F5F5F5F5F5F5F5F5F5F5F5F5F5F5F5F5F5F5F5F5F5F5F5F5F5F5F5F5F5F5F5F5
310
F5F5F5F5F5F5F5F5F5F5F5F5F5F5F5F5F5F5F5F5F5F5F5F5F5F5F5F5F5F5F5F5E2F5F5E2E2E2E2E2E2E2E2E2E2E2E2E2E2E2E2E2E2E2E2E2E2E2E2E2F5F5E2F5F5F5F5F5F5F5F5F5F5F5F5F5F5F5F5F5F5F5F5F5F5F5F5F5F5F5F5F5F5F5F5F5F5F5F5F5F5F5E2F5F5F5E2F5F5E2E2EFE2F5F5E2F5F5F5E2F5F5F5F5F5F5F5
310
F5F5F5F5F5F5F5F5F5F5F5F5F5F5F5F5F5F5F5F5F5F5F5F5F5F5F5F5F5F5F5F5F5F5F5F5F5F5F5F5F5F5F5F5F5F5F5F5F5F5F5F5F5F5F5F5F5F5F5F5F5F5F5F5F5F5F5F5F5F5F5F5F5F5F5F5F5F5F5F5F5F5F5F5F5E2F5F5E2E2E2E2E2E2E2E2E2E2E2E2E2E2E2E2E2E2E2E2E2E2E2E2E2F5F5E2F5F5F5F5F5F5F5F5F5F5F5
310
F5F5F5F5F5F5F5F5F5F5F5F5F5F5F5F5F5F5F5F5F5F5F5F5F5F5F5F5E2F5F5F5E2F5F5E2E2EFE2F5F5E2F5F5F5E2F5F5F5F5F5F5F5F5F5F5F5F5F5F5F5F5F5F5F5F5F5F5F5F5F5F5F5F5F5F5F5F5F5F5F5F5F5F5F5F5F5F5F5F5F5F5F5F5F5F5F5F5F5F5F5F5F5F5F5F5F5F5F5F5F5F5F5F5F5F5F5F5F5F5F5F5F5F5F5F5F5
310
F5F5F5F5F5F5F5F5F5F5F5E2F5F5E2E2E2E2E2E2E2E2E2E2E2E2E2E2E2E2E2E2E2E2E2E2E2E2E2F5F5E2F5F5F5F5F5F5F5F5F5F5F5F5F5F5F5F5F5F5F5F5F5F5F5F5F5F5F5F5F5F5F5F5F5F5F5F5F5F5F5E2F5F5F5E2F5F5E2E2EFE2F5F5E2F5F5F5E2F5F5F5F5F5F5F5F5F5F5F5F5F5F5F5F5F5F5F5F5F5F5F5F5F5F5F5F5
310
F5F5F5F5F5F5F5F5F5F5F5F5F5F5F5F5F5F5F5F5F5F5F5F5F5F5F5F5F5F5F5F5F5F5F5F5F5F5F5F5F5F5F5F5F5F5F5F5F5F5F5F5F5F5F5F5F5F5F5F5F5F5F5F5E2F5F5E2E2E2E2E2E2E2E2E2E2E2E2E2E2E2E2E2E2E2E2E2E2E2E2E2F5F5E2F5F5F5F5F5F5F5F5F5F5F5F5F5F5F5F5F5F5F5F5F5F5F5F5F5F5F5F5F5F5F5F5
310
F5F5F5F5F5F5F5E2F5F5F5E2F5F5E2E2EFE2F5F5E2F5F5F5E2F5F5F5F5F5F5F5F5F5F5F5F5F5F5F5F5F5F5F5F5F5F5F5F5F5F5F5F5F5F5F5F5F5F5F5F5F5F5F5F5F5F5F5F5F5F5F5F5F5F5F5F5F5F5F5F5F5F5F5F5F5F5F5F5F5F5F5F5F5F5F5F5F5F5F5F5F5F5F5F5F5F5F5F5F5F5F5F5F5F5F5F5E2F5F5F5F5F5F5F5F5F5
310
F5F5F5F5F5F5F5F5F5F5F5F5F5F5F5F5F5F5F5F5E2F5F5F5F5F5F5F5F5F5F5F5F5F5F5F5F5F5F5F5F5F5F5F5F5F5F5F5F5F5F5F5F5F5F5F5F5F5F5F5E2F5F5F5E2F5F5E2E2EFE2F5F5E2F5F5F5E2F5F5F5F5F5F5F5F5F5F5F5F5F5F5F5F5F5F5F5F5F5F5F5F5F5F5F5F5F5F5F5F5F5F5F5F5F5F5F5F5F5F5F5F5F5F5F5F5F5
310
F5F5F5F5F5F5F5F5F5F5F5F5F5F5F5F5F5F5F5F5F5F5F5F5F5F5F5F5F5F5F5F5F5F5F5F5F5F5F5F5F5F5F5E2E2E2E2E2E2E2E2E2E2E2E2E2E2E2E2E2E2E2E2E2E2E2E2E2E2E2E2E2E2E2E2E2E2E2E2E2E2E2E2E2E2E2E2E2E2E2E2E2E2E2E2E2E2E2E2E2E2E2E2E2E2E2E2E2E2E2E2E2E2E2F5F5F5E2F5F5E2E2EFE2F5F5E2
310
F5F5F5E2F5F5F5F5F5F5F5F5F5F5F5F5F5F5F5F5F5F5F5F5F5F5F5F5F5F5F5F5F5F5F5F5F5F5F5F5F5F5F5F5F5F5F5F5F5F5F5F5F5F5F5F5F5F5F5F5F5F5F5F5F5F5F5F5F5F5F5F5F5F5F5F5F5F5F5F5F5F5F5F5F5F5F5F5F5F5F5F5F5F5F5F5E2F5F5F5F5F5F5F5F5F5F5F5F5F5F5F5F5F5F5F5F5F5F5F5F5F5F5F5F5F5F5
310
F5F5F5F5F5F5F5F5F5F5F5F5F5F5F5F5F5F5F5F5F5F5F5F5F5F5F5F5F5F5F5F5F5F5F5F5F5F5F5E2F5F5F5E2F5F5E2E2EFE2F5F5F5F5F5F5E2F5F5F5F5F5F5F5F5F5F5F5F5F5F5F5F5F5F5F5F5F5F5F5F5F5F5F5F5F5F5F5F5F5F5F5F5F5F5F5F5F5F5F5F5F5F5F5F5F5F5F5F5F5F5F5F5F5F5F5F5F5F5F5F5F5F5F5F5F5F5
310
F5F5F5F5F5F5F5F5F5F5F5F5F5F5F5F5F5F5F5F5F5F5E2F5F5F5F5F5F5F5F5F5F5F5F5F5F5F5F5F5F5F5F5F5F5E2E2E2E2E2E2E2E2E2E2E2E2E2E2E2E2E2E2E2E2E2E2E2E2E2E2E2F5F5F5F5F5F5F5F5F5F5F5F5F5F5F5F5F5F5F5F5E2F5F5F5F5F5F5E2E2EFE2F5F5F5F5F5F5E2F5F5F5F5F5F5F5F5F5F5F5F5F5F5F5F5F5
310
F5F5F5F5F5F5F5F5F5F5F5F5F5F5F5F5F5F5F5F5F5F5F5F5F5F5F5F5F5F5F5F5F5F5F5F5F5F5F5F5F5F5F5F5F5F5F5F5F5F5F5F5F5F5F5F5F5F5F5F5F5F5F5F5F5F5F5F5F5F5F5F5F5F5F5E2F5F5F5F5F5F5F5F5F5F5F5F5F5F5F5F5F5F5F5F5F5F5E2E2E2E2E2E2E2E2E2E2E2E2E2E2E2E2E2E2E2E2E2E2E2E2E2E2E2F5F5
310
F5F5F5F5F5F5F5F5F5F5F5F5F5F5F5F5F5F5E2F5F5F5F5F5F5E2E2EFE2F5F5F5F5F5F5E2F5F5F5F5F5F5F5F5F5F5F5F5F5F5F5F5F5F5F5F5F5F5F5F5F5F5F5F5F5F5F5F5F5F5F5F5F5F5F5F5F5F5F5F5F5F5F5F5F5F5F5F5F5F5F5F5F5F5F5F5F5F5F5F5F5F5F5F5F5F5F5F5F5F5F5F5F5F5F5F5F5F5F5F5F5F5F5F5F5F5F5
310
F5E2F5F5F5F5F5F5F5F5F5F5F5F5F5F5F5F5F5F5F5F5F5F5E2E2E2E2E2E2E2E2E2E2E2E2E2E2E2E2E2E2E2E2E2E2E2E2E2E2E2F5F5F5F5F5F5F5F5F5F5F5F5F5F5F5F5F5F5F5F5E2F5F5F5F5F5F5E2E2EFE2F5F5F5F5F5F5E2F5F5F5F5F5F5F5F5F5F5F5F5F5F5F5F5F5F5F5F5F5F5F5F5F5F5F5F5F5F5F5F5F5F5F5F5F5F5
310
F5F5F5F5F5F5F5F5F5F5F5F5F5F5F5F5F5F5F5F5F5F5F5F5F5F5F5F5F5F5F5F5F5F5F5F5F5F5F5F5F5F5F5F5F5F5F5F5F5F5F5F5F5F5E2F5F5F5F5F5F5F5F5F5F5F5F5F5F5F5F5F5F5F5F5F5F5E2E2E2E2E2E2E2E2E2E2E2E2E2E2E2E2E2E2E2E2E2E2E2E2E2E2E2F5F5F5F5F5F5F5F5F5F5F5F5F5F5F5F5F5F5F5F5E2F5F5
310
F5F5F5F5E2E2EFE2F5F5F5F5F5F5E2F5F5F5F5F5F5F5F5F5F5F5F5F5F5F5F5F5F5F5F5F5F5F5F5F5F5F5F5F5F5F5F5F5F5F5F5F5F5F5F5F5F5F5F5F5F5F5F5F5F5F5F5F5F5F5F5F5F5F5F5F5F5F5F5F5F5F5F5F5F5F5F5F5F5F5F5F5F5F5F5F5F5F5F5F5F5F5F5F5F5F5F5E2F5F5F5F5F5F5F5F5F5F5F5F5F5F5F5F5F5F5F5
310
F5F5F5F5F5F5F5F5F5F5F5F5F5F5F5F5F5F5F5F5F5F5F5F5F5F5F5F5F5F5F5F5F5F5F5F5F5F5F5F5F5F5F5F5F5F5F5F5F5F5E2F5F5F5F5F5F5E2E2EFE2F5F5F5F5F5F5E2F5F5F5F5F5F5F5F5F5F5F5F5F5F5F5F5F5F5F5F5F5F5F5F5F5F5F5F5F5F5F5F5F5F5F5F5F5F5F5F5F5F5F5F5F5F5F5F5F5F5F5F5F5F5F5F5F5F5F5
310
F5F5F5F5F5F5F5F5F5F5F5F5F5F5F5F5F5F5F5F5F5F5F5F5F5F5F5F5F5F5F5F5F5E2F5F5F5F5F5F5F5F5F5F5F5F5F5F5F5F5F5F5F5F5F5F5F5F5F5F5F5F5F5F5F5F5F5F5F5F5F5F5F5F5F5F5F5F5F5F5F5F5F5F5F5F5F5F5F5F5F5F5F5F5F5F5F5F5F5F5F5F5F5E2F5F5F5F5F5F5E2E2EFE2F5F5F5F5F5F5E2F5F5F5F5F5F5
310
F5F5F5F5F5F5F5F5F5F5F5F5F5F5F5F5F5F5F5F5F5F5F5F5F5F5F5F5F5F5F5F5F5F5F5F5F5F5F5F5F5F5F5F5F5F5F5F5F5F5F5F5F5F5F5F5F5F5F5F5F5F5F5F5F5F5F5F5F5F5F5F5F5F5F5F5F5F5F5F5F5F5F5F5F5F5E2E2E2E2E2E2E2E2E2E2E2E2E2E2E2E2E2E2E2E2E2E2E2E2E2E2E2E2E2E2E2E2E2E2E2E2E2E2E2E2E2
310
E2E2E2E2E2E2E2E2E2E2E2E2E2E2E2E2E2E2E2E2E2E2E2E2E2E2E2E2E2E2F5F5F5F5F5F5E2E2EFE2F5F5F5F5F5F5E2F5F5F5F5F5F5F5F5F5F5F5F5F5F5F5F5F5F5F5F5F5F5F5F5F5F5F5F5F5F5F5F5F5F5F5F5F5F5F5F5F5F5F5F5F5F5F5F5F5F5F5F5F5F5F5F5F5F5F5F5F5F5F5F5F5F5F5F5F5F5F5F5F5F5F5F5F5F5F5F5
310
F5F5F5F5F5F5F5F5F5F5F5F5E2F5F5F5F5F5F5F5F5F5F5F5F5F5F5F5F5F5F5F5F5F5F5F5F5F5F5F5F5F5F5F5F5F5F5F5F5F5F5F5F5F5F5F5F5F5F5F5F5F5F5F5F5F5F5F5F5F5F5F5F5F5F5F5F5F5F5F5F5F5E2F5F5F5F5F5F5E2E2EFE2F5F5F5F5F5F5E2F5F5F5F5F5F5F5F5F5F5F5F5F5F5F5F5F5F5F5F5F5F5F5F5F5F5F5
310
F5F5F5F5F5F5F5F5F5F5F5F5F5F5F5F5F5F5F5F5F5F5F5F5F5F5F5F5F5F5F5F5F5F5F5F5F5F5F5F5F5F5F5F5F5F5F5F5F5F5F5F5F5F5F5F5F5F5F5F5F5F5F5F5F5E2E2E2E2E2E2E2E2E2E2E2E2E2E2E2E2E2E2E2E2E2E2E2E2E2E2E2E2E2E2E2E2E2E2E2E2E2E2E2E2E2E2E2E2E2E2E2E2E2E2E2E2E2E2E2E2E2E2E2E2E2E2
310
E2E2E2E2E2E2E2E2E2F5F5F5F5F5F5E2E2EFE2F5F5E2F5F5F5E2F5F5F5F5F5F5F5F5F5F5F5F5F5F5F5F5F5F5F5F5F5F5F5F5F5F5F5F5F5F5F5F5F5F5F5F5F5F5F5F5F5F5F5F5F5F5F5F5F5F5F5F5F5F5F5F5F5F5F5F5F5F5F5F5F5F5F5F5F5F5F5F5F5F5F5F5F5F5F5F5F5F5F5F5F5F5F5F5F5F5F5F5F5F5F5F5F5F5F5F5F5
310
F5F5F5F5F5F5F5F5F5F5F5F5F5F5F5F5F5F5F5F5F5F5F5F5F5F5F5F5F5F5F5F5F5F5F5F5F5F5F5F5F5F5F5F5F5F5F5F5F5F5F5F5F5F5F5F5F5F5F5F5F5E2F5F5F5E2F5F5E2E2EFE2F5F5E2F5F5F5E2F5F5F5F5F5F5F5F5F5F5F5F5F5F5F5F5F5F5F5F5F5F5F5F5F5F5F5F5F5F5F5F5F5F5F5F5F5F5F5F5F5F5F5F5F5F5F5F5
310
F5F5F5F5F5F5F5F5F5F5F5F5F5F5F5F5F5F5F5F5F5F5F5F5F5F5F5F5F5F5F5F5F5F5F5F5F5F5F5F5F5F5F5F5F5F5F5F5F5F5F5F5F5F5F5F5F5F5F5F5F5F5F5F5F5F5F5F5F5F5F5F5F5F5F5F5F5F5F5F5F5F5F5F5F5F5F5F5F5F5F5F5F5F5F5F5F5F5F5F5F5F5F5F5F5F5F5F5F5F5F5F5F5F5E2F5F5F5E2F5F5E2E2EFE2F5F5
310
E2F5F5F5E2F5F5F5F5F5F5F5F5F5F5F5F5F5F5F5F5F5F5F5F5F5F5F5F5F5F5F5F5F5F5F5F5F5F5F5F5F5F5F5F5F5F5F5F5F5F5F5F5F5F5F5F5F5F5F5F5F5F5F5F5F5F5F5F5F5F5F5F5F5F5F5F5F5F5F5F5F5F5F5F5F5F5F5F5F5F5F5F5F5F5F5F5F5F5F5F5F5F5F5F5F5F5F5F5F5F5F5F5F5F5F5F5F5F5F5F5F5F5F5F5F5F5
310
F5F5F5F5F5F5F5F5F5F5F5F5F5F5F5F5F5F5F5F5F5F5F5F5F5F5F5F5F5F5F5F5F5F5F5F5F5F5F5F5E2F5F5F5E2F5F5E2E2EFE2F5F5E2F5F5F5E2F5F5F5F5F5F5F5F5F5F5F5F5F5F5F5F5F5F5F5F5F5F5F5F5F5F5F5F5F5F5F5F5F5F5F5F5F5F5F5F5F5F5F5F5F5F5F5F5F5F5F5F5F5F5F5F5F5F5F5F5F5F5F5F5F5F5F5F5F5
310
F5F5F5F5F5F5F5F5F5F5F5F5F5F5F5F5F5F5F5F5F5F5F5F5F5F5F5F5F5F5F5F5F5F5F5F5F5F5F5F5F5F5F5F5F5F5F5F5F5F5F5F5F5F5F5F5F5F5F5F5F5F5F5F5F5F5F5F5F5F5F5F5F5F5F5F5F5F5F5F5F5F5F5F5F5F5F5F5F5F5F5F5F5E2F5F5F5E2F5F5E2E2EFE2F5F5E2F5F5F5E2F5F5F5F5F5F5F5F5F5F5F5F5F5F5F5F5
310
F5F5F5F5F5F5F5F5F5F5F5F5F5F5F5F5F5F5F5F5F5F5F5F5F5F5F5F5F5F5F5F5F5F5F5F5F5F5F5F5F5F5F5F5F5F5F5F5F5F5F5F5F5F5F5F5F5F5F5F5F5F5F5F5F5F5F5F5F5F5F5F5F5F5F5F5F5F5F5F5F5F5F5F5F5F5F5F5F5F5F5F5F5F5F5F5F5F5F5F5F5F5F5F5F5F5F5F5F5F5F5F5F5F5F5F5F5F5F5F5F5F5F5F5F5F5F5
310
F5F5F5F5F5F5F5F5F5F5F5F5F5F5F5F5F5F5F5E2F5F5F5E2F5F5E2E2EFE2F5F5E2F5F5F5E2F5F5F5F5F5F5F5F5F5F5F5F5F5F5F5F5F5F5F5F5F5F5F5F5F5F5F5F5F5F5F5F5F5F5F5F5F5F5F5F5F5F5F5F5F5F5F5F5F5F5F5F5F5F5F5F5F5F5F5F5F5F5F5F5F5F5F5F5F5F5F5F5F5F5F5F5F5F5F5F5F5F5F5F5F5F5F5F5F5F5
310
F5F5F5F5F5F5F5F5F5F5F5F5F5F5F5F5F5F5F5F5F5F5F5F5F5F5F5F5F5F5F5F5F5F5F5F5F5F5F5F5F5F5F5F5F5F5F5F5F5F5F5F5F5F5F5F5F5F5F5F5F5F5F5F5F5F5F5F5F5F5F5F5E2F5F5F5E2F5F5E2E2EFE2F5F5E2F5F5F5E2F5F5F5F5F5F5F5F5F5F5F5F5F5F5F5F5F5F5F5F5F5F5F5F5F5F5F5F5F5F5F5F5F5F5F5F5F5
310
F5F5F5F5F5F5F5F5F5F5F5F5F5F5F5F5F5F5F5F5F5F5F5F5F5F5F5F5F5F5F5F5F5F5F5F5F5F5F5F5F5F5F5F5F5F5F5F5F5F5F5F5F5F5F5F5F5F5F5F5F5F5F5F5F5F5F5F5F5F5F5F5F5F5F5F5F5F5F5F5F5F5F5F5F5F5F5F5F5F5F5F5F5F5F5F5F5F5F5F5F5F5F5F5F5F5F5F5F5F5F5F5F5F5F5F5F5F5F5F5F5F5F5F5F5E2F5
310
F5F5E2F5F5E2E2EFE2F5F5E2F5F5F5E2F5F5F5F5F5F5F5F5F5F5F5F5F5F5F5F5F5F5F5F5F5F5F5F5F5F5F5F5F5F5F5F5F5F5F5F5F5F5F5F5F5F5F5F5F5F5F5F5F5F5F5F5F5F5F5F5F5F5F5F5F5F5F5F5F5F5F5F5F5F5F5F5F5F5F5F5F5F5F5F5F5F5F5F5F5F5F5F5F5F5F5F5F5F5F5F5F5F5F5F5F5F5F5F5F5F5F5F5F5F5F5
310
F5F5F5F5F5F5F5F5F5F5F5F5F5F5F5F5F5F5F5F5F5F5F5F5F5F5F5F5F5F5F5F5F5F5F5F5F5F5F5F5F5F5F5F5F5F5F5F5F5F5F5E2F5F5F5E2F5F5E2E2EFE2F5F5E2F5F5F5E2F5F5F5F5F5F5F5F5F5F5F5F5F5F5F5F5F5F5F5F5F5F5F5F5F5F5F5F5F5F5F5F5F5F5F5F5F5F5F5F5F5F5F5F5F5F5F5F5F5F5F5F5F5F5F5F5F5F5
310
F5F5F5F5F5F5F5F5F5F5F5F5F5F5F5F5F5F5F5F5F5F5F5F5F5F5F5F5F5F5F5F5F5F5F5F5F5F5F5F5F5F5F5F5F5F5F5F5F5F5F5F5F5F5F5F5F5F5F5F5F5F5F5F5F5F5F5F5F5F5F5F5F5F5F5F5F5F5F5F5F5F5F5F5F5F5F5F5F5F5F5F5F5F5F5F5F5F5F5F5F5F5F5F5E2F5F5F5E2F5F5E2E2EFE2F5F5E2F5F5F5E2F5F5F5F5F5
310
F5F5F5F5F5F5F5F5F5F5F5F5F5F5F5F5F5F5F5F5F5F5F5F5F5F5F5F5F5F5F5F5F5F5F5F5F5F5F5F5F5F5F5F5F5F5F5F5F5F5F5F5F5F5F5F5F5F5F5F5F5F5F5F5F5F5F5F5F5F5F5F5F5F5F5F5F5F5F5F5F5F5F5F5F5F5F5F5F5F5F5F5F5F5F5F5F5F5F5F5F5F5F5F5F5F5F5F5F5F5F5F5F5F5F5F5F5F5F5F5F5F5F5F5F5F5F5
310
F5F5F5F5F5F5F5F5F5F5F5F5F5F5F5F5F5F5F5F5F5F5F5F5F5F5F5F5F5F5E2F5F5F5E2F5F5E2E2EFE2F5F5E2F5F5F5E2F5F5F5F5F5F5F5F5F5F5F5F5F5F5F5F5F5F5F5F5F5F5F5F5F5F5F5F5F5F5F5F5F5F5F5F5F5F5F5F5F5F5F5F5F5F5F5F5F5F5F5F5F5F5F5F5F5F5F5F5F5F5F5F5F5F5F5F5F5F5F5F5F5F5F5F5F5F5F5
310
F5F5F5F5F5F5F5F5F5F5F5F5F5F5F5F5F5F5F5F5F5F5F5F5F5F5F5F5F5F5F5F5F5F5F5F5F5F5F5F5F5F5F5F5F5F5F5F5F5F5F5F5F5F5F5F5F5F5F5F5F5F5F5F5F5F5F5F5F5F5F5F5F5F5F5F5F5F5F5F5F5F5F5E2F5F5F5E2F5F5E2E2EFE2F5F5E2F5F5F5E2F5F5F5F5F5F5F5F5F5F5F5F5F5F5F5F5F5F5F5F5F5F5F5F5F5F5
310
F5F5F5F5F5F5F5F5F5F5F5F5F5F5F5F5F5F5F5F5F5F5F5F5F5F5F5F5F5F5F5F5F5F5F5F5F5F5F5F5F5F5F5F5F5F5F5F5F5F5F5F5F5F5F5F5F5F5F5F5F5F5F5F5F5F5F5F5F5F5F5F5F5F5F5F5F5F5F5F5F5F5F5F5F5F5F5F5F5F5F5F5F5F5F5F5F5F5F5F5F5F5F5F5F5F5F5F5F5F5F5F5F5F5F5F5F5F5F5F5F5F5F5F5F5F5F5
310
F5F5F5F5F5F5F5F5F5E2F5F5F5E2F5F5E2E2EFE2F5F5E2F5F5F5E2F5F5F5F5F5F5F5F5F5F5F5F5F5F5F5F5F5F5F5F5F5F5F5F5F5F5F5F5F5F5F5F5F5F5F5F5F5F5F5F5F5F5F5F5F5F5F5F5F5F5F5F5F5F5F5F5F5F5F5F5F5F5F5F5F5F5F5F5F5F5F5F5F5F5F5F5F5F5F5F5F5F5F5F5F5F5F5F5F5F5F5F5F5F5F5F5F5F5F5F5
310
F5F5F5F5F5F5F5F5F5F5F5F5F5F5F5F5F5F5F5F5F5F5F5F5F5F5F5F5F5F5F5F5F5F5F5F5F5F5F5F5F5F5F5F5F5F5F5F5F5F5F5F5F5F5F5F5F5F5F5F5F5F5E2F5F5F5E2F5F5E2E2EFE2F5F5E2F5F5F5E2F5F5F5F5F5F5F5F5F5F5F5F5F5F5F5F5F5F5F5F5F5F5F5F5F5F5F5F5F5F5F5F5F5F5F5F5F5F5F5F5F5F5F5F5F5F5F5
310
F5F5F5F5F5F5F5F5F5F5F5F5F5F5F5F5F5F5F5F5F5F5F5F5F5F5F5F5F5F5F5F5F5F5F5F5F5F5F5F5F5F5F5F5F5F5F5F5F5F5F5F5F5F5F5F5F5F5F5F5F5F5F5F5F5F5F5F5F5F5F5F5F5F5F5F5F5F5F5F5F5F5F5F5F5F5F5F5F5F5F5F5F5F5F5F5F5F5F5F5F5F5F5F5F5F5F5F5F5F5F5F5F5F5F5E2F5F5F5E2F5F5E2E2EFE2F5
310
F5E2F5F5F5E2F5F5F5F5F5F5F5F5F5F5F5F5F5F5F5F5F5F5F5F5F5F5F5F5F5F5F5F5F5F5F5F5F5F5F5F5F5F5F5F5F5F5F5F5F5F5F5F5F5F5F5F5F5F5F5F5F5F5F5F5F5F5F5F5F5F5F5F5F5F5F5F5F5F5F5F5F5F5F5F5F5F5F5F5F5F5F5F5F5F5F5F5F5F5F5F5F5F5F5F5F5F5F5F5F5F5F5F5F5F5F5F5F5F5F5F5F5F5F5F5F5
310
F5F5F5F5F5F5F5F5F5F5F5F5F5F5F5F5F5F5F5F5F5F5F5F5F5F5F5F5F5F5F5F5F5F5F5F5F5F5F5F5F5E2F5F5F5E2F5F5E2E2EFE2F5F5F5F5F5F5E2F5F5F5F5F5F5F5F5F5F5F5F5F5F5F5F5F5F5F5F5F5F5F5F5F5F5F5F5F5F5F5F5F5F5F5F5F5F5F5F5F5F5F5F5F5F5F5F5F5F5F5F5F5F5F5F5F5F5F5F5F5F5F5F5F5F5F5F5
310
F5F5F5F5F5F5F5F5F5F5F5F5F5F5F5F5F5F5F5F5F5F5F5F5F5F5F5F5F5F5F5F5F5F5F5F5F5F5F5F5F5F5F5F5F5F5F5F5F5F5F5F5F5F5F5F5F5F5F5F5F5F5F5F5F5F5F5F5F5F5F5F5F5F5F5F5F5F5F5F5F5F5F5F5F5F5F5F5F5F5F5F5F5F5E2F5F5F5F5F5F5E2E2EFE2F5F5F5F5F5F5E2F5F5F5F5F5F5F5F5F5F5F5F5F5F5F5
310
F5F5F5F5F5F5F5F5F5F5F5F5F5F5F5F5F5F5F5F5F5F5F5F5F5F5F5F5F5F5F5F5F5F5F5F5F5F5F5F5F5F5F5F5F5F5F5F5F5F5F5F5F5F5F5F5F5F5F5F5F5F5F5F5F5F5F5F5F5F5F5F5F5F5F5F5F5F5F5F5F5F5F5F5F5F5F5F5F5F5F5F5F5F5F5F5F5F5F5F5F5F5F5F5F5F5F5F5F5F5F5F5F5F5F5F5F5F5F5F5F5F5F5F5F5F5F5
310
F5F5F5F5F5F5F5F5F5F5F5F5F5F5F5F5F5F5F5F5E2F5F5F5F5F5F5E2E2EFE2F5F5F5F5F5F5E2F5F5F5F5F5F5F5F5F5F5F5F5F5F5F5F5F5F5F5F5F5F5F5F5F5F5F5F5F5F5F5F5F5F5F5F5F5F5F5F5F5F5F5F5F5F5F5F5F5F5F5F5F5F5F5F5F5F5F5F5F5F5F5F5F5F5F5F5F5F5F5F5F5F5F5F5F5F5F5F5F5F5F5F5F5F5F5F5F5
310
F5F5F5F5F5F5F5F5F5F5F5F5F5F5F5F5F5F5F5F5F5F5F5F5F5F5F5F5F5F5F5F5F5F5F5F5F5F5F5F5F5F5F5F5F5F5F5F5F5F5F5F5F5F5F5F5F5F5F5F5F5F5F5F5F5F5F5F5F5F5F5F5F5E2F5F5F5F5F5F5E2E2EFE2F5F5F5F5F5F5E2F5F5F5F5F5F5F5F5F5F5F5F5F5F5F5F5F5F5F5F5F5F5F5F5F5F5F5F5F5F5F5F5F5F5F5F5
310
F5F5F5F5F5F5F5F5F5F5F5F5F5F5F5F5F5F5F5F5F5E2E2E2F5F5F5F5F5F5F5F5F5E2E2E2F5F5F5F5F5F5F5F5F5F5F5F5F5F5F5F5F5F5F5F5F5F5F5F5F5F5F5E2E2E2E2E2E2F5F5F5F5F5F5F5F5F5F5F5F5F5F5F5F5F5F5F5F5F5F5F5F5F5F5F5F5F5F5F5F5F5F5F5F5F5F5F5F5F5F5F5F5F5F5F5F5F5F5F5F5F5F5F5F5F5E2
310
F5F5F5F5F5F5E2E2EFE2F5F5F5F5F5F5E2F5F5F5F5F5F5F5F5F5F5F5F5F5F5F5F5F5F5F5F5F5F5F5F5F5F5F5F5F5F5F5F5F5F5F5F5F5F5F5F5F5F5F5F5F5F5F5F5F5F5F5F5F5F5F5F5F5E2F5E2F5F5F5F5F5F5F5F5F5E2F5E2F5F5F5F5F5F5F5F5F5F5F5F5F5F5F5F5F5F5F5F5F5F5F5F5F5F5F5E2E2E2E2E2E2F5F5F5F5F5
310
F5F5F5F5F5F5F5F5F5F5F5F5F5F5F5F5F5F5F5F5F5F5F5F5F5F5F5F5F5F5F5F5F5F5F5F5F5F5F5F5F5F5F5F5F5F5F5F5F5F5F5F5E2F5F5F5F5F5F5E2E2EFE2F5F5F5F5F5F5E2F5F5F5F5F5F5F5F5F5F5F5F5F5F5F5F5F5F5F5F5F5F5F5F5F5F5F5F5F5F5F5F5F5F5F5F5F5F5F5F5F5F5F5F5F5F5F5F5F5F5F5F5F5F5E2E2E2
310
F5F5F5E2F5F5F5F5F5F5F5E2F5F5F5E2E2E2F5F5F5F5F5F5F5F5F5F5F5F5F5F5F5F5F5F5F5F5F5F5F5F5E2E2E2E2E2E2F5F5F5F5F5F5F5F5F5F5F5F5F5F5F5F5F5F5F5F5F5F5F5F5F5F5F5F5F5F5F5F5F5F5F5F5F5F5F5F5F5F5F5F5F5F5F5F5F5F5F5F5F5F5F5F5F5E2F5F5F5F5F5F5E2E2EFE2F5F5F5F5F5F5E2F5F5F5F5
310
F5F5F5F5F5F5F5F5F5F5F5F5F5F5F5F5F5F5F5F5F5F5F5F5F5F5F5F5F5F5F5F5F5F5F5F5F5F5F5F5F5F5F5F5F5F5F5F5F5F5E2F5F5F5E2E2E2F5F5F5F5F5F5F5E2E2E2F5F5F5E2F5F5F5F5F5F5F5F5F5F5F5F5F5F5F5F5F5F5F5F5F5F5F5F5E2E2E2E2E2E2F5F5F5F5F5F5F5F5F5F5F5F5F5F5F5F5F5F5F5F5F5F5F5F5F5F5
310
F5F5F5F5F5F5F5F5F5F5F5F5F5F5F5F5F5F5F5F5F5F5F5F5F5F5F5F5F5F5F5E2F5F5F5F5F5F5E2E2EFE2F5F5F5F5F5F5E2F5F5F5F5F5F5F5F5F5F5F5F5F5F5F5F5F5F5F5F5F5F5F5F5F5F5F5F5F5F5F5F5F5F5F5F5F5F5F5F5F5F5F5F5F5F5F5F5F5F5F5F5F5E2F5F5F5E2E2F5E2F5F5F5F5F5F5E2F5F5E2E2F5F5F5E2F5F5
310
F5F5F5F5F5F5F5F5F5F5F5F5F5F5F5F5F5F5F5F5F5E2F5F5F5F5E2F5F5F5F5F5F5F5F5F5F5F5F5F5F5F5F5F5F5F5F5F5F5F5F5F5F5F5F5F5F5F5F5F5F5F5F5F5F5F5F5F5F5F5F5F5F5F5F5F5F5F5F5F5F5F5F5F5E2F5F5F5F5F5F5E2E2EFE2F5F5E2F5F5F5E2F5F5F5F5F5F5F5F5F5F5F5F5F5F5F5F5F5F5F5F5F5F5F5F5F5
310
F5F5F5F5F5F5F5F5F5F5F5F5F5F5F5F5F5F5F5F5F5F5F5F5F5F5F5F5E2F5E2F5E2E2E2F5E2F5F5F5F5F5E2F5E2E2E2F5E2F5E2F5F5F5F5F5F5F5F5F5F5F5F5F5F5F5F5F5F5F5F5F5F5E2E2F5F5F5F5E2E2F5F5F5F5F5F5F5F5F5F5F5F5F5F5F5F5F5F5F5F5F5F5F5F5F5F5F5F5F5F5F5F5F5F5F5F5F5F5F5F5F5F5F5F5F5F5
310
F5F5F5F5F5F5F5F5F5F5E2F5F5F5E2F5F5E2E2EFE2F5F5E2F5F5F5E2F5F5F5F5F5F5F5F5F5F5F5F5F5F5F5F5F5F5F5F5F5F5F5F5F5F5F5F5F5F5F5F5F5F5F5F5F5F5F5F5F5F5F5F5F5F5F5F5F5F5F5E2E2F5E2E2F5E2F5E2F5E2F5F5F5F5E2F5F5E2E2E2F5E2E2F5E2F5F5F5F5F5F5F5F5F5F5F5F5F5F5F5F5F5F5F5F5F5E2
310
E2E2E2E2E2E2E2F5F5F5F5F5F5F5F5F5F5F5F5F5F5F5F5F5F5F5F5F5F5F5F5F5F5F5F5F5F5F5F5F5F5F5F5F5F5F5F5F5F5F5F5F5F5F5F5F5F5F5F5F5F5F5F5E2F5F5F5E2F5F5E2E2EFE2F5F5E2F5F5F5E2F5F5F5F5F5F5F5F5F5F5F5F5F5F5F5F5F5F5F5F5F5F5F5F5F5F5F5F5F5F5F5F5F5F5F5F5F5F5F5F5F5F5F5F5F5F5
310
F5F5F5F5F5E2F5F5E2F5E2F5E2E2F5F5E2F5F5F5E2F5E2F5E2F5F5E2E2F5F5E2F5F5F5F5F5F5F5F5F5F5F5F5F5F5F5F5F5F5F5F5E2E2E2E2E2E2E2E2F5F5F5F5F5F5F5F5F5F5F5F5F5F5F5F5F5F5F5F5F5F5F5F5F5F5F5F5F5F5F5F5F5F5F5F5F5F5F5F5F5F5F5F5F5F5F5F5F5F5F5F5F5F5F5F5E2F5F5F5E2F5F5E2E2EFE2
310
F5F5E2F5F5F5E2F5F5F5F5F5F5F5F5F5F5F5F5F5F5F5F5F5F5F5F5F5F5F5F5F5F5F5F5F5F5F5F5F5F5F5F5F5F5F5F5F5F5F5F5F5F5F5F5F5F5F5E2F5E2F5F5E2F5E2F5E2F5E2F5F5E2F5F5E2F5E2F5E2F5F5E2F5E2F5F5F5F5F5F5F5F5F5F5F5F5F5F5F5F5F5F5F5F5E2E2F5F5F5F5E2E2F5F5F5F5F5F5F5F5F5F5F5F5F5F5
310
F5F5F5F5F5F5F5F5F5F5F5F5F5F5F5F5F5F5F5F5F5F5F5F5F5F5F5F5F5F5F5F5F5F5F5F5F5F5F5F5F5F5E2F5F5F5E2F5F5E2E2EFE2F5F5E2F5F5F5E2F5F5F5F5F5F5F5F5F5F5F5F5F5F5F5F5F5F5F5F5F5F5F5F5F5F5F5F5F5F5F5F5F5F5F5F5F5F5F5F5F5F5F5F5F5F5F5F5F5F5E2F5F5E2F5F5E2F5E2F5E2F5E2F5F5E2F5
310
E2F5F5E2F5E2F5F5E2F5F5E2F5F5F5F5F5F5F5F5F5F5F5F5F5F5F5F5F5F5E2E2E2F5F5F5F5E2E2E2F5F5F5F5F5F5F5F5F5F5F5F5F5F5F5F5F5F5F5F5F5F5F5F5F5F5F5F5F5F5F5F5F5F5F5F5F5F5F5F5F5F5F5F5F5F5F5F5F5F5F5F5F5F5F5E2F5F5F5E2F5F5E2E2EFE2F5F5E2F5F5F5E2F5F5F5F5F5F5F5F5F5F5F5F5F5F5
310
F5F5F5F5F5F5F5F5F5F5F5F5F5F5F5F5F5F5F5F5F5F5F5F5F5F5F5F5F5F5F5F5F5F5F5F5E2F5E2F5F5F5E2F5E2F5E2F5F5E2E2F5F5E2F5F5E2F5E2F5F5E2F5F5E2F5F5F5F5F5F5F5F5F5F5F5F5F5F5F5F5F5F5E2F5E2E2E2E2E2E2F5E2F5F5F5F5F5F5F5F5F5F5F5F5F5F5F5F5F5F5F5F5F5F5F5F5F5F5F5F5F5F5F5F5F5F5
310
F5F5F5F5F5F5F5F5F5F5F5F5F5F5F5F5F5F5F5F5F5E2F5F5F5E2F5F5E2E2EFE2F5F5E2F5F5F5E2F5F5F5F5F5F5F5F5F5F5F5F5F5F5F5F5F5F5F5F5F5F5F5F5F5F5F5F5F5F5F5F5F5F5F5F5F5F5F5F5F5F5F5F5F5F5F5F5F5E2F5F5E2F5F5F5F5E2F5E2F5E2F5E2E2F5E2F5F5E2F5F5E2F5F5F5E2F5E2E2F5F5F5F5F5F5F5F5
310
F5F5F5F5F5F5F5F5F5E2F5E2F5F5F5F5E2F5E2F5F5F5F5F5F5F5F5F5F5F5F5F5F5F5F5F5F5F5F5F5F5F5F5F5F5F5F5F5F5F5F5F5F5F5F5F5F5F5F5F5F5F5F5F5F5F5F5F5F5F5F5F5F5F5E2F5F5F5E2F5F5E2E2EFE2F5F5E2F5F5F5E2F5F5F5F5F5F5F5F5F5F5F5F5F5F5F5F5F5F5F5F5F5F5F5F5F5F5F5F5F5F5F5F5F5F5F5
310
F5F5F5F5F5F5F5F5F5F5F5F5F5F5E2F5F5E2F5F5F5F5E2F5E2F5E2E2F5F5E2E2F5F5E2F5E2F5F5F5F5E2F5E2F5F5F5F5F5F5F5F5F5F5F5F5F5F5F5F5F5F5E2E2E2E2E2E2E2E2E2E2F5F5F5F5F5F5F5F5F5F5F5F5F5F5F5F5F5F5F5F5F5F5F5F5F5F5F5F5F5F5F5F5F5F5F5F5F5F5F5F5F5F5F5F5F5F5F5F5F5F5F5F5F5F5F5
310
E2F5F5F5E2F5F5E2E2EFE2F5F5E2F5F5F5E2F5F5F5F5F5F5F5F5F5F5F5F5F5F5F5F5F5F5F5F5F5F5F5F5F5F5F5F5F5F5F5F5F5F5F5F5F5F5F5F5F5F5F5F5F5F5F5F5F5E2F5F5E2E2E2E2E2E2E2E2E2E2F5F5F5F5F5E2E2E2E2E2E2E2E2E2E2F5E2F5F5F5F5F5F5F5F5F5F5F5F5F5F5F5F5F5F5E2E2E2E2E2E2E2E2E2E2F5F5
310
F5F5F5F5F5F5F5F5F5F5F5F5F5F5F5F5F5F5F5F5F5F5F5F5F5F5F5F5F5F5F5F5F5F5F5F5F5F5F5F5F5F5F5F5F5F5F5F5F5F5F5F5F5E2F5F5F5E2F5F5E2E2EFE2F5F5E2F5F5F5E2F5F5F5F5F5F5F5F5F5F5F5F5F5F5F5F5F5F5F5F5F5F5F5F5F5F5F5F5F5F5F5F5F5F5F5F5F5F5F5F5F5F5F5F5F5F5F5F5F5E2F5F5E2F5F5F5
310
F5F5F5E2F5E2F5F5F5F5F5E2F5E2F5F5F5F5F5F5E2F5E2F5F5F5F5F5F5F5F5F5F5F5F5F5F5F5F5F5F5E2F5E2F5F5F5F5E2F5E2F5F5F5F5F5F5F5F5F5F5F5F5F5F5F5F5F5F5F5F5F5F5F5F5F5F5F5F5F5F5F5F5F5F5F5F5F5F5F5F5F5F5F5F5F5F5F5F5F5F5F5F5F5F5F5E2F5F5F5E2F5F5E2E2EFE2F5F5E2F5F5F5E2F5F5F5
310
F5F5F5F5F5F5F5F5F5F5F5F5F5F5F5F5F5F5F5F5F5F5F5F5F5F5F5F5F5F5F5F5F5F5F5F5F5F5F5F5F5F5F5F5F5F5E2F5F5E2E2E2E2E2E2E2E2F5F5E2F5F5F5F5E2F5E2E2E2E2E2E2E2E2F5E2F5F5F5F5F5F5F5F5F5F5F5F5F5F5F5F5F5F5E2E2E2E2E2E2E2E2E2E2F5F5F5F5F5F5F5F5F5F5F5F5F5F5F5F5F5F5F5F5F5F5F5
310
F5F5F5F5F5F5F5F5F5F5F5F5F5F5F5F5F5F5F5F5F5F5F5F5F5F5F5F5F5F5F5F5E2F5F5F5E2F5F5E2E2EFE2F5F5E2F5F5F5E2F5F5F5F5F5F5F5F5F5F5F5F5F5F5F5F5F5F5F5F5F5F5F5F5F5F5F5F5F5F5F5F5F5F5F5F5F5F5F5F5F5F5F5F5F5F5F5F5F5E2F5F5E2F5F5F5F5F5F5E2F5F5E2F5F5F5E2E2E2E2F5F5F5F5F5F5E2
310
F5F5E2F5F5F5F5F5F5F5F5F5F5F5F5F5F5F5F5F5E2F5E2F5F5F5F5E2F5E2F5F5F5F5F5F5F5F5F5F5F5F5F5F5F5F5F5F5F5F5F5F5F5F5F5F5F5F5F5F5F5F5F5F5F5F5F5F5F5F5F5F5F5F5F5F5F5F5F5F5F5F5F5F5F5E2F5F5F5E2F5F5E2E2EFE2F5F5E2F5F5F5E2F5F5F5F5F5F5F5F5F5F5F5F5F5F5F5F5F5F5F5F5F5F5F5F5
310
F5F5F5F5F5F5F5F5F5F5F5F5F5F5F5F5F5F5F5F5F5F5F5F5F5E2E2F5E2F5F5F5F5F5E2E2F5F5F5E2E2E2F5E2E2E2F5F5F5F5F5E2F5F5E2E2F5F5F5F5F5F5F5F5F5F5F5F5F5F5F5F5F5E2F5E2E2E2E2E2E2F5E2F5F5F5F5F5F5F5F5F5F5F5F5F5F5F5F5F5F5F5F5F5F5F5F5F5F5F5F5F5F5F5F5F5F5F5F5F5F5F5F5F5F5F5F5
310
F5F5F5F5F5F5F5F5F5F5F5E2F5F5F5E2F5F5E2E2EFE2F5F5E2F5F5F5E2F5F5F5F5F5F5F5F5F5F5F5F5F5F5F5F5F5F5F5F5F5F5F5F5F5F5F5F5F5F5F5F5F5F5F5F5F5F5F5F5F5F5F5F5F5F5F5F5F5E2E2F5E2F5F5F5F5E2F5F5E2E2F5F5F5F5F5E2F5F5E2F5F5F5F5E2F5F5E2E2F5F5F5F5F5F5F5F5F5F5F5F5F5F5F5F5F5E2
310
F5E2F5F5F5F5E2F5E2F5F5F5F5F5F5F5F5F5F5F5F5F5F5F5F5F5F5F5F5F5F5F5F5F5F5F5F5F5F5F5F5F5F5F5F5F5F5F5F5F5F5F5F5F5F5F5F5F5F5F5F5F5F5F5E2F5F5F5E2F5F5E2E2EFE2F5F5E2F5F5F5E2F5F5F5F5F5F5F5F5F5F5F5F5F5F5F5F5F5F5F5F5F5F5F5F5F5F5F5F5F5F5F5F5F5F5F5F5F5F5F5F5F5F5F5F5F5
310
F5F5F5F5E2F5E2F5E2F5F5F5E2F5F5E2F5E2E2E2E2E2E2E2F5E2F5F5F5F5E2F5E2F5E2F5F5F5F5F5F5F5F5F5F5F5F5F5F5F5F5F5E2F5E2E2E2E2E2E2F5E2F5F5F5F5F5F5F5F5F5F5F5F5F5F5F5F5F5F5F5F5F5F5F5F5F5F5F5F5F5F5F5F5F5F5F5F5F5F5F5F5F5F5F5F5F5F5F5F5F5F5F5F5F5F5F5E2F5F5F5E2F5F5E2E2EF
310
E2F5F5F5F5F5F5E2F5F5F5F5F5F5F5F5F5F5F5F5F5F5F5F5F5F5F5F5F5F5F5F5F5F5F5F5F5F5F5F5F5F5F5F5F5F5F5F5F5F5F5F5F5F5F5F5F5E2F5E2F5E2F5F5E2F5F5E2F5F5F5E2F5E2F5E2F5E2F5E2F5F5E2F5F5E2F5E2F5F5F5F5F5F5F5F5F5F5F5F5F5F5F5F5F5E2F5E2E2E2E2E2E2F5E2F5F5F5F5F5F5F5F5F5F5F5F5
310
F5F5F5F5F5F5F5F5F5F5F5F5F5F5F5F5F5F5F5F5F5F5F5F5F5F5F5F5F5F5F5F5F5F5F5F5F5F5F5F5F5F5F5E2F5F5F5F5F5F5E2E2EFE2F5F5F5F5F5F5E2F5F5F5F5F5F5F5F5F5F5F5F5F5F5F5F5F5F5F5F5F5F5F5F5F5F5F5F5F5F5F5F5F5F5F5F5F5F5F5F5F5F5F5F5F5F5F5F5F5E2F5E2F5F5E2E2F5F5E2F5F5F5F5E2F5E2
310
F5F5F5F5E2F5E2E2E2F5E2E2F5E2F5F5F5F5F5F5F5F5F5F5F5F5F5F5F5F5F5E2E2E2F5F5F5F5E2E2E2F5F5F5F5F5F5F5F5F5F5F5F5F5F5F5F5F5F5F5F5F5F5F5F5F5F5F5F5F5F5F5F5F5F5F5F5F5F5F5F5F5F5F5F5F5F5F5F5F5F5F5F5F5F5F5E2F5F5F5F5F5F5E2E2EFE2F5F5F5F5F5F5E2F5F5F5F5F5F5F5F5F5F5F5F5F5
310
F5F5F5F5F5F5F5F5F5F5F5F5F5F5F5F5F5F5F5F5F5F5F5F5F5F5F5F5F5F5F5F5F5F5F5F5E2F5F5E2F5F5F5F5E2F5F5F5F5F5E2F5E2F5F5F5F5F5E2F5F5F5F5E2F5F5E2F5F5F5F5F5F5F5F5F5F5F5F5F5F5F5F5F5E2E2E2E2E2E2E2E2E2E2F5F5F5F5F5F5F5F5F5F5F5F5F5F5F5F5F5F5F5F5F5F5F5F5F5F5F5F5F5F5F5F5F5
310
F5F5F5F5F5F5F5F5F5F5F5F5F5F5F5F5F5F5F5F5F5F5E2F5F5F5F5F5F5E2E2EFE2F5F5F5F5F5F5E2F5F5F5F5F5F5F5F5F5F5F5F5F5F5F5F5F5F5F5F5F5F5F5F5F5F5F5F5F5F5F5F5F5F5F5F5F5F5F5F5F5F5F5F5F5F5F5F5F5F5F5F5F5E2F5F5E2E2F5F5F5F5F5E2F5E2F5E2F5F5F5E2F5F5F5E2F5F5F5F5F5F5F5F5F5F5F5
310
F5F5F5F5F5F5F5F5F5F5E2E2E2F5F5F5F5E2E2E2F5F5F5F5F5F5F5F5F5F5F5F5F5F5F5F5F5F5F5F5F5F5F5F5F5F5F5F5F5F5F5F5F5F5F5F5F5F5F5F5F5F5F5F5F5F5F5F5F5F5F5F5F5F5F5E2F5F5F5F5F5F5E2E2EFE2F5F5F5F5F5F5E2F5F5F5F5F5F5F5F5F5F5F5F5F5F5F5F5F5F5F5F5F5F5F5F5F5F5F5F5F5F5F5F5F5F5
310
F5F5F5F5F5F5F5F5F5F5F5F5F5F5F5E2F5F5F5F5E2F5F5F5E2E2F5F5F5E2F5E2F5E2F5E2E2F5F5F5E2F5F5F5F5E2F5F5F5F5F5F5F5F5F5F5F5F5F5F5F5F5F5F5E2E2E2E2E2E2E2E2F5F5F5F5F5F5F5F5F5F5F5F5F5F5F5F5F5F5F5F5F5F5F5F5F5F5F5F5F5F5F5F5F5F5F5F5F5F5F5F5F5F5F5F5F5F5F5F5F5F5F5F5F5F5F5
310
F5E2F5F5F5F5F5F5E2E2EFE2F5F5F5F5F5F5E2F5F5F5F5F5F5F5F5F5F5F5F5F5F5F5F5F5F5F5F5F5F5F5F5F5F5F5F5F5F5F5F5F5F5F5F5F5F5F5F5F5F5F5F5F5F5F5F5F5E2F5F5F5F5E2E2F5F5F5F5E2E2E2E2F5E2E2E2E2F5F5F5E2E2E2F5F5F5F5E2F5F5F5F5F5F5F5F5F5F5F5F5F5F5F5F5F5F5F5E2E2E2E2E2E2F5F5F5
310
F5F5F5F5F5F5F5F5F5F5F5F5F5F5F5F5F5F5F5F5F5F5F5F5F5F5F5F5F5F5F5F5F5F5F5F5F5F5F5F5F5F5F5F5F5F5F5F5F5F5F5F5F5F5E2F5F5F5F5F5F5E2E2EFE2F5F5F5F5F5F5E2F5F5F5F5F5F5F5F5F5F5F5F5F5F5F5F5F5F5F5F5F5F5F5F5F5F5F5F5F5F5F5F5F5F5F5F5F5F5F5F5F5F5F5F5F5F5F5F5F5E2F5F5F5F5F5
310
F5E2E2F5F5F5F5E2E2E2E2E2E2F5F5F5E2F5F5F5F5F5F5F5E2F5F5F5F5F5F5F5F5F5F5F5F5F5F5F5F5F5E2F5E2E2E2E2E2E2F5E2F5F5F5F5F5F5F5F5F5F5F5F5F5F5F5F5F5F5F5F5F5F5F5F5F5F5F5F5F5F5F5F5F5F5F5F5F5F5F5F5F5F5F5F5F5F5F5F5F5F5F5F5F5F5F5E2F5F5F5F5F5F5E2E2EFE2F5F5F5F5F5F5E2F5F5
310
F5F5F5F5F5F5F5F5F5F5F5F5F5F5F5F5F5F5F5F5F5F5F5F5F5F5F5F5F5F5F5F5F5F5F5F5F5F5F5F5F5F5F5F5F5F5F5E2F5F5F5F5F5F5F5F5E2F5E2E2F5F5F5F5F5E2E2E2E2F5F5F5F5F5F5F5F5E2F5F5F5F5F5F5F5F5F5F5F5F5F5F5F5F5F5E2F5E2E2E2E2E2E2F5E2F5F5F5F5F5F5F5F5F5F5F5F5F5F5F5F5F5F5F5F5F5F5
310
F5F5F5F5F5F5F5F5F5F5F5F5F5F5F5F5F5F5F5F5F5F5F5F5F5F5F5F5F5F5F5F5F5E2F5F5F5F5F5F5E2E2EFE2F5F5F5F5F5F5E2F5F5F5F5F5F5F5F5F5F5F5F5F5F5F5F5F5F5F5F5F5F5F5F5F5F5F5F5F5F5F5F5F5F5F5F5F5F5F5F5F5F5F5F5F5F5F5F5F5E2F5F5F5F5F5F5F5F5F5E2F5F5E2E2F5E2E2E2E2F5F5F5F5F5F5F5
310
F5F5F5E2F5F5F5F5F5F5F5F5F5F5F5F5F5F5F5F5F5E2F5E2E2E2E2E2E2F5E2F5F5F5F5F5F5F5F5F5F5F5F5F5F5F5F5F5F5F5F5F5F5F5F5F5F5F5F5F5F5F5F5F5F5F5F5F5F5F5F5F5F5F5F5F5F5F5F5F5F5F5F5F5F5F5E2F5F5F5F5F5F5E2E2EFE2F5F5E2F5F5F5E2F5F5F5F5F5F5F5F5F5F5F5F5F5F5F5F5F5F5F5F5F5F5F5
310
F5F5F5F5F5F5F5F5F5F5F5F5F5F5F5F5F5F5F5F5F5F5F5F5F5F5E2F5F5F5F5F5F5F5F5F5F5F5F5F5E2E2F5F5E2F5F5F5F5F5F5F5F5F5F5F5E2F5F5F5F5F5F5F5F5F5F5F5F5F5F5F5F5F5E2F5E2E2E2E2E2E2F5E2F5F5F5F5F5F5F5F5F5F5F5F5F5F5F5F5F5F5F5F5F5F5F5F5F5F5F5F5F5F5F5F5F5F5F5F5F5F5F5F5F5F5F5
310
F5F5F5F5F5F5F5F5F5F5F5F5E2F5F5F5E2F5F5E2E2EFE2F5F5E2F5F5F5E2F5F5F5F5F5F5F5F5F5F5F5F5F5F5F5F5F5F5F5F5F5F5F5F5F5F5F5F5F5F5F5F5F5F5F5F5F5F5F5F5F5F5F5F5F5F5F5F5F5E2F5F5F5F5F5F5F5F5F5F5F5F5F5F5F5F5F5F5F5F5F5F5F5F5F5F5F5F5F5E2F5F5F5F5F5F5F5F5F5F5F5F5F5F5F5F5F5
310
E2F5E2F5F5F5F5E2F5E2F5F5F5F5F5F5F5F5F5F5F5F5F5F5F5F5F5F5F5F5F5F5F5F5F5F5F5F5F5F5F5F5F5F5F5F5F5F5F5F5F5F5F5F5F5F5F5F5F5F5F5F5F5F5F5E2F5F5F5E2F5F5E2E2EFE2F5F5E2F5F5F5E2F5F5F5F5F5F5F5F5F5F5F5F5F5F5F5F5F5F5F5F5F5F5F5F5F5F5F5F5F5F5F5F5F5F5F5F5F5F5F5F5F5F5F5F5
310
F5F5F5F5F5F5F5F5F5F5F5F5F5F5F5F5F5F5F5F5F5F5F5F5F5F5F5F5F5F5F5F5F5F5F5F5F5F5F5F5F5F5F5F5F5F5F5F5F5F5F5F5F5E2F5E2F5F5F5F5E2F5E2F5F5F5F5F5F5F5F5F5F5F5F5F5F5F5F5F5F5F5F5F5F5F5F5F5F5F5F5F5F5F5F5F5F5F5F5F5F5F5F5F5F5F5F5F5F5F5F5F5F5F5F5F5F5F5E2F5F5F5E2F5F5E2E2
310
EFE2F5F5E2F5F5F5E2F5F5F5F5F5F5F5F5F5F5F5F5F5F5F5F5F5F5F5F5F5F5F5F5F5F5F5F5F5F5F5F5F5F5F5F5F5F5F5F5F5F5F5F5F5F5F5F5F5F5F5F5F5F5F5F5F5F5F5F5F5F5F5F5F5F5F5E2F5F5F5F5F5F5F5F5F5F5F5F5F5F5F5F5F5F5F5F5F5F5F5F5F5F5F5F5F5E2F5E2F5F5F5F5E2F5E2F5F5F5F5F5F5F5F5F5F5F5
310
F5F5F5F5F5F5F5F5F5F5F5F5F5F5F5F5F5F5F5F5F5F5F5F5F5F5F5F5F5F5F5F5F5F5F5F5F5F5F5F5F5F5F5F5E2F5F5F5E2F5F5E2E2EFE2F5F5E2F5F5F5E2F5F5F5F5F5F5F5F5F5F5F5F5F5F5F5F5F5F5F5F5F5F5F5F5F5F5F5F5F5F5F5F5F5F5F5F5F5F5F5F5F5F5F5F5F5F5F5F5F5E2F5F5F5F5F5F5F5F5F5F5F5F5F5F5F5
310
F5F5E2F5F5F5F5F5F5F5F5F5F5F5E2F5F5F5F5F5F5F5F5F5F5F5F5F5F5F5F5F5F5F5F5F5F5F5F5F5F5F5F5F5F5F5F5F5F5F5F5F5F5F5F5F5F5F5F5F5F5F5F5F5F5F5F5F5F5F5F5F5F5F5F5F5F5F5F5F5F5F5F5F5F5F5F5F5F5F5F5F5F5F5F5F5F5E2F5F5F5E2F5F5E2E2EFE2F5F5E2F5F5F5E2F5F5F5F5F5F5F5F5F5F5F5F5
310
F5F5F5F5F5F5F5F5F5F5F5F5F5F5F5F5F5F5F5F5F5F5F5F5F5F5F5F5F5F5F5F5F5F5F5F5F5E2F5F5F5F5F5F5F5F5F5F5F5F5F5F5F5F5F5E2F5F5F5F5F5F5F5F5F5F5F5E2F5F5F5F5F5F5F5F5F5F5F5F5F5F5F5F5F5E2F5F5F5F5F5F5F5F5E2F5F5F5F5F5F5F5F5F5F5F5F5F5F5F5F5F5F5F5F5F5F5F5F5F5F5F5F5F5F5F5F5
310
F5F5F5F5F5F5F5F5F5F5F5F5F5F5F5F5F5F5F5F5F5F5F5E2F5F5F5E2F5F5E2E2EFE2F5F5E2F5F5F5E2F5F5F5F5F5F5F5F5F5F5F5F5F5F5F5F5F5F5F5F5F5F5F5F5F5F5F5F5F5F5F5F5F5F5F5F5F5F5F5F5F5F5F5F5F5F5F5F5F5E2F5F5F5F5F5F5F5F5F5F5F5F5F5F5F5F5F5E2F5F5F5F5F5F5F5F5F5F5F5E2F5F5F5F5F5F5
310
F5F5F5F5F5F5F5F5F5F5F5E2F5E2F5F5F5F5E2F5E2F5F5F5F5F5F5F5F5F5F5F5F5F5F5F5F5F5F5F5F5F5F5F5F5F5F5F5F5F5F5F5F5F5F5F5F5F5F5F5F5F5F5F5F5F5F5F5F5F5F5F5F5F5F5F5E2F5F5F5E2F5F5E2E2EFE2F5F5E2F5F5F5E2F5F5F5F5F5F5F5F5F5F5F5F5F5F5F5F5F5F5F5F5F5F5F5F5F5F5F5F5F5F5F5F5F5
310
F5F5F5F5F5F5F5F5F5F5F5F5F5F5F5F5E2F5F5F5F5F5F5F5F5F5F5F5F5F5F5F5F5F5E2F5F5F5F5F5F5F5F5F5F5F5E2F5F5F5F5F5F5F5F5F5F5F5F5F5F5F5F5F5E2F5E2F5F5F5F5E2F5E2F5F5F5F5F5F5F5F5F5F5F5F5F5F5F5F5F5F5F5F5F5F5F5F5F5F5F5F5F5F5F5F5F5F5F5F5F5F5F5F5F5F5F5F5F5F5F5F5F5F5F5F5F5
310
F5F5E2F5F5F5E2F5F5E2E2EFE2F5F5E2F5F5F5E2F5F5F5F5F5F5F5F5F5F5F5F5F5F5F5F5F5F5F5F5F5F5F5F5F5F5F5F5F5F5F5F5F5F5F5F5F5F5F5F5F5F5F5F5F5F5F5F5F5E2F5F5F5F5F5F5F5F5F5F5F5F5F5F5F5F5F5E2F5E2F5F5F5F5F5F5E2E2F5E2F5F5F5F5F5F5F5F5F5F5F5F5F5F5F5F5E2E2F5E2F5F5F5F5E2F5E2
310
F5F5F5F5F5F5F5F5F5F5F5F5F5F5F5F5F5F5F5F5F5F5F5F5F5F5F5F5F5F5F5F5F5F5F5F5F5F5F5F5F5F5F5F5F5F5F5F5F5F5F5F5F5F5F5E2F5F5F5E2F5F5E2E2EFE2F5F5E2F5F5F5E2F5F5F5F5F5F5F5F5F5F5F5F5F5F5F5F5F5F5F5F5F5F5F5F5F5F5F5F5F5F5F5F5F5F5F5F5F5F5F5F5F5F5F5F5F5F5F5F5F5E2F5F5F5F5
310
F5F5F5F5F5F5F5F5F5F5F5F5F5E2E2E2E2E2E2E2E2E2E2E2E2E2E2E2E2E2E2E2E2E2E2E2E2E2E2E2E2E2E2E2E2E2E2E2E2E2E2E2E2E2E2F5F5F5F5F5F5F5F5F5F5F5F5F5F5F5F5F5F5F5F5F5F5F5F5F5F5F5F5F5F5F5F5F5F5F5F5F5F5F5F5F5F5F5F5F5F5F5F5F5F5F5F5F5E2F5F5F5E2F5F5E2E2EFE2F5F5E2F5F5F5E2F5
310
F5F5F5F5F5F5F5F5F5F5F5F5F5F5F5F5F5F5F5F5F5F5F5F5F5F5F5F5F5F5F5F5F5F5F5F5F5F5F5F5F5F5F5F5F5F5F5F5E2F5F5F5F5F5F5F5F5F5F5F5F5F5F5F5F5F5F5E2E2E2E2E2E2E2E2E2F5F5E2F5E2E2E2E2E2E2E2E2E2E2E2E2F5F5F5F5E2F5F5F5F5F5F5F5F5E2F5F5F5F5F5F5F5F5F5F5F5F5F5F5F5F5F5F5F5F5F5
310
F5F5F5F5F5F5F5F5F5F5F5F5F5F5F5F5F5F5F5F5F5F5F5F5F5F5F5F5F5F5F5F5F5F5E2F5F5F5E2F5F5E2E2EFE2F5F5E2F5F5F5E2F5F5F5F5F5F5F5F5F5F5F5F5F5F5F5F5F5F5F5F5F5F5F5F5F5F5F5F5F5F5F5F5F5F5F5F5F5F5F5F5F5F5F5F5F5F5F5F5F5F5F5F5F5F5F5F5F5F5F5F5F5F5F5F5F5F5F5F5E2E2E2E2E2E2E2
310
E2E2F5F5F5F5E2E2E2E2E2E2E2E2E2E2E2E2F5F5F5F5E2F5F5F5F5F5F5F5F5E2F5F5F5F5F5F5F5F5F5F5F5F5F5F5F5F5F5F5F5F5F5F5F5F5F5F5F5F5F5F5F5F5F5F5F5F5F5F5F5F5F5F5F5F5F5F5F5F5F5F5F5F5F5F5F5E2F5F5F5E2F5F5E2E2EFE2F5F5E2F5F5F5E2F5F5F5F5F5F5F5F5F5F5F5F5F5F5F5F5F5F5F5F5F5F5
310
F5F5F5F5F5F5F5F5F5F5F5F5F5F5F5F5F5F5F5F5F5F5F5F5F5F5F5F5F5F5F5F5F5F5F5F5F5F5F5F5F5F5F5F5F5F5E2E2E2E2E2E2E2E2E2F5F5F5F5E2E2E2E2E2E2E2E2E2E2E2E2F5F5F5F5F5F5F5F5F5F5F5F5F5F5F5F5F5F5F5F5F5F5F5F5F5F5F5F5F5F5F5F5F5F5F5F5F5F5F5F5F5F5F5F5F5F5F5F5F5F5F5F5F5F5F5F5
310
F5F5F5F5F5F5F5F5F5F5F5F5F5E2F5F5F5E2F5F5E2E2EFE2F5F5E2F5F5F5E2F5F5F5F5F5F5F5F5F5F5F5F5F5F5F5F5F5F5F5F5F5F5F5F5F5F5F5F5F5F5F5F5F5F5F5F5F5F5F5F5F5F5F5F5F5F5F5F5F5E2F5F5F5F5F5F5F5F5F5F5F5F5F5F5F5F5F5F5F5F5F5F5F5F5F5F5F5F5F5E2F5F5F5F5F5F5F5F5F5F5F5F5F5F5F5F5
310
F5F5F5F5F5F5F5F5F5F5F5F5F5F5F5F5F5F5F5F5F5F5F5F5F5F5F5F5F5F5F5F5F5F5F5F5F5F5F5F5F5F5F5F5F5F5F5F5F5F5F5F5F5F5F5F5F5F5F5F5F5F5F5F5F5F5E2F5F5F5E2F5F5E2E2EFE2F5F5E2F5F5F5E2F5F5F5F5F5F5F5F5F5F5F5F5F5F5F5F5F5F5F5F5F5F5F5F5F5F5F5F5F5F5F5F5F5F5F5F5F5F5F5F5F5F5F5
310
F5F5F5F5F5F5E2F5F5F5F5F5F5F5F5F5F5F5F5F5F5F5F5F5F5F5F5F5F5F5F5F5F5F5F5F5E2F5F5F5F5F5F5F5F5F5F5F5F5F5F5F5F5F5E2F5F5F5F5F5F5F5F5E2F5F5F5F5F5F5F5F5F5F5F5F5F5F5F5F5F5F5F5F5F5F5F5F5F5F5F5F5F5F5F5F5F5F5F5F5F5F5F5F5F5F5F5F5F5F5F5F5F5F5F5F5F5F5F5E2F5F5F5E2F5F5E2
310
E2EFE2F5F5F5F5F5F5E2F5F5F5F5F5F5F5F5F5F5F5F5F5F5F5F5F5F5F5F5F5F5F5F5F5F5F5F5F5F5F5F5F5F5F5F5F5F5F5F5F5F5F5F5F5F5F5F5F5E2F5F5F5F5F5F5F5F5F5F5F5F5F5F5F5F5F5F5F5F5F5F5F5F5F5F5F5F5F5E2F5F5F5F5F5F5F5F5F5F5F5F5F5F5F5F5F5E2F5F5F5F5F5F5F5F5E2F5F5F5F5F5F5F5F5F5F5
310
F5F5F5F5F5F5F5F5F5F5F5F5F5F5F5F5F5F5F5F5F5F5F5F5F5F5F5F5F5F5F5F5F5F5F5F5F5F5F5F5F5F5F5F5F5E2F5F5F5F5F5F5E2E2EFE2F5F5F5F5F5F5E2F5F5F5F5F5F5F5F5F5F5F5F5F5F5F5F5F5F5F5F5F5F5F5F5F5F5F5F5F5F5F5F5F5F5F5F5F5F5F5F5F5F5F5F5F5F5F5F5F5E2F5F5F5F5F5F5F5F5F5F5F5F5F5F5
310
F5F5F5F5F5F5F5F5F5F5F5F5F5F5F5E2F5F5F5F5F5F5F5F5F5F5F5F5F5F5F5F5F5E2F5F5F5F5F5F5F5F5E2F5F5F5F5F5F5F5F5F5F5F5F5F5F5F5F5F5F5F5F5F5F5F5F5F5F5F5F5F5F5F5F5F5F5F5F5F5F5F5F5F5F5F5F5F5F5F5F5F5F5F5F5F5F5F5E2F5F5F5F5F5F5E2E2EFE2F5F5F5F5F5F5E2F5F5F5F5F5F5F5F5F5F5F5
310
F5F5F5F5F5F5F5F5F5F5F5F5F5F5F5F5F5F5F5F5F5F5F5F5F5F5F5F5F5F5F5F5F5F5F5F5F5F5E2E2E2E2E2E2E2E2E2E2F5F5E2E2E2E2E2E2E2F5E2E2E2E2E2E2E2E2E2E2E2F5E2E2E2E2E2E2E2E2F5E2E2E2E2E2E2E2E2E2E2E2E2E2E2E2E2E2F5F5F5F5F5F5F5F5F5F5F5F5F5F5F5F5F5F5F5F5F5F5F5F5F5F5F5F5F5F5F5
310
F5F5F5F5F5F5F5F5F5F5F5F5F5F5F5F5F5F5F5F5F5F5F5F5E2F5F5F5F5F5F5E2E2EFE2F5F5F5F5F5F5E2F5F5F5F5F5F5F5F5F5F5F5F5F5F5F5F5F5F5F5F5F5F5F5F5F5F5F5F5F5F5F5F5F5F5F5F5F5F5F5F5F5F5F5F5F5F5F5F5F5E2E2E2F5F5F5F5F5F5E2E2E2E2E2E2E2E2E2E2E2E2F5F5F5F5F5F5E2E2F5E2F5F5E2E2E2
310
E2E2E2E2E2E2E2E2E2F5F5F5E2E2E2F5F5F5E2E2F5E2F5F5F5F5F5F5F5F5F5F5F5F5F5F5F5F5F5F5F5F5F5F5F5F5F5F5F5F5F5F5F5F5F5F5F5F5F5F5F5F5F5F5F5F5F5F5F5F5F5F5F5F5F5F5F5E2F5F5F5F5F5F5E2E2EFE2F5F5F5F5F5F5E2F5F5F5F5F5F5F5F5F5F5F5F5F5F5F5F5F5F5F5F5F5F5F5F5F5F5F5F5F5F5F5F5
310
F5F5F5F5F5F5F5F5F5F5F5F5F5F5F5F5F5F5F5F5F5F5F5F5F5F5E2E2E2E2E2E2E2E2E2E2E2E2F5F5F5F5F5F5F5F5F5F5F5F5E2E2E2E2E2E2E2E2E2E2E2E2F5F5F5F5F5F5F5F5F5F5F5F5F5F5F5F5F5F5F5F5F5F5F5F5F5F5F5F5F5F5F5F5F5F5F5F5F5F5F5F5F5F5F5F5F5F5F5F5F5F5F5F5F5F5F5F5F5F5F5F5F5F5F5F5F5
310
F5F5F5E2F5F5F5F5F5F5E2E2EFE2F5F5F5F5F5F5E2F5F5F5F5F5F5F5F5F5F5F5F5F5F5F5F5F5F5F5F5F5F5F5F5F5F5F5F5F5F5F5F5F5F5F5F5F5F5F5F5F5F5F5F5F5F5F5F5F5F5F5F5F5F5F5F5F5F5E2E2E2E2E2E2E2E2E2E2E2E2F5F5F5F5F5F5F5F5F5F5F5F5E2E2E2E2E2E2E2E2E2E2E2E2F5F5F5F5F5F5F5F5F5F5F5F5
310
F5F5F5F5F5F5F5F5F5F5F5F5F5F5F5F5F5F5F5F5F5F5F5F5F5F5F5F5F5F5F5F5F5F5F5F5F5F5F5F5F5F5F5F5F5F5F5F5F5F5F5F5F5F5F5F5E2F5F5F5F5F5F5E2E2EFE2F5F5F5F5F5F5E2F5F5F5F5F5F5F5F5F5F5F5F5F5F5F5F5F5F5F5F5F5F5F5F5F5F5F5F5F5F5F5F5F5F5F5F5F5F5F5F5F5F5F5F5F5F5F5F5F5F5F5F5F5
310
F5F5F5F5F5E2E2E2E2E2E2E2E2E2E2E2E2F5F5F5F5F5F5F5F5F5F5F5F5E2E2E2E2E2E2E2E2E2E2E2E2F5F5F5F5F5F5F5F5F5F5F5F5F5F5F5F5F5F5F5F5F5F5F5F5F5F5F5F5F5F5F5F5F5F5F5F5F5F5F5F5F5F5F5F5F5F5F5F5F5F5F5F5F5F5F5F5F5F5F5F5F5F5F5F5F5F5F5F5E2F5F5F5F5F5F5E2E2EFE2F5F5F5F5F5F5E2
310
F5F5F5F5F5F5F5F5F5F5F5F5F5F5F5F5F5F5F5F5F5F5F5F5F5F5F5F5F5F5F5F5F5F5F5F5F5F5F5F5F5F5F5F5F5F5F5F5F5F5F5F5F5F5F5F5F5F5F5F5F5F5F5F5F5F5F5F5F5F5F5F5F5F5F5F5F5F5F5F5F5F5F5F5F5F5F5F5F5F5F5F5F5F5F5F5F5F5F5F5F5F5F5F5F5F5F5F5F5F5F5F5F5F5F5F5F5F5F5F5F5F5F5F5F5F5F5
310
F5F5F5F5F5F5F5F5F5F5F5F5F5F5F5F5F5F5F5F5F5F5F5F5F5F5F5F5F5F5F5F5F5F5F5E2F5F5F5F5F5F5E2E2EFE2F5F5E2F5F5F5E2F5F5F5F5F5F5F5F5F5F5F5F5F5F5F5F5F5F5F5F5F5F5F5F5F5F5F5F5F5F5F5F5F5F5F5F5F5F5F5F5F5F5F5F5F5F5F5F5F5F5F5F5F5F5F5F5F5F5F5F5F5F5F5F5F5F5F5F5F5F5F5F5F5F5
310
F5F5F5F5F5F5F5F5F5F5F5F5F5F5F5F5F5F5F5F5F5F5F5F5F5F5F5F5F5F5F5F5F5F5F5F5F5F5F5F5F5F5F5F5F5F5F5F5F5F5F5F5F5F5F5F5F5F5F5F5F5F5F5F5F5F5F5F5F5F5F5F5F5F5F5F5F5F5F5F5F5F5F5F5F5F5F5F5E2F5F5F5E2F5F5E2E2EFE2F5F5E2F5F5F5E2F5F5F5F5F5F5F5F5F5F5F5F5F5F5F5F5F5F5F5F5F5
310
F5F5F5F5F5F5F5F5F5F5F5F5F5F5F5F5F5F5F5F5F5F5F5F5F5F5F5F5F5F5F5F5F5F5F5F5F5F5F5F5F5F5F5F5F5F5F5F5F5F5F5F5F5F5F5F5F5F5F5F5F5F5F5F5F5F5F5F5F5F5F5F5F5F5F5F5F5F5F5F5F5F5F5F5F5F5F5F5F5F5F5F5F5F5F5F5F5F5F5F5F5F5F5F5F5F5F5F5F5F5F5F5F5F5F5F5F5F5F5F5F5F5F5F5F5F5F5
310
F5F5F5F5F5F5F5F5F5F5F5F5F5F5E2F5F5F5E2F5F5E2E2EFE2F5F5E2F5F5F5E2F5F5F5F5F5F5F5F5F5F5F5F5F5F5F5F5F5F5F5F5F5F5F5F5F5F5F5F5F5F5F5F5F5F5F5F5F5F5F5F5F5F5F5F5F5F5F5F5F5F5F5F5F5F5F5F5F5F5F5F5F5F5F5F5F5F5F5F5F5F5F5F5F5F5F5F5F5F5F5F5F5F5F5F5F5F5F5F5F5F5F5F5F5F5F5
310
F5F5F5F5F5F5F5F5F5F5F5F5F5F5F5F5F5F5F5F5F5F5F5F5F5F5F5F5F5F5F5F5F5F5F5F5F5F5F5F5F5F5F5F5F5F5F5F5F5F5F5F5F5F5F5F5F5F5F5F5F5F5F5F5F5F5F5E2F5F5F5E2F5F5E2E2EFE2F5F5E2F5F5F5E2F5F5F5F5F5F5F5F5F5F5F5F5F5F5F5F5F5F5F5F5F5F5F5F5F5F5F5F5F5F5F5F5F5F5F5F5F5F5F5F5F5F5
310
F5F5F5F5F5F5F5F5F5F5F5F5F5F5F5F5F5F5F5F5F5F5F5F5F5F5F5F5F5F5F5F5F5F5F5F5F5F5F5F5F5F5F5F5F5F5F5F5F5F5F5F5F5F5F5F5F5F5F5F5F5F5F5F5F5F5F5F5F5F5F5F5F5F5F5F5F5F5F5F5F5F5F5F5F5F5F5F5F5F5F5F5F5F5F5F5F5F5F5F5F5F5F5F5F5F5F5F5F5F5F5F5F5F5F5F5F5F5F5F5E2F5F5F5E2F5F5
310
E2E2EFE2F5F5E2F5F5F5E2F5F5F5F5F5F5F5F5F5F5F5F5F5F5F5F5F5F5F5F5F5F5F5F5F5F5F5F5F5F5F5F5F5F5F5F5F5F5F5F5F5F5F5F5F5F5F5F5F5F5F5F5F5F5F5F5F5F5F5F5F5F5F5F5F5F5F5F5F5F5F5F5F5F5F5F5F5F5F5F5F5F5F5F5F5F5F5F5F5F5F5F5F5F5F5F5F5F5F5F5F5F5F5F5F5F5F5F5F5F5F5F5F5F5F5F5
310
F5F5F5F5F5F5F5F5F5F5F5F5F5F5F5F5F5F5F5F5F5F5F5F5F5F5F5F5F5F5F5F5F5F5F5F5F5F5F5F5F5F5F5F5F5F5E2F5F5F5E2F5F5E2E2EFE2F5F5E2F5F5F5E2F5F5F5F5F5F5F5F5F5F5F5F5F5F5F5F5F5F5F5F5F5F5F5F5F5F5F5F5F5F5F5F5F5F5F5F5F5F5F5F5F5F5F5F5F5F5F5F5F5F5F5F5F5F5F5F5F5F5F5F5F5F5F5
310
F5F5F5F5F5F5F5F5F5F5F5F5F5F5F5F5F5F5F5F5F5F5F5F5F5F5F5F5F5F5F5F5F5F5F5F5F5F5F5F5F5F5F5F5F5F5F5F5F5F5F5F5F5F5F5F5F5F5F5F5F5F5F5F5F5F5F5F5F5F5F5F5F5F5F5F5F5F5F5F5F5F5F5F5F5F5F5F5F5F5F5F5F5F5F5F5F5F5F5E2F5F5F5E2F5F5E2E2EFE2F5F5E2F5F5F5E2F5F5F5F5F5F5F5F5F5F5
310
F5F5F5F5F5F5F5F5F5F5F5F5F5F5F5F5F5F5F5F5F5F5F5F5F5F5F5F5F5F5F5F5F5F5F5F5F5F5F5F5F5F5F5F5F5F5F5F5F5F5F5F5F5F5F5F5F5F5F5F5F5F5F5F5F5F5F5F5F5F5F5F5F5F5F5F5F5F5F5F5F5F5F5F5F5F5F5F5F5F5F5F5F5F5F5F5F5F5F5F5F5F5F5F5F5F5F5F5F5F5F5F5F5F5F5F5F5F5F5F5F5F5F5F5F5F5F5
310
F5F5F5F5F5F5F5F5F5F5F5F5F5F5F5F5F5F5F5F5F5F5F5F5F5E2F5F5F5E2F5F5E2E2EFE2F5F5E2F5F5F5E2F5F5F5F5F5F5F5F5F5F5F5F5F5F5F5F5F5F5F5F5F5F5F5F5F5F5F5F5F5F5F5F5F5F5F5F5F5F5F5F5F5F5F5F5F5F5F5F5F5F5F5F5F5F5F5F5F5F5F5F5F5F5F5F5F5F5F5F5F5F5F5F5F5F5F5F5F5F5F5F5F5F5F5F5
310
F5F5F5F5F5F5F5F5F5F5F5F5F5F5F5F5F5F5F5F5F5F5F5F5F5F5F5F5F5F5F5F5F5F5F5F5F5F5F5F5F5F5F5F5F5F5F5F5F5F5F5F5F5F5F5F5F5F5F5F5F5F5F5F5F5F5F5F5F5F5F5F5F5F5F5F5F5F5E2F5F5F5E2F5F5E2E2EFE2F5F5E2F5F5F5E2F5F5F5F5F5F5F5F5F5F5F5F5F5F5F5F5F5F5F5F5F5F5F5F5F5F5F5F5F5F5F5
310
F5F5F5F5F5F5F5F5F5F5F5F5F5F5F5F5F5F5F5F5F5F5F5F5F5F5F5F5F5F5F5F5F5F5F5F5F5F5F5F5F5F5F5F5F5F5F5F5F5F5F5F5F5F5F5F5F5F5F5F5F5F5F5F5F5F5F5F5F5F5F5F5F5F5F5F5F5F5F5F5F5F5F5F5F5F5F5F5F5F5F5F5F5F5F5F5F5F5F5F5F5F5F5F5F5F5F5F5F5F5F5F5F5F5F5F5F5F5F5F5F5F5F5F5F5F5F5
310
F5F5F5F5E2F5F5F5E2F5F5E2E2EFE2F5F5E2F5F5F5E2F5F5F5F5F5F5F5F5F5F5F5F5F5F5F5F5F5F5F5F5F5F5F5F5F5F5F5F5F5F5F5F5F5F5F5F5F5F5F5F5F5F5F5F5F5F5F5F5F5F5F5F5F5F5F5F5F5F5F5F5F5F5F5F5F5F5F5F5F5F5F5F5F5F5F5F5F5F5F5F5F5F5F5F5F5F5F5F5F5F5F5F5F5F5F5F5F5F5F5F5F5F5F5F5F5
310
F5F5F5F5F5F5F5F5F5F5F5F5F5F5F5F5F5F5F5F5F5F5F5F5F5F5F5F5F5F5F5F5F5F5F5F5F5F5F5F5F5F5F5F5F5F5F5F5F5F5F5F5F5F5F5F5F5E2F5F5F5E2F5F5E2E2EFE2F5F5E2F5F5F5E2F5F5F5F5F5F5F5F5F5F5F5F5F5F5F5F5F5F5F5F5F5F5F5F5F5F5F5F5F5F5F5F5F5F5F5F5F5F5F5F5F5F5F5F5F5F5F5F5F5F5F5F5
310
F5F5F5F5F5F5F5F5F5F5F5F5F5F5F5F5F5F5F5F5F5F5F5F5F5F5F5F5F5F5F5F5F5F5F5F5F5F5F5F5F5F5F5F5F5F5F5F5F5F5F5F5F5F5F5F5F5F5F5F5F5F5F5F5F5F5F5F5F5F5F5F5F5F5F5F5F5F5F5F5F5F5F5F5F5F5F5F5F5F5F5F5F5F5F5F5F5F5F5F5F5F5F5F5F5F5F5F5F5F5E2F5F5F5E2F5F5E2E2EFE2F5F5E2F5F5F5
310
E2F5F5F5F5F5F5F5F5F5F5F5F5F5F5F5F5F5F5F5F5F5F5F5F5F5F5F5F5F5F5F5F5F5F5F5F5F5F5F5F5F5F5F5F5F5F5F5F5F5F5F5F5F5F5F5F5F5F5F5F5F5F5F5F5F5F5F5F5F5F5F5F5F5F5F5F5F5F5F5F5F5F5F5F5F5F5F5F5F5F5F5F5F5F5F5F5F5F5F5F5F5F5F5F5F5F5F5F5F5F5F5F5F5F5F5F5F5F5F5F5F5F5F5F5F5F5
310
F5F5F5F5F5F5F5F5F5F5F5F5F5F5F5F5F5F5F5F5F5F5F5F5F5F5F5F5F5F5F5F5F5F5F5F5E2F5F5F5E2F5F5E2E2EFE2F5F5E2F5F5F5E2F5F5F5F5F5F5F5F5F5F5F5F5F5F5F5F5F5F5F5F5F5F5F5F5F5F5F5F5F5F5F5F5F5F5F5F5F5F5F5F5F5F5F5F5F5F5F5F5F5F5F5F5F5F5F5F5F5F5F5F5F5F5F5F5F5F5F5F5F5F5F5F5F5
310
F5F5F5F5F5F5F5F5F5F5F5F5F5F5F5F5F5F5F5F5F5F5F5F5F5F5F5F5F5F5F5F5F5F5F5F5F5F5F5F5F5F5F5F5F5F5F5F5F5F5F5F5F5F5F5F5F5F5F5F5F5F5F5F5F5F5F5F5F5F5F5F5F5F5F5F5F5F5F5F5F5F5F5F5F5F5F5F5F5E2F5F5F5E2F5F5E2E2EFE2F5F5E2F5F5F5E2F5F5F5F5F5F5F5F5F5F5F5F5F5F5F5F5F5F5F5F5
310
F5F5F5F5F5F5F5F5F5F5F5F5F5F5F5F5F5F5F5F5F5F5F5F5F5F5F5F5F5F5F5F5F5F5F5F5F5F5F5F5F5F5F5F5F5F5F5F5F5F5F5F5F5F5F5F5F5F5F5F5F5F5F5F5F5F5F5F5F5F5F5F5F5F5F5F5F5F5F5F5F5F5F5F5F5F5F5F5F5F5F5F5F5F5F5F5F5F5F5F5F5F5F5F5F5F5F5F5F5F5F5F5F5F5F5F5F5F5F5F5F5F5F5F5F5F5F5
310
F5F5F5F5F5F5F5F5F5F5F5F5F5F5F5E2F5F5F5E2F5F5E2E2EFE2F5F5E2F5F5F5E2F5F5F5F5F5F5F5F5F5F5F5F5F5F5F5F5F5F5F5F5F5F5F5F5F5F5F5F5F5F5F5F5F5F5F5F5F5F5F5F5F5F5F5F5F5F5F5F5F5F5F5F5F5F5F5F5F5F5F5F5F5F5F5F5F5F5F5F5F5F5F5F5F5F5F5F5F5F5F5F5F5F5F5F5F5F5F5F5F5F5F5F5F5F5
310
F5F5F5F5F5F5F5F5F5F5F5F5F5F5F5F5F5F5F5F5F5F5F5F5F5F5F5F5F5F5F5F5F5F5F5F5F5F5F5F5F5F5F5F5F5F5F5F5F5F5F5F5F5F5F5F5F5F5F5F5F5F5F5F5F5F5F5F5E2F5F5F5E2F5F5E2E2EFE2F5F5F5F5F5F5E2F5F5F5F5F5F5F5F5F5F5F5F5F5F5F5F5F5F5F5F5F5F5F5F5F5F5F5F5F5F5F5F5F5F5F5F5F5F5F5F5F5
310
F5F5F5F5F5F5F5F5F5F5F5F5F5F5F5F5F5F5F5F5F5F5F5F5F5F5F5F5F5F5F5F5F5F5F5F5F5F5F5F5F5F5F5F5F5F5F5F5F5F5F5F5F5F5F5F5F5F5F5F5F5F5F5F5F5F5F5F5F5F5F5F5F5F5F5F5F5F5F5F5F5F5F5F5F5F5F5F5F5F5F5F5F5F5F5F5F5F5F5F5F5F5F5F5F5F5F5F5F5F5F5F5F5F5F5F5F5F5F5F5F5E2F5F5F5F5F5
310
F5E2E2EFE2F5F5F5F5F5F5E2F5F5F5F5F5F5F5F5F5F5F5F5F5F5F5F5F5F5F5F5F5F5F5F5F5F5F5F5F5F5F5F5F5F5F5F5F5F5F5F5F5F5F5F5F5F5F5F5F5F5F5F5F5F5F5F5F5F5F5F5F5F5F5F5F5F5F5F5F5F5F5F5F5F5F5F5F5F5F5F5F5F5F5F5F5F5F5F5F5F5F5F5F5F5F5F5F5F5F5F5F5F5F5F5F5F5F5F5F5F5F5F5F5F5F5
310
F5F5F5F5F5F5F5F5F5F5F5F5F5F5F5F5F5F5F5F5F5F5F5F5F5F5F5F5F5F5F5F5F5F5F5F5F5F5F5F5F5F5F5F5F5F5F5E2F5F5F5F5F5F5E2E2EFE2F5F5F5F5F5F5E2F5F5F5F5F5F5F5F5F5F5F5F5F5F5F5F5F5F5F5F5F5F5F5F5F5F5F5F5F5F5F5F5F5F5F5F5F5F5F5F5F5F5F5F5F5F5F5F5F5F5F5F5F5F5F5F5F5F5F5F5F5F5
310
F5F5F5F5F5F5F5F5F5F5F5F5F5F5F5F5F5F5F5F5F5F5F5F5F5F5F5F5F5F5F5F5F5F5F5F5F5F5F5F5F5F5F5F5F5F5F5F5F5F5F5F5F5F5F5F5F5F5F5F5F5F5F5F5F5F5F5F5F5F5F5F5F5F5F5F5F5F5F5F5F5F5F5F5F5F5F5F5F5F5F5F5F5F5F5F5F5F5F5F5E2F5F5F5F5F5F5E2E2EFE2F5F5F5F5F5F5E2F5F5F5F5F5F5F5F5F5
310
F5F5F5F5F5F5F5F5F5F5F5F5F5F5F5F5F5F5F5F5F5F5F5F5F5F5F5F5F5F5F5F5F5F5F5F5F5F5F5F5F5F5F5F5F5F5F5F5F5F5F5F5F5F5F5F5F5F5F5F5F5F5F5F5F5F5F5F5F5F5F5F5F5F5F5F5F5F5F5F5F5F5F5F5F5F5F5F5F5F5F5F5F5F5F5F5F5F5F5F5F5F5F5F5F5F5F5F5F5F5F5F5F5F5F5F5F5F5F5F5F5F5F5F5F5F5F5
310
F5F5F5F5F5F5F5F5F5F5F5F5F5F5F5F5F5F5F5F5F5F5F5F5F5F5E2F5F5F5F5F5F5E2E2EFE2F5F5F5F5F5F5E2F5F5F5F5F5F5F5F5F5F5F5F5F5F5F5F5F5F5F5F5F5F5F5F5F5F5F5F5F5F5F5F5F5F5F5F5F5F5F5F5F5F5F5F5F5F5F5F5F5F5F5F5F5F5F5F5F5F5F5F5F5F5F5F5F5F5F5F5F5F5F5F5F5F5F5F5F5F5F5F5F5F5F5
310
F5F5F5F5F5F5F5F5F5F5F5F5F5F5F5F5F5F5F5F5F5F5F5F5F5F5F5F5F5F5F5F5F5F5F5F5F5F5F5F5F5F5F5F5F5F5F5F5F5F5F5F5F5F5F5F5F5F5F5F5F5F5F5F5F5F5F5F5F5F5F5F5F5F5F5F5F5F5F5E2F5F5F5F5F5F5E2E2EFE2F5F5F5F5F5F5E2F5F5F5F5F5F5F5F5F5F5F5F5F5F5F5F5F5F5F5F5F5F5F5F5F5F5F5F5F5F5
310
F5F5F5F5F5F5F5F5F5F5F5F5F5F5F5F5F5F5F5F5F5F5F5F5F5F5F5F5F5F5F5F5F5F5F5F5F5F5F5F5F5F5F5F5F5F5F5F5F5F5F5F5F5F5F5F5F5F5F5F5F5F5F5F5F5F5F5F5F5F5F5F5F5F5F5F5F5F5F5F5F5F5F5F5F5F5F5F5F5F5F5F5F5F5F5F5F5F5F5F5F5F5F5F5F5F5F5F5F5F5F5F5F5F5F5F5F5F5F5F5F5F5F5F5F5F5F5
310
F5F5F5F5F5E2F5F5F5F5F5F5E2E2EFE2F5F5F5F5F5F5E2F5F5F5F5F5F5F5F5F5F5F5F5F5F5F5F5F5F5F5F5F5F5F5F5F5F5F5F5F5F5F5F5F5F5F5F5F5F5F5F5F5F5F5F5F5F5F5F5F5F5F5F5F5F5F5F5F5F5F5F5F5F5F5F5F5F5F5F5F5F5F5F5F5F5F5F5F5F5F5F5F5F5F5F5F5F5F5F5F5F5F5F5F5F5F5F5F5F5F5F5F5F5F5F5
310
F5F5F5F5F5F5F5F5F5F5F5F5F5F5F5F5F5F5F5F5F5F5F5F5F5F5F5F5F5F5F5F5F5F5F5F5F5F5F5F5F5F5F5F5F5F5F5F5F5F5F5F5F5F5F5F5F5F5E2F5F5F5F5F5F5E2E2EFE2F5F5F5F5F5F5E2F5F5F5F5F5F5F5F5F5F5F5F5F5F5F5F5F5F5F5F5F5F5F5F5F5F5F5F5F5F5F5F5F5F5F5F5F5F5F5F5F5F5F5F5F5F5F5F5F5F5F5
310
F5F5F5F5F5F5F5F5F5F5F5F5F5F5F5F5F5F5F5F5F5F5F5F5F5F5F5F5F5F5F5F5F5F5F5F5F5F5F5F5F5F5F5F5F5F5F5F5F5F5F5F5F5F5F5F5F5F5F5F5F5F5F5F5F5F5F5F5F5F5F5F5F5F5F5F5F5F5F5F5F5F5F5F5F5F5F5F5F5F5F5F5F5F5F5F5F5F5F5F5F5F5F5F5F5F5F5F5F5F5F5E2F5F5F5F5F5F5E2E2EFE2F5F5F5F5F5
310
F5E2F5F5F5F5F5F5F5F5F5F5F5F5F5F5F5F5F5F5F5F5F5F5F5F5F5F5F5F5F5F5F5F5F5F5F5F5F5F5F5F5F5F5F5F5F5F5F5F5F5F5F5F5F5F5F5F5F5F5F5F5F5F5F5F5F5F5F5F5F5F5F5F5F5F5F5F5F5F5F5F5F5F5F5F5F5F5F5F5F5F5F5F5F5F5F5F5F5F5F5F5F5F5F5F5F5F5F5F5F5F5F5F5F5F5F5F5F5F5F5F5F5F5F5F5F5
310
F5F5F5F5F5F5F5F5F5F5F5F5F5F5F5F5F5F5F5F5F5F5F5F5F5F5F5F5F5F5F5F5F5F5F5F5F5E2F5F5F5F5F5F5E2E2EFE2F5F5E2F5F5F5E2F5F5F5F5F5F5F5F5F5F5F5F5F5F5F5F5F5F5F5F5F5F5F5F5F5F5F5F5F5F5F5F5F5F5F5F5F5F5F5F5F5F5F5F5F5F5F5F5F5F5F5F5F5F5F5F5F5F5F5F5F5F5F5F5F5F5F5F5F5F5F5F5
310
F5F5F5F5F5F5F5F5F5F5F5F5F5F5F5F5F5F5F5F5F5F5F5F5F5F5F5F5F5F5F5F5F5F5F5F5F5F5F5F5F5F5F5F5F5F5F5F5F5F5F5F5F5F5F5F5F5F5F5F5F5F5F5F5F5F5F5F5F5F5F5F5F5F5F5F5F5F5F5F5F5F5F5F5F5F5F5F5F5F5E2F5F5F5E2F5F5E2E2EFE2F5F5E2F5F5F5E2F5F5F5F5F5F5F5F5F5F5F5F5F5F5F5F5F5F5F5
310
F5F5F5F5F5F5F5F5F5F5F5F5F5F5F5F5F5F5F5F5F5F5F5F5F5F5F5F5F5F5F5F5F5F5F5F5F5F5F5F5F5F5F5F5F5F5F5F5F5F5F5F5F5F5F5F5F5F5F5F5F5F5F5F5F5F5F5F5F5F5F5F5F5F5F5F5F5F5F5F5F5F5F5F5F5F5F5F5F5F5F5F5F5F5F5F5F5F5F5F5F5F5F5F5F5F5F5F5F5F5F5F5F5F5F5F5F5F5F5F5F5F5F5F5F5F5F5
310
F5F5F5F5F5F5F5F5F5F5F5F5F5F5F5F5E2F5F5F5E2F5F5E2E2EFE2F5F5E2F5F5F5E2F5F5F5F5F5F5F5F5F5F5F5F5F5F5F5F5F5F5F5F5F5F5F5F5F5F5F5F5F5F5F5F5F5F5F5F5F5F5F5F5F5F5F5F5F5F5F5F5F5F5F5F5F5F5F5F5F5F5F5F5F5F5F5F5F5F5F5F5F5F5F5F5F5F5F5F5F5F5F5F5F5F5F5F5F5F5F5F5F5F5F5F5F5
310
F5F5F5F5F5F5F5F5F5F5F5F5F5F5F5F5F5F5F5F5F5F5F5F5F5F5F5F5F5F5F5F5F5F5F5F5F5F5F5F5F5F5F5F5F5F5F5F5F5F5F5F5F5F5F5F5F5F5F5F5F5F5F5F5F5F5F5F5F5E2F5F5F5E2F5F5E2E2EFE2F5F5E2F5F5F5E2F5F5F5F5F5F5F5F5F5F5F5F5F5F5F5F5F5F5F5F5F5F5F5F5F5F5F5F5F5F5F5F5F5F5F5F5F5F5F5F5
310
F5F5F5F5F5F5F5F5F5F5F5F5F5F5F5F5F5F5F5F5F5F5F5F5F5F5F5F5F5F5F5F5F5F5F5F5F5F5F5F5F5F5F5F5F5F5F5F5F5F5F5F5F5F5F5F5F5F5F5F5F5F5F5F5F5F5F5F5F5F5F5F5F5F5F5F5F5F5F5F5F5F5F5F5F5F5F5F5F5F5F5F5F5F5F5F5F5F5F5F5F5F5F5F5F5F5F5F5F5F5F5F5F5F5F5F5F5F5F5F5F5F5E2F5F5F5E2
310
F5F5E2E2EFE2F5F5E2F5F5F5E2F5F5F5F5F5F5F5F5F5F5F5F5F5F5F5F5F5F5F5F5F5F5F5F5F5F5F5F5F5F5F5F5F5F5F5F5F5F5F5F5F5F5F5F5F5F5F5F5F5F5F5F5F5F5F5F5F5F5F5F5F5F5F5F5F5F5F5F5F5F5F5F5F5F5F5F5F5F5F5F5F5F5F5F5F5F5F5F5F5F5F5F5F5F5F5F5F5F5F5F5F5F5F5F5F5F5F5F5F5F5F5F5F5F5
310
F5F5F5F5F5F5F5F5F5F5F5F5F5F5F5F5F5F5F5F5F5F5F5F5F5F5F5F5F5F5F5F5F5F5F5F5F5F5F5F5F5F5F5F5F5F5F5F5E2F5F5F5E2F5F5E2E2EFE2F5F5E2F5F5F5E2F5F5F5F5F5F5F5F5F5F5F5F5F5F5F5F5F5F5F5F5F5F5F5F5F5F5F5F5F5F5F5F5F5F5F5F5F5F5F5F5F5F5F5F5F5F5F5F5F5F5F5F5F5F5F5F5F5F5F5F5F5
310
F5F5F5F5F5F5F5F5F5F5F5F5F5F5F5F5F5F5F5F5F5F5F5F5F5F5F5F5F5F5F5F5F5F5F5F5F5F5F5F5F5F5F5F5F5F5F5F5F5F5F5F5F5F5F5F5F5F5F5F5F5F5F5F5F5F5F5F5F5F5F5F5F5F5F5F5F5F5F5F5F5F5F5F5F5F5F5F5F5F5F5F5F5F5F5F5F5F5F5F5F5E2F5F5F5E2F5F5E2E2EFE2F5F5E2F5F5F5E2E2E2E2E2E2E2E2E2
310
E2E2E2E2E2E2E2E2E2E2E2E2E2E2E2E2E2E2E2E2E2E2E2E2E2E2E2E2E2E2E2E2E2E2E2E2E2E2E2E2E2E2E2E2E2E2E2E2E2E2E2E2E2E2E2E2E2E2E2E2E2E2E2E2E2E2E2E2E2E2E2E2E2E2E2E2E2E2E2E2E2E2E2E2E2E2E2E2E2E2E2E2E2E2E2E2E2E2E2E2E2E2E2E2E2E2E2E2E2E2E2E2E2E2E2E2E2E2E2E2E2E2E2E2E2E2E2
310
E2E2E2E2E2E2E2E2E2E2E2E2E2E2E2E2E2E2E2E2E2E2E2E2E2E2E2E2F5F5F5E2F5F5E2E2EFE2F5F5E2E2E2E2E2E2E2E2F5F5F5F5F5F5F5F5F5E2E2E2E2E2E2E2E2E2E2E2E2E2E2E2E2F5F5F5F5F5F5F5F5F5E2E2E2E2E2E2E2E2E2E2E2E2E2E2E2F5F5F5F5F5F5F5F5F5E2E2E2E2E2E2E2E2E2E2E2E2E2E2E2E2F5F5F5F5F5
310
F5F5F5E2E2E2E2E2E2E2E2E2E2E2E2E2E2E2E2F5F5F5F5F5F5F5F5F5E2E2E2E2E2E2E2E2E2E2E2E2E2E2E2F5F5F5F5F5F5F5F5F5E2E2E2E2E2E2E2E2E2E2E2E2E2E2E2E2F5F5F5F5F5F5F5F5F5E2E2E2E2E2E2E2E2F5F5E2E2EFE2F5F5F5F5F5F5F5F5F5F5F5F5F5F5F5F5F5F5F5F5F5F5F5F5F5F5F5F5F5F5F5F5F5F5F5F5
310
F5F5F5F5F5F5F5F5F5F5F5F5F5F5F5F5F5F5F5F5F5F5F5F5F5F5F5F5F5F5F5F5F5F5F5F5F5F5F5F5F5F5F5F5F5F5F5F5F5F5F5F5F5F5F5F5F5F5F5F5F5F5F5F5F5F5F5F5F5F5F5F5F5F5F5F5F5F5F5F5F5F5F5F5F5F5F5F5F5F5F5F5F5F5F5F5F5F5F5F5F5F5F5F5F5F5F5F5F5F5F5F5F5F5F5F5F5F5F5F5F5F5F5F5F5F5F5
310
F5F5F5F5F5F5F5F5F5F5F5F5F5E2E2EFE2F5F5F5F5F5F5F5F5F5F5F5F5F5F5F5F5F5F5F5F5F5F5F5F5F5F5F5F5F5F5F5F5F5F5F5F5F5F5F5F5F5F5F5F5F5F5F5F5F5F5F5F5F5F5F5F5F5F5F5F5F5F5F5F5F5F5F5F5F5F5F5F5F5F5F5F5F5F5F5F5F5F5F5F5F5F5F5F5F5F5F5F5F5F5F5F5F5F5F5F5F5F5F5F5F5F5F5F5F5F5
310
F5F5F5F5F5F5F5F5F5F5F5F5F5F5F5F5F5F5F5F5F5F5F5F5F5F5F5F5F5F5F5F5F5F5F5F5F5F5F5F5F5F5F5F5F5F5F5F5F5F5F5F5F5F5F5F5F5F5F5F5F5F5F5F5F5F5E2E2EFE2F5F5F5F5F5F5F5F5F5F5F5F5F5F5F5F5F5F5F5F5F5F5F5F5F5F5F5F5F5F5F5F5F5F5F5F5F5F5F5F5F5F5F5F5F5F5F5F5F5F5F5F5F5F5F5F5F5
310
F5F5F5F5F5F5F5F5F5F5F5F5F5F5F5F5F5F5F5F5F5F5F5F5F5F5F5F5F5F5F5F5F5F5F5F5F5F5F5F5F5F5F5F5F5F5F5F5F5F5F5F5F5F5F5F5F5F5F5F5F5F5F5F5F5F5F5F5F5F5F5F5F5F5F5F5F5F5F5F5F5F5F5F5F5F5F5F5F5F5F5F5F5F5F5F5F5F5F5F5F5F5F5F5F5F5F5F5F5F5F5F5F5F5F5F5F5F5F5E2EFEFE2E2E2E2E2
310
E2E2E2E2E2E2E2E2E2E2E2E2E2E2E2E2E2E2E2E2E2E2E2E2E2E2E2E2E2E2E2E2E2E2E2E2E2E2E2E2E2E2E2E2E2E2E2E2E2E2E2E2E2E2E2E2E2E2E2E2E2E2E2E2E2E2E2E2E2E2E2E2E2E2E2E2E2E2E2E2E2E2E2E2E2E2E2E2E2E2E2E2E2E2E2E2E2E2E2E2E2E2E2E2E2E2E2E2E2E2E2E2E2E2E2E2E2E2E2E2E2E2E2E2E2E2E2
310
E2E2E2E2E2E2E2E2E2E2E2E2E2E2E2E2E2E2E2E2E2E2E2E2E2E2E2E2E2E2E2E2E2E2E2E2E2E2E2E2E2E2E2E2E2E2EFEF
  0
XRECORD
  5
1600
102
{ACAD_REACTORS
330
15FF
102
}
330
15FF
100
AcDbXrecord
280
     1
102
SHADEPLOT
 70
     0
102
SHADEPLOTRESLEVEL
 70
     2
102
SHADEPLOTCUSTOMDPI
 70
   300
  0
XRECORD
  5
160A
102
{ACAD_REACTORS
330
1609
102
}
330
1609
100
AcDbXrecord
280
     1
102
MATERIAL
148
0.0
149
0.0
149
0.0
 93
        0
 94
       63
282
     0
 72
     1
 77
     1
171
     1
175
     1
179
     1
273
     0
  0
XRECORD
  5
1608
102
{ACAD_REACTORS
330
1607
102
}
330
1607
100
AcDbXrecord
280
     1
102
MATERIAL
148
0.0
149
0.0
149
0.0
 93
        0
 94
       63
282
     0
 72
     1
 77
     1
171
     1
175
     1
179
     1
273
     0
  0
XRECORD
  5
160C
102
{ACAD_REACTORS
330
160B
102
}
330
160B
100
AcDbXrecord
280
     1
102
MATERIAL
148
0.0
149
0.0
149
0.0
 93
        0
 94
       63
282
     0
 72
     1
 77
     1
171
     1
175
     1
179
     1
273
     0
  0
XRECORD
  5
1604
102
{ACAD_REACTORS
330
1603
102
}
330
1603
100
AcDbXrecord
280
     1
102
SHADEPLOT
 70
     0
102
SHADEPLOTRESLEVEL
 70
     2
102
SHADEPLOTCUSTOMDPI
 70
   300
  0
XRECORD
  5
1606
102
{ACAD_REACTORS
330
1605
102
}
330
1605
100
AcDbXrecord
280
     1
102
ACAD_ROUNDTRIP_PRE2007_TABLESTYLE
 90
      512
 91
        0
  1

 92
      512
 93
        0
  2

 94
      512
 95
        0
  3

  0
ENDSEC
  0
EOF
